#VERSION:0.82;
#TITLE:Feel A Thrill;
#SUBTITLE:;
#ARTIST:古代祐三;
#TITLETRANSLIT:;
#SUBTITLETRANSLIT:;
#ARTISTTRANSLIT:Yuzo Koshiro;
#GENRE:;
#ORIGIN:;
#CREDIT:;
#BANNER:Feel A Thrill.png;
#BACKGROUND:Feel A Thrill-bg.png;
#PREVIEWVID:;
#JACKET:Feel A Thrill-jacket.png;
#CDIMAGE:;
#DISCIMAGE:;
#LYRICSPATH:;
#CDTITLE:;
#MUSIC:Feel A Thrill.ogg;
#OFFSET:-0.881000;
#SAMPLESTART:74.732155;
#SAMPLELENGTH:13.426567;
#SELECTABLE:YES;
#BPMS:0.000=143.000;
#STOPS:;
#DELAYS:;
#WARPS:;
#TIMESIGNATURES:0.000=4=4;
#TICKCOUNTS:0.000=4;
#COMBOS:0.000=1;
#SPEEDS:0.000=1.000=0.000=0;
#SCROLLS:0.000=1.000;
#FAKES:;
#LABELS:0.000=Song Start;
#BGCHANGES:;
#KEYSOUNDS:;
#ATTACKS:
;

//---------------dance-single - ----------------
#NOTEDATA:;
#CHARTNAME:;
#STEPSTYPE:dance-single;
#DESCRIPTION:;
#CHARTSTYLE:;
#DIFFICULTY:Hard;
#METER:7;
#RADARVALUES:0.364383,0.340609,0.124424,0.132200,0.124424,295.000000,16.000000,17.000000,0.000000,0.000000,0.000000,0.000000,0.000000,0.364383,0.340609,0.124424,0.132200,0.124424,295.000000,16.000000,17.000000,0.000000,0.000000,0.000000,0.000000,0.000000;
#CREDIT:;
#NOTES:
// measure 0
0000
0000
0000
0000
,  // measure 1
0000
0000
0000
0000
,  // measure 2
0000
0000
0000
0000
,  // measure 3
0000
0000
0000
0000
,  // measure 4
0002
0000
0000
0003
,  // measure 5
2000
0000
0000
3000
,  // measure 6
0020
0000
0000
0030
,  // measure 7
0200
0000
0000
0300
,  // measure 8
0001
0100
0002
0003
,  // measure 9
1000
0100
2000
3000
,  // measure 10
0001
0010
0002
0003
,  // measure 11
1000
0010
2000
3000
,  // measure 12
0010
0000
1010
0000
1000
0010
0100
0000
,  // measure 13
0001
0000
0011
0000
0010
0100
1000
0000
,  // measure 14
0001
0000
0101
0000
0100
0010
1000
0000
,  // measure 15
0100
0000
0110
0000
0100
1000
0001
0000
,  // measure 16
1000
0000
0001
0000
0000
1000
0000
0000
0001
0000
0000
1000
0000
0000
0100
0000
,  // measure 17
0000
0000
0100
0000
0000
0010
0000
0000
0100
0000
0000
0010
0000
0000
0001
0000
,  // measure 18
0000
0000
0001
0000
0000
0100
0000
0000
0001
0000
0000
0100
0000
0000
0010
0000
,  // measure 19
0000
0000
0100
0000
0000
0010
0000
0000
1000
0000
0000
0001
0000
0000
0010
0000
,  // measure 20
0000
0000
0100
0000
0000
0100
0000
0000
1000
0000
0000
1000
0000
0000
0010
0000
,  // measure 21
0000
0000
0100
0000
0000
0100
0000
0000
0001
0000
0000
0001
0000
0000
0010
0000
,  // measure 22
0000
0000
0100
0000
0000
0100
0000
0000
1000
0000
0000
1000
0000
0000
0010
0000
,  // measure 23
0000
0000
0100
0000
0000
0010
0000
0000
1000
0000
0000
0001
0000
0000
1000
0000
,  // measure 24
0000
0000
0001
0000
0000
0100
0000
0000
1000
0000
0000
0100
0000
0000
0001
0000
,  // measure 25
0000
0000
0010
0000
0000
1000
0000
0000
0010
0000
0000
0001
0000
0000
0010
0000
,  // measure 26
0000
0000
0100
0000
0000
1000
0000
0000
0100
0000
0000
0001
0000
0000
0100
0000
,  // measure 27
0000
0000
1000
0000
0000
0010
0000
0000
0001
0000
0000
0010
0000
0000
1000
0000
,  // measure 28
0000
0000
0010
0000
0000
0100
0000
0000
0001
0000
0000
1000
0000
0000
0010
0000
,  // measure 29
0000
0000
1000
0000
0000
0100
0000
0000
0010
0000
0000
0001
0000
0000
0010
0000
,  // measure 30
0000
0000
0001
0000
0000
0010
0000
0000
0100
0000
0000
0010
0000
0000
0100
0000
,  // measure 31
0000
0000
0100
0000
0000
1000
0000
0000
0010
0000
0000
0100
0000
0000
0001
0000
,  // measure 32
2000
0000
0000
3100
0000
0000
0010
0000
,  // measure 33
0002
0000
0000
0013
0000
0000
0100
0000
,  // measure 34
2000
0000
0000
3001
0000
0000
0100
0000
,  // measure 35
0020
0000
0000
0130
0000
0000
0010
0000
,  // measure 36
1000
0100
1000
0001
1000
0000
1001
0000
,  // measure 37
1000
0000
0001
1000
0000
0001
0010
0000
,  // measure 38
0001
0100
0001
1000
0100
0000
0110
0000
,  // measure 39
0100
0000
0010
0100
0000
0100
1000
0000
,  // measure 40
0100
0010
0100
1000
0001
0000
1001
0000
,  // measure 41
0001
0000
1000
0010
0000
0010
0100
0000
,  // measure 42
0010
1000
0001
1000
0100
0000
0110
0000
,  // measure 43
0100
0000
0010
0001
0000
0001
1000
0000
,  // measure 44
0001
1000
0010
0100
0001
0000
1000
0000
,  // measure 45
1100
0100
0011
0010
,  // measure 46
0001
0100
0010
0100
0001
0000
0010
0000
,  // measure 47
0001
0010
0100
1000
0000
0100
1000
0000
,  // measure 48
0001
0100
0010
1000
0001
0000
1000
0000
,  // measure 49
0101
0100
1010
1000
,  // measure 50
0001
0010
0100
0010
0001
0000
1000
0000
,  // measure 51
0010
0100
1000
0100
0000
0010
1000
0000
,  // measure 52
0001
1000
0010
1000
0000
0000
0000
0000
,  // measure 53
0001
0000
0000
1000
0000
0000
0100
0000
,  // measure 54
1000
0100
1000
0001
0000
0000
0000
0000
,  // measure 55
0010
0000
0000
0100
0000
0000
1000
0000
,  // measure 56
0100
1000
0010
0100
0000
0000
0000
0000
,  // measure 57
0010
0000
0000
1000
0000
0000
0001
0000
,  // measure 58
0100
0010
0100
0001
0000
0000
0000
0000
,  // measure 59
0100
0000
0000
0001
0000
0000
1000
0000
,  // measure 60
0001
0010
0100
1000
0000
0000
0000
0000
,  // measure 61
0100
0000
0000
1000
0000
0000
0010
0000
,  // measure 62
0100
0010
1000
0001
0000
0000
0000
0000
,  // measure 63
1000
0000
0000
0001
0000
0000
0100
0000
,  // measure 64
0010
1000
0001
0100
0000
0000
0000
0000
,  // measure 65
1001
0000
0000
0110
0000
0000
1001
0000
,  // measure 66
0001
0100
0010
1000
0000
0000
0000
0000
,  // measure 67
0010
0000
0100
0010
0000
1000
0001
0000
,  // measure 68
1000
0100
0001
0100
0000
0000
0000
0010
,  // measure 69
0002
0000
1003
0001
0200
0000
0000
0300
,  // measure 70
0001
1000
0100
0010
0000
0000
0010
0100
,  // measure 71
1000
0001
1000
0020
0000
0000
0030
0000
,  // measure 72
2002
0000
0000
0000
,  // measure 73
3003
0000
0000
0000
;

//---------------dance-single - ----------------
#NOTEDATA:;
#CHARTNAME:;
#STEPSTYPE:dance-single;
#DESCRIPTION:;
#CHARTSTYLE:;
#DIFFICULTY:Medium;
#METER:5;
#RADARVALUES:0.282175,0.279953,0.069988,0.085541,0.000000,234.000000,9.000000,11.000000,0.000000,0.000000,0.000000,0.000000,0.000000,0.282175,0.279953,0.069988,0.085541,0.000000,234.000000,9.000000,11.000000,0.000000,0.000000,0.000000,0.000000,0.000000;
#CREDIT:;
#NOTES:
// measure 0
0000
0000
0000
0000
,  // measure 1
0000
0000
0000
0000
,  // measure 2
0000
0000
0000
0000
,  // measure 3
0000
0000
0000
0000
,  // measure 4
1002
0000
0000
0000
,  // measure 5
2003
0000
0000
0000
,  // measure 6
3200
0000
0000
0000
,  // measure 7
2300
0000
0000
0000
,  // measure 8
3010
0000
1000
0000
,  // measure 9
0010
0000
0100
0000
,  // measure 10
0001
0000
1000
0000
,  // measure 11
0100
0000
1000
0000
,  // measure 12
0001
1001
0001
0100
,  // measure 13
0001
1001
1000
0100
,  // measure 14
1000
1001
0001
0100
,  // measure 15
0001
1001
1000
0100
,  // measure 16
1000
0100
0010
0001
0000
0000
0000
0000
,  // measure 17
0010
0100
1000
0001
,  // measure 18
1000
0010
0100
0001
0000
0000
0000
0000
,  // measure 19
1000
1000
0001
0001
,  // measure 20
0100
0010
1000
0010
0000
0000
0000
0000
,  // measure 21
0100
0001
1000
0100
,  // measure 22
0010
0001
0010
0100
0000
0000
0000
0000
,  // measure 23
0010
0001
0100
0001
,  // measure 24
1000
0001
0100
0001
0000
0000
0000
0000
,  // measure 25
1000
0001
0100
0001
,  // measure 26
1000
0001
0010
0001
0000
0000
0000
0000
,  // measure 27
1000
0010
0100
0001
,  // measure 28
1000
0100
0001
0100
0000
0000
0000
0000
,  // measure 29
1000
0010
0100
0001
,  // measure 30
1000
0010
0001
0010
0000
0000
0000
0000
,  // measure 31
1000
0010
0100
0001
,  // measure 32
2000
0000
0000
3001
0000
0000
1000
0000
,  // measure 33
0002
0000
0000
1003
0000
0000
0001
0000
,  // measure 34
2000
0000
0000
3001
0000
0000
1000
0000
,  // measure 35
0002
0000
0000
1003
0000
0000
0001
0000
,  // measure 36
1000
0100
1000
0100
0000
0000
0000
0000
,  // measure 37
0010
0000
0000
0100
0000
0000
1000
0000
,  // measure 38
0001
0100
0001
1000
0000
0000
0000
0000
,  // measure 39
0010
0000
0000
0100
0000
0000
0001
0000
,  // measure 40
1000
0100
1000
0001
0000
0000
0000
0000
,  // measure 41
0100
0000
0000
0001
0000
0000
0010
0000
,  // measure 42
0001
0010
0001
1000
0000
0000
0000
0000
,  // measure 43
0010
0000
0000
0100
0000
0000
0001
0000
,  // measure 44
1000
0100
0010
0001
0000
0000
0000
0000
,  // measure 45
0010
0010
0100
0100
,  // measure 46
1000
0001
1000
0001
0000
0000
0000
0000
,  // measure 47
0100
0010
0100
0010
0000
0000
0100
0000
,  // measure 48
0001
0100
0010
1000
0000
0000
0000
0000
,  // measure 49
0100
1000
0010
0100
,  // measure 50
0001
0100
0001
1000
0000
0000
0000
0000
,  // measure 51
0100
0010
0001
1000
0000
0000
0001
0000
,  // measure 52
1000
0100
1000
0001
0000
0000
0000
0000
,  // measure 53
1000
0000
0000
0010
0000
0000
0100
0000
,  // measure 54
0001
0100
0001
0100
0000
0000
0000
0000
,  // measure 55
0010
0000
0000
1000
0000
0000
0001
0000
,  // measure 56
1000
0100
1000
0100
0000
0000
0000
0000
,  // measure 57
1000
0000
0000
0001
0000
0000
0100
0000
,  // measure 58
0010
0100
0010
1000
0000
0000
0000
0000
,  // measure 59
0001
0000
0000
0010
0000
0000
0001
0000
,  // measure 60
1000
0100
0010
0001
0000
0000
0000
0000
,  // measure 61
1000
0000
0000
0001
0000
0000
1000
0000
,  // measure 62
0001
0010
0100
1000
0000
0000
0000
0000
,  // measure 63
0001
0000
0000
1000
0000
0000
0001
0000
,  // measure 64
1000
0100
0010
0001
0000
0000
0000
0000
,  // measure 65
0011
0000
0000
1100
0000
0000
0011
0000
,  // measure 66
0010
0001
0100
0010
,  // measure 67
2000
0000
0000
3000
,  // measure 68
0001
0100
0010
1000
0000
0000
0000
0000
,  // measure 69
0010
0100
0002
0003
,  // measure 70
1000
0000
0100
0000
,  // measure 71
1000
0100
0010
0002
0000
0000
0003
0000
,  // measure 72
1001
0000
0000
0000
;

//---------------dance-single - ----------------
#NOTEDATA:;
#CHARTNAME:;
#STEPSTYPE:dance-single;
#DESCRIPTION:;
#CHARTSTYLE:;
#DIFFICULTY:Easy;
#METER:2;
#RADARVALUES:0.153308,0.195967,0.046659,0.054435,0.000000,125.000000,6.000000,7.000000,0.000000,0.000000,0.000000,0.000000,0.000000,0.153308,0.195967,0.046659,0.054435,0.000000,125.000000,6.000000,7.000000,0.000000,0.000000,0.000000,0.000000,0.000000;
#CREDIT:;
#NOTES:
// measure 0
0000
0000
0000
0000
,  // measure 1
0000
0000
0000
0000
,  // measure 2
0000
0000
0000
0000
,  // measure 3
0000
0000
0000
0000
,  // measure 4
0010
0000
0000
0000
,  // measure 5
0100
0000
0000
0000
,  // measure 6
0001
0000
0000
0000
,  // measure 7
1000
0000
0000
0000
,  // measure 8
1001
0000
0000
0000
,  // measure 9
1000
0000
0000
0000
,  // measure 10
0100
0000
0000
0000
,  // measure 11
0010
0000
0000
0000
,  // measure 12
0001
0000
0001
0000
,  // measure 13
0100
0000
0001
0000
,  // measure 14
1000
0000
0010
0000
,  // measure 15
1000
0000
0010
0000
,  // measure 16
0100
0001
0100
0000
,  // measure 17
0001
0000
0001
0000
,  // measure 18
1000
0100
1000
0000
,  // measure 19
0100
0000
0010
0000
,  // measure 20
0001
1000
0001
0000
,  // measure 21
1000
0000
0010
0000
,  // measure 22
0100
0001
0100
0000
,  // measure 23
0001
0000
1000
0000
,  // measure 24
0100
0010
0001
0000
,  // measure 25
0010
0000
0001
0000
,  // measure 26
1000
0010
0100
0000
,  // measure 27
0010
0000
1000
0000
,  // measure 28
0001
1000
0100
0000
,  // measure 29
1000
0000
0010
0000
,  // measure 30
0100
0001
0010
0000
,  // measure 31
0100
1000
0010
0000
,  // measure 32
0100
0000
0000
0000
,  // measure 33
0001
0000
0000
0000
,  // measure 34
2000
0000
0000
3000
,  // measure 35
0100
0000
0000
0000
,  // measure 36
1000
1000
1000
0000
,  // measure 37
0001
0000
0100
0000
,  // measure 38
0010
0100
0001
0000
,  // measure 39
1000
0000
0001
0000
,  // measure 40
0010
0010
0010
0000
,  // measure 41
0100
0000
1000
0000
,  // measure 42
0010
0100
0010
0000
,  // measure 43
0100
0000
0001
0000
,  // measure 44
1000
0001
0100
0000
,  // measure 45
0010
0100
0010
0100
,  // measure 46
0001
1000
0001
0000
,  // measure 47
2000
0000
0000
3000
,  // measure 48
0001
0100
0001
0000
,  // measure 49
1000
0100
0010
0001
,  // measure 50
1000
0010
1000
0000
,  // measure 51
0002
0000
0000
0003
,  // measure 52
1001
0000
0000
0000
,  // measure 53
1000
0000
0000
0000
,  // measure 54
0010
0000
0000
0000
,  // measure 55
0100
0000
0000
0000
,  // measure 56
0110
0000
0000
0000
,  // measure 57
0100
0000
0000
0000
,  // measure 58
0001
0000
0000
0000
,  // measure 59
0010
0000
0000
0000
,  // measure 60
1001
0000
0000
0000
,  // measure 61
0001
0000
0000
0000
,  // measure 62
1000
0000
0000
0000
,  // measure 63
0010
0000
0000
0000
,  // measure 64
0100
0000
0000
0000
,  // measure 65
1001
0000
0000
0000
,  // measure 66
1001
0000
0000
0000
,  // measure 67
1000
0000
0001
0000
,  // measure 68
0100
0000
0000
0000
,  // measure 69
0020
0000
0030
0000
,  // measure 70
0200
0000
0300
0000
,  // measure 71
0002
0000
2000
0000
,  // measure 72
3003
0000
0000
0000
;

//---------------dance-single - ----------------
#NOTEDATA:;
#CHARTNAME:;
#STEPSTYPE:dance-single;
#DESCRIPTION:;
#CHARTSTYLE:;
#DIFFICULTY:Beginner;
#METER:1;
#RADARVALUES:0.095540,0.083986,0.038882,0.000000,0.000000,81.000000,5.000000,0.000000,0.000000,0.000000,0.000000,0.000000,0.000000,0.095540,0.083986,0.038882,0.000000,0.000000,81.000000,5.000000,0.000000,0.000000,0.000000,0.000000,0.000000,0.000000;
#CREDIT:;
#NOTES:
// measure 0
0000
0000
0000
0000
,  // measure 1
0000
0000
0000
0000
,  // measure 2
0000
0000
0000
0000
,  // measure 3
0000
0000
0000
0000
,  // measure 4
0001
0000
0000
0000
,  // measure 5
0100
0000
0000
0000
,  // measure 6
0010
0000
0000
0000
,  // measure 7
1000
0000
0000
0000
,  // measure 8
0010
0000
0000
0000
,  // measure 9
0100
0000
0000
0000
,  // measure 10
0010
0000
0000
0000
,  // measure 11
1000
0000
0000
0000
,  // measure 12
0001
0000
0000
0000
,  // measure 13
0100
0000
0000
0000
,  // measure 14
0001
0000
0000
0000
,  // measure 15
0010
0000
0000
0000
,  // measure 16
0001
0001
0001
0000
,  // measure 17
0000
0000
0000
0000
,  // measure 18
1000
1000
1000
0000
,  // measure 19
0000
0000
0000
0000
,  // measure 20
0010
0010
0010
0000
,  // measure 21
0000
0000
0000
0000
,  // measure 22
0100
0100
0100
0000
,  // measure 23
0000
0000
0000
0000
,  // measure 24
1000
1000
1000
0000
,  // measure 25
0000
0000
0000
0000
,  // measure 26
0001
0001
0001
0000
,  // measure 27
0000
0000
0000
0000
,  // measure 28
0100
0100
0100
0000
,  // measure 29
0000
0000
0000
0000
,  // measure 30
0010
0010
0010
0000
,  // measure 31
0000
0000
0000
0000
,  // measure 32
1000
0000
0000
0000
,  // measure 33
0001
0000
0000
0000
,  // measure 34
1000
0000
0000
0000
,  // measure 35
0001
0000
0000
0000
,  // measure 36
0100
0000
0000
0000
,  // measure 37
0010
0000
0010
0000
,  // measure 38
0100
0000
0000
0000
,  // measure 39
0001
0000
1000
0000
,  // measure 40
0100
0000
0000
0000
,  // measure 41
1000
0000
1000
0000
,  // measure 42
0001
0000
0000
0000
,  // measure 43
0010
0000
0001
0000
,  // measure 44
1000
0000
0000
0000
,  // measure 45
0100
0000
1000
0000
,  // measure 46
0010
0000
0000
0000
,  // measure 47
0010
0000
0000
0000
,  // measure 48
0100
0000
0000
0000
,  // measure 49
0001
0000
0001
0000
,  // measure 50
0010
0000
0000
0000
,  // measure 51
0010
0000
0000
0000
,  // measure 52
0100
0000
0000
0000
,  // measure 53
0000
0000
0000
0000
,  // measure 54
1000
0000
0000
0000
,  // measure 55
0000
0000
0000
0000
,  // measure 56
1001
0000
0000
0000
,  // measure 57
0000
0000
0000
0000
,  // measure 58
0010
0000
0000
0000
,  // measure 59
0000
0000
0000
0000
,  // measure 60
1001
0000
0000
0000
,  // measure 61
0100
0000
0000
0000
,  // measure 62
0010
0000
0000
0000
,  // measure 63
1000
0000
0000
0000
,  // measure 64
0001
0000
0000
0000
,  // measure 65
1001
0000
0000
0000
,  // measure 66
0110
0000
0000
0000
,  // measure 67
0100
0000
0000
0000
,  // measure 68
0010
0000
0000
0000
,  // measure 69
1000
0000
0001
0000
,  // measure 70
0100
0000
0000
0010
,  // measure 71
0010
0000
0000
0000
,  // measure 72
1001
0000
0000
0000
;
