#TITLE:Enter Bowser Jr.;
#SUBTITLE:;
#ARTIST:横田 真人;
#TITLETRANSLIT:;
#SUBTITLETRANSLIT:;
#ARTISTTRANSLIT:Mahito Yokota;
#GENRE:;
#CREDIT:mf32892;
#BANNER:Enter Bowser Jr.-bn.png;
#BACKGROUND:Enter Bowser Jr-bg.jpg;
#LYRICSPATH:;
#CDTITLE:;
#MUSIC:Enter Bowser Jr.ogg;
#OFFSET:-0.328381;
#SAMPLESTART:36.594177;
#SAMPLELENGTH:12.000000;
#SELECTABLE:YES;
#BPMS:0.000000=140.005997
;
#STOPS:
;
#BGCHANGES:0.000=Enter Bowser Jr.mp4=1.000=0=0=0=StretchNoLoop====,
99999=-nosongbg-=1.000=0=0=0 // don't automatically add -songbackground-
;
#KEYSOUNDS:;
#ATTACKS:;

//---------------dance-single - ----------------
#NOTES:
     dance-single:
     :
     Medium:
     6:
     0.394698,0.418764,0.000000,0.442831,0.173282,241.000000,0.000000,46.000000,0.000000,0.000000,0.000000,0.394698,0.418764,0.000000,0.442831,0.173282,241.000000,0.000000,46.000000,0.000000,0.000000,0.000000:
0000
0000
0000
0000
,
0000
0000
0000
0000
,
0000
0000
0000
0000
,
0000
0000
0000
0000
,
2000
0000
0000
0000
,
3002
0000
0000
0000
,
0203
0000
0320
0000
,
2030
0000
0000
0000
,
3001
0000
0000
0010
0000
0000
0001
0000
0000
0000
1000
0000
0100
0000
0000
0000
,
1000
0000
0000
0010
0000
0000
1000
0000
0000
0000
0001
0000
0100
0000
0000
0000
,
0010
0000
0000
1000
0000
0000
0001
0000
0010
0000
0000
0001
0000
0000
1000
0000
,
0010
0000
0000
0100
0000
0000
0001
0000
1000
0000
0000
0000
0000
0000
0001
0000
,
0100
0000
0000
0010
0000
0000
1000
0000
0000
0000
0001
0000
1000
0000
0000
0000
,
0100
0000
0000
0010
0000
0000
0001
0000
0000
0000
1000
0000
0001
0000
0000
0000
,
0100
0000
0000
0010
0000
0000
1000
0000
0100
0000
0000
0010
0000
0000
0001
0000
,
1000
0000
0000
0010
0000
0000
0100
0000
0010
0000
0000
0000
0100
0000
0010
0000
,
1000
0000
0000
0000
0100
0000
0000
0010
0000
0020
0000
0000
0031
0000
0000
0000
,
0100
0000
0000
0000
0010
0000
0000
1000
0000
2000
0000
0000
3001
0000
0000
0000
,
0001
0000
0000
0000
0010
0000
0000
0100
0000
0200
0000
0000
1300
0000
0000
0000
,
0010
0000
0000
0000
0100
0000
0000
0001
0000
0002
0000
0000
1003
0000
0000
0000
,
0001
0000
0000
0000
0100
0000
0000
0010
0000
0020
0000
0000
1030
0000
0001
0000
,
1000
0000
0000
0000
0100
0000
0000
0010
0000
0020
0000
0000
0031
0000
0000
0000
,
1000
0000
0000
0000
0010
0000
0000
0100
0000
0200
0000
0000
0301
0000
1000
0000
,
0100
0000
0000
0000
0010
0000
0000
0100
0000
0200
0000
0000
1300
0000
0000
0000
,
0001
0000
0100
0010
0000
0100
0001
0000
,
1000
0000
0100
0010
0000
0001
1000
0000
,
0001
0000
0100
0010
0000
1000
0010
0000
,
0100
0000
0001
0010
0000
0100
1000
0000
,
0001
0000
1000
0100
0000
0010
0001
0000
,
1000
0000
0010
0100
0000
0001
1000
0000
,
0001
0000
0100
0010
0000
1000
0001
0000
,
0010
0000
0100
1000
0000
0001
0100
0000
,
0010
0000
0000
0100
0000
0000
0001
0000
0000
1000
0000
0000
0100
0000
0010
0000
,
0002
0000
0000
2000
0000
0000
0000
3003
,
1000
0000
0000
0100
0000
0000
0010
0000
0000
0001
0000
0000
1000
0000
0010
0000
,
0200
0000
0000
0020
0000
0000
0000
0330
,
0001
0000
0000
1000
0000
0000
0100
0000
0000
0010
0000
0000
0001
0000
0100
0000
,
0020
0000
0000
2000
0000
0000
0000
3030
,
0100
0020
0031
2000
0000
3010
0000
0100
,
0002
0000
1000
0000
2003
0000
3100
0100
,
0010
0000
0001
1000
0000
0001
0100
0010
,
2000
0000
0100
3200
0000
0010
0310
0000
,
0001
0000
1000
0100
0000
0010
0001
1000
,
0200
0000
0010
0320
0000
0001
0032
0000
,
0103
0000
0010
1000
0000
0001
0100
0010
,
2000
0000
0001
3002
0000
0010
0013
0000
,
0200
1000
1300
0002
0000
0103
0000
0100
,
0002
0000
1000
0000
2003
0000
3100
0100
,
0020
0001
0031
2000
0000
3010
0000
0100
,
0002
0000
0010
0000
0023
0000
0130
1000
,
0001
0000
0000
0100
0000
0000
0001
0000
2000
0000
0000
0000
0000
0000
3000
0000
,
0001
0000
0000
1000
0000
0000
0100
0000
0020
0000
0000
0000
0000
0000
0000
0000
,
0130
0000
0000
1000
0000
0000
0001
0000
0100
0000
0000
0010
0000
0000
1000
0000
,
0002
0000
0000
0003
,
2000
0000
0000
0000
,
3020
0000
0000
0000
,
0230
0000
0302
0000
,
2003
0000
0000
0000
,
3001
0000
0000
0000
;

//---------------dance-single - ----------------
#NOTES:
     dance-single:
     :
     Easy:
     3:
     0.272300,0.307094,0.077014,0.442831,0.000000,144.000000,8.000000,46.000000,0.000000,0.000000,0.000000,0.272300,0.307094,0.077014,0.442831,0.000000,144.000000,8.000000,46.000000,0.000000,0.000000,0.000000:
0000
0000
0000
0000
,
0000
0000
0000
0000
,
0000
0000
0000
0000
,
0000
0000
0000
0000
,
0002
0000
0000
0003
,
2000
0000
0000
3000
,
0020
0030
0200
0300
,
0002
0000
0000
0003
,
1000
0100
0000
0110
,
0001
0100
0000
0110
,
1000
0001
1000
0001
,
0200
0000
0000
0300
,
0010
0010
0000
1010
,
0100
0001
0000
0011
,
0100
1000
0000
1100
,
0001
0100
0010
1000
,
0001
1000
0002
0003
,
0010
0100
0020
0030
,
0001
0100
0002
0003
,
1000
0010
2000
3000
,
0001
0020
0130
0010
,
0001
2000
3010
0110
,
1000
0200
0310
0100
,
1000
0002
0103
0101
,
1000
0001
0000
0001
,
0100
0010
0000
1000
,
0001
0010
0000
0010
,
0100
1000
0000
1000
,
0001
0100
0000
0010
,
1000
0001
0000
0010
,
0100
1000
0000
0001
,
0100
0000
0000
0220
0000
0330
0000
0000
,
2000
0000
3001
0010
,
0200
0000
2000
3300
,
2000
0000
3001
0100
,
0020
0000
0200
0330
,
0010
0000
1000
0100
,
0020
0000
0002
0033
,
0002
0000
0003
1000
,
0020
0000
0200
0330
,
0001
1000
0001
0100
,
0020
0000
2030
0000
,
3010
0100
0001
1000
,
0200
0000
0320
0000
,
0130
1000
0001
1000
,
0020
0000
0230
0000
,
0301
0000
1000
0100
0000
0000
1000
0000
,
0001
0100
0020
0130
,
0001
0000
1000
0100
0000
0000
1000
0000
,
0002
0100
0203
0310
,
2000
0000
0000
3000
,
0002
0000
0000
0003
,
2000
3000
0020
0030
,
0200
0000
0000
0300
,
0002
0000
0000
0003
,
0020
0000
0000
0030
,
0200
0300
2000
3000
,
0002
0000
0000
0000
,
1003
0000
0000
0000
;

//---------------dance-single - ----------------
#NOTES:
     dance-single:
     :
     Hard:
     9:
     0.668373,0.709974,0.019254,0.683501,0.683501,413.000000,2.000000,71.000000,0.000000,0.000000,0.000000,0.668373,0.709974,0.019254,0.683501,0.683501,413.000000,2.000000,71.000000,0.000000,0.000000,0.000000:
0000
0000
0000
0000
,
0000
0000
0000
0000
,
0000
0000
0000
0000
,
0000
0000
0000
0000
,
0002
0000
0000
1000
0000
0000
0103
0000
0020
0000
0000
0000
0000
0000
0000
0000
,
2030
0000
0000
0100
0000
0000
3001
0000
0020
0000
0000
0000
0000
0000
0000
0000
,
0032
0000
0000
0010
0000
0000
0103
0000
0020
0000
0000
0001
0000
0000
0130
0000
,
0020
0000
1000
0000
1030
0001
0000
0010
0000
0010
0000
0001
0100
0001
0100
0001
,
2000
0000
0000
0010
0000
0000
3001
0000
0020
0000
0130
0000
1100
0000
0000
0000
,
2000
0000
0000
0001
0000
0000
3100
0010
0001
0000
0100
0000
0101
0000
0000
0000
,
0020
0000
0000
1000
0000
0000
0130
0000
0020
0000
0000
0001
0000
0000
0130
0000
,
0001
0000
0000
0100
0000
0000
0010
0000
0100
0001
0100
0000
0000
0000
0010
1000
,
0002
0000
0000
0010
0000
0000
1003
0000
0200
0000
0310
0100
0000
1000
0000
0001
,
0200
0000
0000
0010
0000
0000
0301
1000
0200
0000
1300
0001
0000
0100
0000
0010
,
2000
0000
0000
0100
0000
0000
3001
0000
0002
0000
0000
0100
0000
0000
1003
0000
,
1000
0000
0000
0100
0000
0000
0010
0000
0001
0010
0001
0000
1000
0000
0001
0100
,
0001
0100
0000
0010
0100
0000
1000
0100
0000
0200
0000
0000
0310
0000
1000
0000
,
0001
0010
0000
0100
0010
0000
1000
0010
0000
0020
0000
0000
0031
0000
0000
0000
,
1000
0100
0000
0010
0100
0000
0001
0100
0000
0200
0000
0000
0310
0000
0100
0000
,
1000
0010
0000
0100
0010
0000
0001
0010
0000
0020
0000
0000
1030
0000
0000
0000
,
0001
0100
0000
0010
1000
0000
0001
0100
0000
0020
0000
0000
1030
0000
0001
0000
,
1000
0100
0000
0010
0001
0000
1000
0100
0000
0020
0000
0000
0031
0000
0000
0000
,
1000
0010
0000
0100
0001
0000
1000
0010
0000
0200
0000
0000
0301
0000
1000
0000
,
0001
0010
0000
0100
1000
0000
0001
0010
0000
0200
0000
0000
1300
0100
0010
0001
,
1000
0000
0000
1000
0010
0000
2000
0000
0000
0000
3002
0000
0000
0000
0013
0000
,
0100
0000
0000
0100
0010
0000
0200
0000
0000
0000
2300
0000
0000
0000
3001
0000
,
0100
0000
0000
0100
0010
0000
0200
0000
0000
0000
0302
0000
0000
0000
0013
0000
,
0100
0000
0000
0100
1000
0000
0002
0000
0000
0000
0203
0000
0000
0000
0310
0000
,
1000
0000
0000
1000
0001
0000
0020
0000
0000
0000
0230
0000
0000
0000
1300
0000
,
0001
0000
0000
0001
0100
0000
0020
0000
0000
0000
2030
0000
0000
0000
3100
0000
,
0010
0000
0000
0010
0001
0000
2000
0000
0000
0000
3020
0000
0000
0000
0130
0000
,
0001
0000
0000
0001
0010
0000
0200
0000
0000
0000
0310
0000
0001
0000
1000
0000
,
0010
0000
0000
0100
0000
0000
0001
0000
0000
1000
0000
0000
0100
0000
0010
0000
,
0002
0000
0000
0000
1000
0000
2003
0000
0000
0000
3100
0000
0100
0010
0000
0000
,
0001
0000
0000
1000
0000
0000
0010
0000
0000
0100
0000
0000
0001
0000
0010
0000
,
0200
0000
0000
0000
0010
0000
0320
0000
0130
0000
1000
0000
0001
1000
0001
0000
,
0100
0000
0000
0010
0000
0000
1000
0000
0000
0100
0000
0000
0010
0000
0001
0000
,
2000
0000
0000
0000
0001
0000
3002
0000
0000
0100
0003
0100
0010
0100
0010
0100
,
0001
0000
0000
0000
0000
0000
1000
0000
0100
0000
1000
0000
0100
0000
0000
0000
0000
0000
0020
0000
0000
0000
0000
0000
0000
0000
0000
0000
0000
0000
0031
0000
0000
0000
0000
0000
1000
0000
0000
0000
0000
0000
0001
0000
0000
0100
0000
0000
,
0002
0000
0000
0010
0000
0000
1003
0000
0200
0000
1300
0001
1000
0001
1000
0001
,
0100
0000
0000
0100
0010
0000
1000
0000
0001
1000
0000
1000
0100
0000
0010
0000
,
0001
0000
0000
0001
0100
0000
0020
0000
1030
0000
0001
0000
0001
1000
0001
0000
,
0010
0000
0000
0010
0100
0000
1000
0000
0001
1000
0000
1000
0010
0000
0100
0000
,
0001
0000
0000
0001
0010
0000
0200
0000
1300
0000
0001
0000
1000
0001
1000
0000
,
0100
0000
0000
0100
0010
0000
0001
0000
1000
0001
0000
0001
0100
0000
0010
0000
,
1000
0000
0000
1000
0100
0000
0020
0000
0031
0000
1000
0000
1000
0001
1000
0000
,
0010
0000
0100
0010
0100
0000
0002
0000
0000
0000
1003
0000
0001
0000
0010
0100
,
1000
0000
0000
1000
0010
0000
0100
0000
0002
0000
1000
0000
1003
0001
1000
0000
,
0001
0000
0010
0001
0010
0100
2000
0000
0000
0000
3001
0000
0100
0000
0001
0010
,
0100
0000
1000
0100
1000
0000
0001
0100
0001
0100
0001
0100
0001
0100
0010
1000
,
0002
0000
0000
0010
0000
0000
1003
0000
0200
0000
0000
0001
0000
0000
0300
0000
,
2000
0000
0000
0010
0000
0000
3001
0000
0200
0000
0000
1000
0000
0000
0300
0000
,
0002
0000
0000
0010
0000
0000
1003
0000
2000
0000
0000
0010
0000
0000
3001
0000
,
0020
0000
0001
0000
0031
1000
0000
0010
0000
0010
0000
0100
0001
0000
1000
0000
,
0200
0000
0000
1000
0000
0000
0310
0000
0002
0000
0000
0000
0000
0000
0000
0000
,
2003
0000
0000
0010
0000
0000
3001
0000
0200
0000
0000
1000
0000
0000
0000
0000
,
0320
0000
0000
0001
0000
0000
0130
0000
0020
0000
0000
1000
0000
0000
0130
0000
,
0002
0000
0010
0000
0013
0100
0000
1000
0000
1000
0000
0001
0100
0001
0100
0001
,
2000
0000
0000
0000
,
3000
0000
0000
0000
;
