#TITLE:Dialga's Fight to the Finish!;
#SUBTITLE:;
#ARTIST:Arata Iiyoshi, Hideki Sakamoto, Keisuke Ito, Ryoma Nakamura, Kenichi Saito;
#TITLETRANSLIT:;
#SUBTITLETRANSLIT:;
#ARTISTTRANSLIT:;
#GENRE:;
#CREDIT:Silverhawke;
#MENUCOLOR:;
#METERTYPE:DDR;
#BANNER:[Not Rhythm Games] - Dialga's Fight to the Finish!.png;
#BACKGROUND:[Not Rhythm Games] - Dialga's Fight to the Finish!-bg.png;
#LYRICSPATH:;
#CDTITLE:cdtitle.png;
#MUSIC:[Not Rhythm Games] - Dialga's Fight to the Finish!.mp3;
#OFFSET:-0.028;
#SAMPLESTART:88.780;
#SAMPLELENGTH:15.000;
#SELECTABLE:NO;
#LISTSORT:;
#BPMS:0.000=148.006;
#STOPS:;
#BGCHANGES:;
#ATTACKS:;

//---------------dance-single - ----------------
#NOTES:
     dance-single:
     :
     Hard:
     9:
     0.530,0.542,0.090,0.145,0.454:
0000
0000
0000
0000
,
0000
0000
0000
0000
,
0000
0000
0000
0000
,
0000
0000
0000
0000
,
0000
0000
0000
0000
,
0001
0000
0000
0100
0000
0000
0001
0000
0010
0000
0000
0000
0000
0000
0000
0000
,
0100
0000
0000
1000
0000
0000
0100
0000
0010
0000
0000
0001
0000
0000
1000
0000
,
0010
0000
0000
0100
0000
0000
0001
0000
1000
0000
0000
0000
0100
0000
0000
0000
,
0010
0000
0000
0001
0000
0000
1000
0000
0010
0000
0000
0100
0000
0000
0001
0000
,
1000
0000
0000
0100
0000
0000
0010
0000
0100
0000
0000
0000
1000
0000
0000
0000
,
0001
0000
0000
0100
0000
0000
0010
0000
0100
0000
0000
0001
0000
0000
1000
0100
,
0010
0000
0000
0001
0000
0000
1000
0000
0010
0000
0100
0000
0100
0000
0001
0000
,
1000
0000
0000
0100
0000
0000
0010
0000
0001
0000
1000
0000
0010
0100
0001
0000
,
1000
0000
0000
0100
0000
0000
0010
0000
0100
0000
1000
0001
1000
0000
0010
0000
,
0100
0000
0000
0001
0000
0000
0010
0000
0100
0000
1000
0001
1000
0000
0010
0000
,
0100
0000
0000
0001
0000
0000
0010
0000
0100
0000
0010
0001
0010
0000
0100
0000
,
1000
0000
0000
0001
0000
0000
0100
0000
0010
0000
1000
0000
0001
0000
0100
0000
,
0010
0000
0000
1000
0000
0000
0100
0000
0010
0000
0100
1000
0100
0000
0010
0000
,
0001
0000
0000
1000
0000
0000
0010
0000
0100
0000
0001
1000
0001
0000
0100
0000
,
0010
0000
0000
1000
0000
0000
0100
0000
0010
0000
0001
1000
0001
0000
0010
0000
,
0100
0000
0000
1000
0000
0000
0010
0000
0100
0000
0001
0000
0010
0000
0100
0000
,
1000
0000
0000
0010
0000
0000
0100
0000
0001
0000
1000
0100
1000
0000
0010
0000
,
0100
0000
0000
0001
0000
0000
1000
0000
0100
0000
0010
0001
0010
0000
0100
0000
,
1000
0000
0000
0010
0000
0000
0100
0000
0001
0000
1000
0100
1000
0000
0001
0000
,
0100
0000
0000
0010
0000
0000
1000
0000
0001
0000
0010
0000
0100
0000
1000
0000
,
0001
0000
0000
0100
0000
0000
0010
0000
1000
0000
0001
0100
0001
0000
0010
0000
,
0100
0000
1000
0010
0000
0110
0000
0101
,
1000
0000
0000
0100
0000
0000
0010
0000
0001
0000
0000
0000
1000
0000
0000
0000
,
1020
0000
0000
0230
0000
0000
0302
0000
,
1003
0000
0000
0100
0000
0000
1000
0001
1000
0000
0000
0010
0000
0000
0100
0000
,
0001
0000
0000
1000
0000
0000
0001
0100
0001
0000
0000
0010
0000
0000
0100
0000
,
1000
0000
0000
0010
0000
0000
0100
0010
0100
0000
0000
0001
0000
0000
1000
0000
,
0100
0000
0000
0010
0000
0000
0100
0000
1000
0001
1000
0000
0020
0000
0000
0000
,
0130
0000
0000
0001
0000
0000
1000
0100
1000
0000
0000
0010
0000
0000
0100
0000
,
0001
0000
0000
1000
0000
0000
0010
0100
0010
0000
0000
1000
0000
0000
0100
0000
,
0020
0000
0000
0000
0030
0000
0001
0100
0020
0000
0000
0000
0030
0000
1000
0100
,
0020
1000
0031
0200
,
0310
0000
0000
1000
0000
0000
0001
0100
0001
0000
0000
0010
0000
0000
0100
0000
,
1000
0000
0000
0001
0000
0000
1000
0100
1000
0000
0000
0010
0000
0000
0100
0000
,
0001
0000
0000
1000
0000
0000
0001
0100
0001
0000
0000
0010
0000
0000
0100
0000
,
1000
0000
0000
0000
0001
0000
0100
0000
0100
0000
0000
0010
0000
0000
1000
0000
,
0001
0000
0000
0010
0000
0000
0100
0000
1000
0000
0000
0000
0001
0000
0100
0000
,
0100
0000
0000
0010
0000
0000
1000
0000
0100
0000
0000
0000
0010
0000
0001
0000
,
0001
0000
0000
0000
0000
0000
1000
0010
0200
0000
0000
0000
0300
0000
0001
0010
,
0200
0001
1300
0002
,
0023
0000
0000
0000
0000
0000
0000
0000
0000
0000
0000
0130
0000
0000
1000
0000
,
1000
0000
0000
0001
0000
0000
0100
0000
0010
0000
0000
0000
1000
0000
0001
0100
,
0001
0000
0000
0000
1000
0000
0100
0000
0100
0000
0000
0010
0000
0000
0001
0000
,
2000
0000
0000
0000
0000
0000
0000
0000
0000
0000
0000
0000
3000
0000
0001
0100
,
0010
0000
0000
0100
0000
0000
0001
0000
1001
0000
0000
0000
0000
0000
0000
0000
,
1000
0000
0000
0100
0000
0000
0010
0000
0110
0000
0000
0000
0000
0000
0100
1000
,
0001
0000
0000
0001
0000
0000
0100
0000
0010
0000
0000
1000
0000
0000
0100
0000
,
0020
0000
0000
0000
0001
0000
0000
0000
0001
0000
0000
0000
0031
0000
0100
0010
,
2000
0001
0001
0001
,
3000
0000
0000
0000
0000
0000
0000
0000
0000
0000
0000
0000
0001
0100
0010
1000
,
0001
0000
0000
0010
0000
0000
0100
0000
1000
0000
0000
0000
0001
0000
0100
0010
,
1000
0000
0000
0001
0000
0000
0100
0000
0010
0000
0000
0000
0110
0000
0000
0000
,
1000
0000
0000
0001
0000
0000
0010
0000
0100
0000
0000
0000
1000
0000
0000
0000
,
1001
0000
0000
0100
0000
0000
1000
0000
0010
0000
1000
0000
0001
0010
0100
1000
,
0001
0000
0000
0100
0000
0000
0010
0000
0100
0000
0000
0000
0001
0000
0010
0100
,
1000
0000
0000
0001
0000
0000
0100
0000
0010
0000
0000
0000
1010
0000
0000
0000
,
1000
0000
0000
0001
0000
0000
0010
0000
0100
0000
0000
0000
0110
0000
0000
0000
,
1001
0000
0000
0010
0000
0000
0001
0000
0100
0000
0010
0000
1000
0100
0010
0001
,
1000
0000
0000
0010
0000
0000
0100
0000
0001
0000
0000
0000
1000
0000
0100
0010
,
0100
0000
0000
1000
0000
0000
0010
0000
0100
0000
0000
0000
1001
0000
0000
0000
,
0001
0000
0000
0010
0000
0000
0100
0000
1000
0000
0000
0000
0010
0000
0000
0000
,
0100
0000
0000
0001
0000
0000
1000
0000
0100
0000
0000
0000
0010
0000
0000
0000
,
0002
0000
0000
0100
0000
0000
0100
0000
0100
0000
0000
0000
0100
0000
0000
0000
,
1000
0000
0000
1000
0000
0000
1000
0000
1000
0000
0000
0000
1000
0000
0000
0000
,
0013
0000
0000
0100
0000
0000
1000
0000
0001
0000
0000
0000
0101
0000
0000
0000
,
0120
0000
0000
2030
0000
0000
3002
0000
,
0023
0000
0000
0100
0000
0000
0100
0000
0100
0000
0000
0000
0100
0000
0000
0000
,
0001
0000
0000
0001
0000
0000
0001
0000
0001
0000
0000
0000
0031
0000
0100
0010
,
2000
0000
0000
0001
0000
0000
0001
0000
0001
0000
0000
0000
0001
0000
0000
0000
,
0010
0000
0000
0010
0000
0000
0010
0000
0010
0000
0000
0000
3010
0000
0000
0000
,
0100
0000
0000
0001
0000
0000
0100
0000
0010
0000
0000
1000
0000
0000
0100
0000
,
0010
0000
0000
0001
0000
0000
1000
0000
0001
0000
0000
0100
0000
0000
0010
0000
,
1000
0000
0000
0100
0000
0000
0010
0000
0100
0000
0000
1000
0000
0000
0001
0000
,
0100
0000
0000
0010
0000
0000
1000
0000
0001
0000
0010
0000
0100
0000
1000
0000
,
0001
0000
0000
0100
0000
0000
0010
0000
0100
0000
0000
0001
0000
0000
1000
0000
,
0100
0000
0000
0010
0000
0000
0100
0000
1000
0000
0000
0001
0000
0000
0100
0000
,
0010
0000
0000
0001
0000
0000
0010
0000
1000
0000
0000
0001
0000
0000
0010
0000
,
0100
0000
0000
1000
0000
0000
0010
0000
0100
0000
0001
0000
0010
0000
0100
0000
,
1000
0000
0000
0010
0000
0000
0100
0000
0001
0000
0000
1000
0000
0000
0100
0000
,
0010
0000
0000
1000
0000
0000
0010
0000
0001
0000
0000
1000
0000
0000
0010
0000
,
0100
0000
0000
0001
0000
0000
1000
0000
0100
0000
0000
0010
0000
0000
0001
0000
,
1000
0000
0000
0010
0000
0000
0100
0000
0001
0000
1000
0000
0100
0000
0010
0000
,
0001
0000
0000
0000
;

//---------------dance-single - ----------------
#NOTES:
     dance-single:
     :
     Medium:
     6:
     0.449,0.452,0.048,0.409,0.080: // measure 1
0000
0000
0000
0000
,  // measure 2
0000
0000
0000
0000
,  // measure 3
0000
0000
0000
0000
,  // measure 4
0000
0000
0000
0000
,  // measure 5
0000
0000
0000
0000
,  // measure 6
1000
0000
0000
0001
1000
0000
0000
0000
,  // measure 7
0001
0000
0000
1000
0001
0000
0000
0000
,  // measure 8
0100
0000
0000
0010
0100
0000
0000
0000
,  // measure 9
0010
0000
0000
0100
0010
0000
1000
0000
,  // measure 10
0001
0000
0000
0001
0000
0000
0001
0000
0100
0000
0000
0000
0010
0000
0000
0000
,  // measure 11
1000
0000
0000
1000
0000
0000
1000
0000
0100
0000
0000
0000
0010
0000
0000
0000
,  // measure 12
0001
0000
0000
0001
0000
0000
0001
0000
0010
0000
0000
0000
0100
0000
0000
0000
,  // measure 13
1000
0000
0000
1000
0000
0000
1000
0000
0010
0000
0100
0000
0001
0000
0000
0000
,  // measure 14
1000
0000
0100
0010
0002
0000
0103
0000
,  // measure 15
2000
3100
0020
0031
,  // measure 16
0200
0000
0001
0000
0010
0000
0301
0010
,  // measure 17
0200
0000
1300
0000
0010
0100
0001
1000
,  // measure 18
0100
0010
0002
0103
,  // measure 19
0020
1030
0200
0310
,  // measure 20
0002
0013
2000
3010
,  // measure 21
0002
0000
0103
0000
1000
0100
0010
0001
,  // measure 22
1000
0010
0200
0301
,  // measure 23
2000
3100
0020
0031
,  // measure 24
2000
0000
0010
0000
0001
0000
3010
0100
,  // measure 25
0002
0013
2000
3010
,  // measure 26
0001
0010
0100
1000
,  // measure 27
0001
0000
0100
0010
0000
1000
0000
2002
,  // measure 28
0000
0000
3003
0001
,  // measure 29
0020
0000
0000
0230
0000
0000
2300
0000
,  // measure 30
3001
0000
0000
0000
0000
0000
1000
0000
1000
0000
0000
0100
0000
0000
1000
0000
,  // measure 31
0001
0000
0000
0000
0000
0000
1000
0000
1000
0000
0000
0010
0000
0000
0100
0000
,  // measure 32
0001
0000
0000
0000
0000
0000
0100
0000
0100
0000
0000
0010
0000
0000
1000
0000
,  // measure 33
0001
0000
0010
0100
1000
0010
0100
0001
,  // measure 34
1000
0000
0000
0000
0000
0000
0001
0000
0001
0000
0000
0100
0000
0000
0010
0000
,  // measure 35
1000
0000
0000
0000
0000
0000
0001
0000
0001
0000
0000
0010
0000
0000
0100
0000
,  // measure 36
1000
0000
0000
1000
0100
0000
0000
0100
,  // measure 37
0020
0100
0031
1000
,  // measure 38
0020
0130
2000
3100
,  // measure 39
0002
0023
2030
3200
,  // measure 40
0302
1003
0020
1030
,  // measure 41
0200
0000
0000
0000
0310
0000
0001
0000
0001
0000
0000
0100
0000
0000
0010
0000
,  // measure 42
1000
0000
0000
0001
0000
0000
0010
0000
0100
0000
0000
1000
0000
0000
0001
0000
,  // measure 43
0001
0000
0000
0100
0000
0000
0010
0000
1000
0000
0000
0001
0000
0000
0010
0000
,  // measure 44
0010
0000
0000
0100
1000
0000
0000
0001
,  // measure 45
0200
1000
0010
0301
,  // measure 46
2002
0000
0000
0000
3003
0000
1000
0000
1000
0000
0000
0100
0000
0000
0010
0000
,  // measure 47
0001
0000
0000
1000
0000
0000
0010
0000
0100
0000
0000
0000
0000
0000
0001
0000
,  // measure 48
1000
0000
0000
0000
0100
0000
0010
0000
0010
0000
0000
0001
0000
0000
1000
0000
,  // measure 49
0020
0000
0100
0000
0100
0000
0130
0010
,  // measure 50
1000
0000
0000
0001
0000
0000
1000
0000
0100
0000
0000
0010
0000
0000
0100
0000
,  // measure 51
1000
0000
0000
0001
0000
0000
1000
0000
0010
0000
0000
0100
0000
0000
0010
0000
,  // measure 52
1000
0000
0000
1000
0000
0000
0100
0000
0010
0000
0000
0001
0000
0000
0100
0000
,  // measure 53
0020
0000
1000
0000
1000
0000
1030
0100
,  // measure 54
0020
0001
0001
0001
,  // measure 55
0030
0000
0000
0000
0000
0000
0001
0100
,  // measure 56
0010
0000
1000
0100
0100
0000
0010
0001
,  // measure 57
1000
0000
0010
0100
0001
0000
1100
0000
,  // measure 58
0011
0000
0010
0100
1000
0000
0001
0000
,  // measure 59
0100
0000
0010
1000
0100
0010
0001
1000
,  // measure 60
0010
0000
0100
0001
1000
0000
0100
0010
,  // measure 61
0100
0000
1000
0010
0100
0000
0101
0000
,  // measure 62
1100
0000
0010
0001
1000
0000
0010
0000
,  // measure 63
0100
0000
0001
1000
0100
0010
0001
1000
,  // measure 64
0010
0000
0100
0001
1000
0000
0100
0010
,  // measure 65
0001
0000
0010
0100
1000
0000
0010
0000
,  // measure 66
0100
0000
0001
1000
0100
0000
0010
0000
,  // measure 67
0100
0000
1000
0001
0100
0000
0010
0000
,  // measure 68
1001
0000
1000
0000
0100
0000
0010
0001
,  // measure 69
0100
0000
0010
0000
1000
0000
0100
0010
,  // measure 70
0001
0000
0100
0000
0010
0000
1000
0100
,  // measure 71
0002
0000
0000
0023
0000
0000
1030
0000
,  // measure 72
0001
0000
0010
0100
1000
0000
0010
0000
,  // measure 73
0100
0000
0001
1000
0100
0000
0010
0001
,  // measure 74
1000
0000
0010
0000
0100
0000
0001
1000
,  // measure 75
0100
0000
0010
0000
0100
1000
0010
0100
,  // measure 76
0001
0010
0002
0103
,  // measure 77
0020
1030
0200
0310
,  // measure 78
0002
0000
0100
0000
0010
0000
0103
0001
,  // measure 79
0020
0130
2000
3010
,  // measure 80
0100
0001
0020
0130
,  // measure 81
2000
3010
0002
0013
,  // measure 82
0200
1300
0020
0130
,  // measure 83
2000
3001
0200
0310
,  // measure 84
1000
0100
0020
0031
,  // measure 85
2000
3010
0200
0301
,  // measure 86
2000
0000
0100
0000
0001
0000
3100
0010
,  // measure 87
0002
0103
0020
1030
,  // measure 88
0001
0000
0000
0000
;

//---------------dance-single - ----------------
#NOTES:
     dance-single:
     :
     Easy:
     3:
     0.207,0.271,0.042,0.173,0.000: // measure 1
0000
0000
0000
0000
,  // measure 2
0000
0000
0000
0000
,  // measure 3
0000
0000
0000
0000
,  // measure 4
0000
0000
0000
0000
,  // measure 5
0000
0000
0000
0000
,  // measure 6
0001
0000
0000
0000
,  // measure 7
0100
0000
0000
0000
,  // measure 8
0010
0000
0000
0000
,  // measure 9
1000
0000
0000
0000
,  // measure 10
0100
0000
0010
0000
,  // measure 11
0001
0000
1000
0000
,  // measure 12
0010
0000
0100
0001
,  // measure 13
1000
0000
0100
0010
,  // measure 14
0001
0000
0010
0000
,  // measure 15
0100
0000
1000
0000
,  // measure 16
0002
0000
0003
0000
,  // measure 17
0100
0000
0010
1000
,  // measure 18
0001
0000
0010
0000
,  // measure 19
0100
0000
1000
0000
,  // measure 20
0010
0000
0100
0000
,  // measure 21
0001
0000
1000
0000
,  // measure 22
0100
0000
0010
0000
,  // measure 23
0001
0000
1000
0000
,  // measure 24
0020
0000
0030
0000
,  // measure 25
0100
0000
0001
1000
,  // measure 26
0100
0000
0010
0000
,  // measure 27
0001
0100
0010
1000
,  // measure 28
0002
0000
0003
0010
,  // measure 29
0100
0000
0000
0100
0000
0000
0100
0000
,  // measure 30
0100
0000
1000
0001
,  // measure 31
0100
0000
0010
1000
,  // measure 32
0001
0000
0010
0100
,  // measure 33
2000
0000
3000
0010
,  // measure 34
0100
0000
0001
0010
,  // measure 35
0100
0000
1000
0010
,  // measure 36
0100
0000
0001
0000
,  // measure 37
2002
0000
3003
0100
,  // measure 38
0010
0000
1000
0001
,  // measure 39
0100
0000
0010
1000
,  // measure 40
0100
0000
0010
0001
,  // measure 41
2000
0000
3000
0000
,  // measure 42
0010
0100
0001
0000
,  // measure 43
0010
0100
1000
0000
,  // measure 44
1001
0000
0110
0000
,  // measure 45
2002
0000
3003
0001
,  // measure 46
0020
0000
0030
0100
,  // measure 47
1000
0010
0100
0000
,  // measure 48
0001
0000
1000
0100
,  // measure 49
0020
0000
0030
0000
,  // measure 50
0001
1000
0001
0000
,  // measure 51
1000
0001
1000
0000
,  // measure 52
0010
0100
0001
0010
,  // measure 53
0100
0000
0000
1000
,  // measure 54
2002
0000
0000
0000
,  // measure 55
3003
0000
0000
0001
,  // measure 56
0200
0000
0300
0000
,  // measure 57
0010
1000
0001
0010
,  // measure 58
0100
0000
0010
0001
,  // measure 59
2000
0000
3000
0010
,  // measure 60
0200
0000
0300
0000
,  // measure 61
0001
0010
0100
1000
,  // measure 62
0010
0000
0100
0001
,  // measure 63
2000
0000
3000
0001
,  // measure 64
0020
0000
0030
0000
,  // measure 65
0100
1000
0001
0100
,  // measure 66
0010
0000
0100
0001
,  // measure 67
1000
0000
0100
0010
,  // measure 68
0002
0000
0003
0000
,  // measure 69
1000
0000
0010
0000
,  // measure 70
0200
0000
0300
0000
,  // measure 71
0001
0000
0000
0001
0000
0000
0001
0000
,  // measure 72
0002
0000
0003
0000
,  // measure 73
1000
0000
0100
0000
,  // measure 74
2002
0000
0000
0000
,  // measure 75
3003
0000
0000
0000
,  // measure 76
0001
0000
0100
0000
,  // measure 77
0010
0000
1000
0000
,  // measure 78
0200
0000
0300
0000
,  // measure 79
0010
0000
0001
0000
,  // measure 80
1000
0000
0010
0000
,  // measure 81
0100
0000
0001
0000
,  // measure 82
1000
0000
0100
0000
,  // measure 83
0010
0000
0001
0000
,  // measure 84
0100
0000
0010
0000
,  // measure 85
0100
0000
0001
0000
,  // measure 86
2000
0000
3000
0000
,  // measure 87
0100
0000
0010
0000
,  // measure 88
0001
0000
0000
0000
;
