#TITLE:Change of Coast;
#SUBTITLE:;
#ARTIST:Neon Indian;
#TITLETRANSLIT:;
#SUBTITLETRANSLIT:;
#ARTISTTRANSLIT:;
#GENRE:;
#CREDIT:;
#BANNER:[Not Rhythm Games] - Change of Coast.png;
#BACKGROUND:[Not Rhythm Games] - Change of Coast-bg.png;
#LYRICSPATH:;
#CDTITLE:cdtitle.png;
#MUSIC:[Not Rhythm Games] - Change of Coast.mp3;
#OFFSET:-0.028000;
#SAMPLESTART:79.199997;
#SAMPLELENGTH:12.000000;
#LASTBEATHINT:320.000000;
#SELECTABLE:YES;
#BPMS:0.000000=182.007004
,144.000000=91.003998
,192.000000=182.007004
;
#STOPS:
;
#BGCHANGES:;
#KEYSOUNDS:;
#ATTACKS:;

//---------------dance-single - ----------------
#NOTES:
     dance-single:
     :
     Hard:
     9:
     0.566267,0.821200,0.300054,0.102650,0.252677,451.000000,38.000000,13.000000,0.000000,0.000000,0.000000,0.566267,0.821200,0.300054,0.102650,0.252677,451.000000,38.000000,13.000000,0.000000,0.000000,0.000000:
0000
0000
0000
0000
,
0000
0000
0000
0000
,
0000
0000
0000
0000
,
0000
0000
0000
0000
0000
0000
0000
1000
,
0100
0100
1001
0010
,
1100
0000
0001
0020
0000
0031
0000
0000
,
0010
0000
0100
0000
1000
0000
0001
0010
,
0000
0100
0000
1000
0000
0010
0000
0001
,
1000
0000
0100
0000
0001
0000
1000
0100
,
0010
0100
0000
0010
0000
0100
0010
0010
,
1000
0000
0001
0000
0010
0000
0100
0010
,
0100
1000
0000
1100
0000
0110
0010
0100
,
1000
0000
0001
0000
0010
0000
0100
0010
,
1000
0200
0000
0310
0000
0100
1000
1000
,
0000
0010
0100
0000
0010
0000
0100
0010
,
0000
0100
0000
1010
0000
0101
0000
0000
,
1000
0000
0010
0000
0100
0000
0010
0100
,
1000
0100
0010
0000
1000
0100
0100
0000
,
1000
0000
0001
0000
0010
0000
0100
1000
,
0100
0010
0001
0010
0100
1000
0100
0010
,
2000
0000
3010
0000
0100
0001
0000
0001
,
1000
0000
0100
0000
0001
0000
1000
0110
,
0000
1010
0000
0101
0000
0000
1000
0010
,
0100
1000
0000
1000
0000
0001
0000
0001
,
0010
0100
0010
1000
0010
0100
0010
0001
,
0010
0100
1000
0100
0010
0001
0010
0000
,
1000
0100
1000
0100
1000
0000
0100
0010
,
0100
0010
0100
0010
0100
1000
0010
0100
,
2000
0000
3010
0000
0010
0100
0000
0010
,
0000
1000
0100
0000
0010
0000
0100
0010
,
0000
1010
0000
0101
0000
0010
1000
0100
,
0000
0010
1000
0000
0010
0000
0100
0000
,
1000
0010
0100
0001
0100
0010
0001
0010
,
0100
1000
0100
1000
0100
1000
0100
0020
,
0000
0030
1000
0000
0100
0010
0100
0020
,
0000
0030
1000
0000
0010
0100
0010
0100
,
0001
0000
0010
0000
0001
0000
0010
0100
0000
0001
0000
0100
0000
1000
0000
0010
,
1000
0000
0100
0000
0010
0000
0100
1000
0000
0010
0000
0100
0000
1000
0000
0001
,
0010
0000
0100
0000
0010
0000
0100
1000
0000
0010
0000
0100
0000
1000
0000
0001
,
0010
0000
0001
0000
0010
0000
0001
0010
0000
1100
0000
0110
0000
0011
0000
0000
,
0100
0000
0001
0010
0100
0010
0001
0000
0000
0010
0000
0100
0000
1000
0000
0010
,
0100
0000
0100
0000
1000
0000
0010
0200
0000
0000
0300
0010
0000
0100
0000
0001
,
1000
0000
0100
0000
0010
0000
0100
1000
0000
0100
0000
0010
0000
0100
0000
0001
,
0100
0000
0100
0000
1000
0000
0010
0100
0000
1100
0000
0011
0000
0110
0000
0000
,
1000
0000
0100
0010
0100
0010
0100
0010
0000
1100
0000
0110
0000
0011
0100
0000
,
1000
0000
0001
0010
0001
0010
0001
0010
0000
0100
0000
0010
0000
0100
1000
0010
,
0100
0000
0010
0001
0100
0010
0100
0010
0000
0100
0000
0010
0000
1000
0100
0010
,
1000
0000
0010
0100
0010
0100
0010
1000
0000
1100
0000
0110
0000
0011
0000
0000
,
1000
0010
0100
0000
1010
0000
0100
0010
,
0000
0010
0100
0000
0110
0000
0001
0010
,
0000
0010
0001
0000
1000
0010
0100
0010
,
0000
0100
0000
1000
0000
1000
0100
0010
,
0000
2100
0000
3000
0010
0000
0100
0010
,
0000
1000
0100
0010
0100
0000
1000
0100
,
0000
1000
0000
0000
0010
0000
0100
0010
,
0000
1000
0100
0010
0100
0000
0010
0010
,
0000
1000
0100
0000
1010
0000
0100
1000
,
0000
1000
0100
0000
0011
0000
0100
1000
,
0000
1000
0010
0000
1000
0000
0100
0010
,
0000
0010
0000
0000
0100
1000
0000
0010
,
0000
0021
0000
0030
1000
0000
0100
1000
,
0000
1000
0010
0100
0010
0000
0100
0010
,
0000
0010
0000
0100
0010
0000
1000
0000
,
0100
0010
1000
0001
0000
0010
0000
0100
,
0000
1010
0000
0000
0010
0000
0100
0010
,
0000
1010
0000
0000
0100
0000
0010
1000
,
0000
0101
0000
1000
0100
0000
1000
1000
,
0000
0010
0000
0100
1000
0100
1000
0010
,
0000
2000
0000
3000
0010
0000
0100
0100
,
0000
1000
0010
0100
1000
0000
0010
1000
,
0000
0010
0000
1000
0100
0000
1000
0010
,
0000
0100
0010
0100
0010
0000
0001
0010
,
0000
1100
0000
0000
0001
0000
0010
0100
,
0000
1100
0000
0000
1000
0000
0010
0010
,
0000
1010
0000
1000
0001
0000
0001
0010
,
0000
0110
0000
0010
0001
0010
0000
0001
,
0000
2000
0000
3000
0010
0000
1000
0100
,
0000
0100
1000
0100
0010
0000
1000
0100
,
0000
1000
0000
0010
0100
0000
1000
0000
,
0001
0010
0100
0010
0000
0110
0000
0022
,
0033
0000
0000
0000
;

//---------------dance-single - ----------------
#NOTES:
     dance-single:
     :
     Medium:
     7:
     0.462489,0.536938,0.126338,0.300054,0.106598,356.000000,16.000000,38.000000,0.000000,0.000000,0.000000,0.462489,0.536938,0.126338,0.300054,0.106598,356.000000,16.000000,38.000000,0.000000,0.000000,0.000000:
0000
0000
0000
0000
,
0000
0000
0000
0000
,
0000
0000
0000
0000
,
0000
0000
0000
0000
,
1000
0010
0100
0001
,
1000
0100
0000
0002
0000
0000
0000
0003
,
1000
0000
0001
0000
0010
0000
0100
0100
,
0000
1000
0000
0010
0000
0001
0000
0010
,
0000
0100
0000
2000
0000
0000
3000
0100
,
0010
0100
0000
1100
0000
0000
0010
0010
,
1000
0010
0100
1000
,
0010
2000
0000
3200
0000
0302
0000
0013
,
0000
2000
0000
3000
0001
0000
0010
0000
,
1000
0100
0000
0000
1000
0000
0010
0001
,
0000
0001
0010
0000
1000
0000
0010
0010
,
0000
0100
0000
1000
0000
0002
0000
0003
,
1000
0000
0010
0000
2000
0000
3000
0010
,
0100
0010
0000
1000
0000
0010
1000
1000
,
1000
0000
0010
0000
1000
0000
0100
1000
,
0010
0100
1000
0000
0010
0100
0010
2000
,
0000
0000
3010
0000
0100
0100
0000
1000
,
0000
0001
0020
0000
0030
0000
0000
1100
,
0000
0011
0000
0110
0000
0000
1000
0100
,
1000
0100
0000
0010
0000
1000
0000
0010
,
1000
0001
0010
0000
1000
0100
0010
0000
,
0001
0010
0100
0000
0100
1000
0100
0000
,
0010
0001
0010
0000
0010
0100
0010
0000
,
1000
0010
0100
0000
0000
0010
0000
0200
,
0000
0300
1000
0000
0010
0010
0000
1000
,
0000
0010
0200
0000
0000
0300
0000
0011
,
0000
1100
0000
0011
0000
0000
0000
0010
,
1000
0000
1000
0010
0000
1000
0000
0010
,
0001
0010
0001
0000
0100
1000
0100
0000
,
0010
0100
0010
0000
0001
0010
0001
0100
,
0000
0020
0000
0000
0000
1030
0000
0220
,
0000
0000
0000
0330
,
1000
0100
1000
0100
0000
0010
0010
0010
,
0001
0010
0001
0010
0000
0100
0100
0100
,
1000
0010
0100
0010
0000
0001
0001
0001
,
0001
0000
0010
0000
0100
0000
0010
1000
0000
0010
0000
0100
0000
2010
0000
0000
,
3100
0000
0010
0000
0100
0000
1000
0010
0000
0000
1000
0000
0100
0000
0010
0000
,
1000
0000
0010
0000
0100
0000
0010
1000
0000
0000
0010
0000
0100
0000
1000
0000
,
0100
0000
1000
0000
0010
0000
0100
0001
0000
0000
1000
0000
0001
0000
0010
0000
,
0100
0000
1000
0000
0100
0000
0001
0010
0000
1000
0000
0100
0000
0020
0000
0000
,
1030
0000
0100
0000
0010
0000
0100
1000
0000
0100
0000
0010
0000
1000
0000
0000
,
0010
0000
0100
0000
0010
0000
1000
0100
0000
0010
0000
0001
0000
0100
0000
0000
,
1000
0000
0001
0000
0010
0000
0100
1000
0000
0010
0000
0100
0000
0001
0000
0000
,
1000
0000
0100
0000
0010
0000
0100
1000
0000
0010
0000
0100
0000
0020
0000
0000
,
1030
0200
0000
0000
1300
0000
0010
0100
,
0000
1000
0000
0000
0010
0000
1000
0100
,
0000
2000
0000
3010
0010
0000
0100
1000
,
0000
0020
0000
0000
0000
0030
0000
2000
,
0000
0000
0000
0000
0000
3000
0010
0100
,
0000
0100
1000
0000
1000
0000
0010
0010
,
0000
1000
0000
0010
0100
0000
1000
0100
,
0000
0100
0010
0000
1000
0000
0010
1000
,
0000
0200
0000
0300
1000
0000
0010
1000
,
0000
0010
0000
0000
1000
0000
0010
0100
,
0000
0002
0000
0003
0100
0000
0010
0010
,
0000
2000
0000
0000
0000
0000
3000
0020
,
0000
0000
1030
0000
0100
0000
1000
0100
,
0000
0100
1000
0000
0010
0000
0001
0001
,
0000
1000
0000
0000
0010
0000
1000
0000
,
0010
0010
0000
1100
0000
0011
0000
0110
,
0000
2000
0000
0000
3001
0000
0010
0010
,
0000
0200
0000
0300
1000
0000
0010
0010
,
0000
2000
0000
3000
0010
0000
0001
0001
,
0000
0020
0000
0000
0000
0030
0000
0002
,
0000
0000
0000
0003
1000
0000
0000
0100
,
0000
1000
1000
0000
0010
0000
0100
1000
,
0000
0200
0000
0000
0000
0300
0000
1000
,
0000
0010
0010
0000
0100
0000
1000
0100
,
0000
1000
0000
0000
0010
0000
0100
1000
,
0000
0110
0000
0000
0010
0000
1000
0100
,
0000
2100
0000
3000
0010
0000
0001
0001
,
0000
0200
0000
0000
0000
0300
0000
0020
,
0000
0000
0000
0030
0000
0000
1000
0100
,
0000
0010
0100
0000
1000
0000
0010
0100
,
0000
2000
0000
0000
3100
0000
1000
0000
,
0100
1000
0100
1000
0000
1100
0000
0220
,
0330
0000
0000
0000
;

//---------------dance-single - ----------------
#NOTES:
     dance-single:
     :
     Easy:
     4:
     0.293286,0.347431,0.055273,0.157923,0.000000,233.000000,7.000000,20.000000,0.000000,0.000000,0.000000,0.293286,0.347431,0.055273,0.157923,0.000000,233.000000,7.000000,20.000000,0.000000,0.000000,0.000000:
// measure 0
0000
0000
0000
0000
,  // measure 1
0000
0000
0000
0000
,  // measure 2
0000
0000
0000
0000
,  // measure 3
0000
0000
0000
0000
,  // measure 4
2000
0000
3010
0000
,  // measure 5
1000
1000
1000
0000
,  // measure 6
1000
0010
0100
0000
,  // measure 7
1000
0001
0010
0100
,  // measure 8
1000
0200
0000
1300
,  // measure 9
0010
0000
1000
0000
,  // measure 10
1000
0100
0010
0000
,  // measure 11
1001
0000
0110
0000
,  // measure 12
1000
0200
0000
1300
,  // measure 13
0010
0100
0010
0000
,  // measure 14
2000
0000
3010
0000
,  // measure 15
0001
0010
0100
0000
,  // measure 16
0200
0000
1300
0000
,  // measure 17
0100
1000
0010
0000
,  // measure 18
1000
0000
0010
0000
,  // measure 19
1000
0100
0010
0001
,  // measure 20
2000
0000
0010
0000
,  // measure 21
3001
0000
0010
0000
,  // measure 22
0100
0100
0100
0000
,  // measure 23
1000
0010
0100
1000
,  // measure 24
0010
0001
0010
0100
,  // measure 25
0010
1000
0100
0010
,  // measure 26
2000
0000
3020
0000
,  // measure 27
2030
0000
3002
0000
,  // measure 28
0203
0000
1000
0000
,  // measure 29
0310
0000
0100
0000
,  // measure 30
1000
1000
1000
0000
,  // measure 31
0001
0000
0100
0000
,  // measure 32
0100
0010
1000
0001
,  // measure 33
0010
0100
0010
0100
,  // measure 34
2000
0000
3200
0000
,  // measure 35
0320
0000
2030
0000
,  // measure 36
3001
0000
0100
0000
0000
0100
0100
0000
,  // measure 37
1000
0000
0001
0000
0000
0010
0100
0000
,  // measure 38
1000
0000
0010
0000
0000
0001
0010
0000
,  // measure 39
1000
0000
0010
0000
0000
1000
0100
1000
,  // measure 40
0100
0000
0010
0000
0000
0010
0100
0000
,  // measure 41
1000
0000
0010
0000
0000
0010
0100
0000
,  // measure 42
0001
0000
0010
0000
0000
0100
1000
0000
,  // measure 43
0100
0000
0010
0000
0000
0100
1000
0000
,  // measure 44
0001
0000
0010
0000
0000
0100
1000
0100
,  // measure 45
1000
0000
0010
0000
0000
0010
0100
1000
,  // measure 46
0100
0000
1000
0000
0000
0100
1000
0100
,  // measure 47
0010
0000
1000
0000
0100
0010
0100
0010
,  // measure 48
1001
0000
0010
0100
,  // measure 49
1000
0000
0010
0001
,  // measure 50
0100
0000
0010
0000
,  // measure 51
1000
0000
0010
1000
,  // measure 52
0200
0000
1000
0000
,  // measure 53
1300
0100
0010
0000
,  // measure 54
1000
0000
0001
0000
,  // measure 55
0010
0100
1000
0100
,  // measure 56
0010
0000
1000
1000
,  // measure 57
1000
0000
0001
0001
,  // measure 58
0001
0000
0010
0000
,  // measure 59
1000
0000
0010
0100
,  // measure 60
2000
0000
0001
0000
,  // measure 61
3010
0100
1000
0010
,  // measure 62
1000
0000
0010
0000
,  // measure 63
1000
0100
1000
0100
,  // measure 64
0001
0000
0011
0010
,  // measure 65
0100
0000
1100
0010
,  // measure 66
0100
0000
1000
0000
,  // measure 67
0100
0000
1000
0010
,  // measure 68
0200
0000
1000
0000
,  // measure 69
0310
0100
1000
0001
,  // measure 70
0010
0010
0100
0000
,  // measure 71
1000
0001
0010
0100
,  // measure 72
1000
0000
0110
1000
,  // measure 73
0001
0000
1001
0010
,  // measure 74
0100
0000
1000
0000
,  // measure 75
0001
0000
0010
1000
,  // measure 76
0002
0000
0010
0000
,  // measure 77
1003
0100
0010
0000
,  // measure 78
1000
0000
0010
0000
,  // measure 79
1000
0100
0010
0002
,  // measure 80
0003
0000
0000
0000
;
