#VERSION:0.82;
#TITLE:Boyfriend A GoGo;
#SUBTITLE:;
#ARTIST:松本伊代;
#TITLETRANSLIT:;
#SUBTITLETRANSLIT:;
#ARTISTTRANSLIT:Iyo Matsumoto;
#GENRE:;
#ORIGIN:;
#CREDIT:;
#BANNER:[Not Rhythm Games] - Boyfriend A GoGo.png;
#BACKGROUND:[Not Rhythm Games] - Boyfriend A GoGo-bg.png;
#PREVIEWVID:;
#JACKET:[Not Rhythm Games] - Boyfriend A GoGo-jacket.png;
#CDIMAGE:;
#DISCIMAGE:;
#LYRICSPATH:[Not Rhythm Games] - Boyfriend A GoGo.lrc;
#CDTITLE:cdtitle.png;
#MUSIC:[Not Rhythm Games] - Boyfriend A GoGo.ogg;
#OFFSET:0.000000;
#SAMPLESTART:68.427505;
#SAMPLELENGTH:12.000000;
#SELECTABLE:YES;
#BPMS:0.000=160.000;
#STOPS:;
#DELAYS:;
#WARPS:;
#TIMESIGNATURES:0.000=4=4;
#TICKCOUNTS:0.000=4;
#COMBOS:0.000=1;
#SPEEDS:0.000=1.000=0.000=0;
#SCROLLS:0.000=1.000;
#FAKES:;
#LABELS:0.000=Song Start;
#BGCHANGES:0.000=[Not Rhythm Games] - Boyfriend A GoGo-bg.png=1.000=0=0=1=====,
99999=-nosongbg-=1.000=0=0=0 // don't automatically add -songbackground-
;
#KEYSOUNDS:;
#ATTACKS:
;

//---------------dance-single - ----------------
#NOTEDATA:;
#CHARTNAME:vincentw-BEG;
#STEPSTYPE:dance-single;
#DESCRIPTION:;
#CHARTSTYLE:;
#DIFFICULTY:Beginner;
#METER:1;
#RADARVALUES:0.127984,0.162990,0.115313,0.035481,0.000000,84.000000,13.000000,4.000000,0.000000,0.000000,0.000000,0.000000,0.000000,0.127984,0.162990,0.115313,0.035481,0.000000,84.000000,13.000000,4.000000,0.000000,0.000000,0.000000,0.000000,0.000000;
#CREDIT:vincentw;
#NOTES:
// measure 0
0000
0000
0000
0000
,  // measure 1
0000
0000
0000
0000
,  // measure 2
0000
0000
0000
0000
,  // measure 3
0000
0000
0000
0000
,  // measure 4
0000
0000
0000
0000
,  // measure 5
1001
0000
0000
0000
,  // measure 6
0000
0000
0000
0000
,  // measure 7
0001
0000
0000
0000
,  // measure 8
0001
0000
0000
0000
,  // measure 9
1000
0000
0000
0000
,  // measure 10
0000
0000
0000
0000
,  // measure 11
0100
0000
0000
0000
,  // measure 12
0010
0000
0000
0000
,  // measure 13
0110
0000
0000
0000
,  // measure 14
0100
0000
0000
0000
,  // measure 15
1000
0000
1000
0000
,  // measure 16
0000
0000
0000
0000
,  // measure 17
0010
0000
0000
0000
,  // measure 18
0010
0000
0000
0000
,  // measure 19
0100
0000
0100
0000
,  // measure 20
0000
0000
0000
0000
,  // measure 21
0001
0000
0001
0000
,  // measure 22
0001
0000
0000
0000
,  // measure 23
1000
0000
1000
0000
,  // measure 24
0000
0000
0000
0000
,  // measure 25
0100
0000
0100
0000
,  // measure 26
0100
0000
0000
0000
,  // measure 27
0010
0000
0010
0000
,  // measure 28
0000
0000
0001
0000
,  // measure 29
0010
0000
0000
0000
,  // measure 30
0010
0000
0000
0000
,  // measure 31
0100
0000
0000
0000
,  // measure 32
0100
0000
0000
0000
,  // measure 33
1000
0000
0000
0000
,  // measure 34
1000
0000
1000
0000
,  // measure 35
0002
0000
0000
0000
,  // measure 36
0003
0000
0000
0000
,  // measure 37
1000
0000
1000
0000
,  // measure 38
0010
0000
0000
0000
,  // measure 39
0010
0000
0010
0000
,  // measure 40
0100
0000
0000
0000
,  // measure 41
0110
0000
0000
0000
,  // measure 42
1000
0000
0001
0000
,  // measure 43
1001
0000
0000
0000
,  // measure 44
0220
0000
0000
0000
,  // measure 45
0000
0330
0000
0000
,  // measure 46
0000
1001
0000
0000
,  // measure 47
0001
0000
0000
0000
,  // measure 48
0010
0000
0010
0000
,  // measure 49
0010
0000
0000
0000
,  // measure 50
0100
0000
0100
0000
,  // measure 51
1000
0000
0000
0000
,  // measure 52
1000
0000
1000
0000
,  // measure 53
0010
0000
0100
0000
,  // measure 54
0110
0000
0000
0000
,  // measure 55
0010
0000
0000
0000
,  // measure 56
1000
0000
1000
0000
,  // measure 57
0001
0000
0000
0000
,  // measure 58
0001
0000
0010
0000
,  // measure 59
0100
0000
0000
0000
,  // measure 60
0110
0000
0000
0000
,  // measure 61
1000
0000
0001
0000
,  // measure 62
0000
1001
0000
0000
,  // measure 63
0001
0000
0001
0000
,  // measure 64
1000
0000
0010
0000
,  // measure 65
1000
0000
0000
0000
,  // measure 66
0001
0000
0000
0000
,  // measure 67
0100
0000
0010
0000
,  // measure 68
0110
0000
0000
0000
,  // measure 69
1001
0000
0000
0000
,  // measure 70
0110
0000
0000
0000
,  // measure 71
1000
0000
1000
0000
,  // measure 72
1000
0000
0002
0000
,  // measure 73
0003
0000
1001
0000
;

//---------------dance-single - ----------------
#NOTEDATA:;
#CHARTNAME:vincentw-BAS;
#STEPSTYPE:dance-single;
#DESCRIPTION:;
#CHARTSTYLE:;
#DIFFICULTY:Easy;
#METER:4;
#RADARVALUES:0.219221,0.260784,0.159664,0.097572,0.000000,144.000000,18.000000,11.000000,0.000000,0.000000,0.000000,0.000000,0.000000,0.219221,0.260784,0.159664,0.097572,0.000000,144.000000,18.000000,11.000000,0.000000,0.000000,0.000000,0.000000,0.000000;
#CREDIT:vincentw;
#NOTES:
// measure 0
0000
0000
0000
0000
,  // measure 1
0000
0000
0000
0000
,  // measure 2
0000
0000
0000
0000
,  // measure 3
0000
0000
0000
0000
,  // measure 4
0000
0000
0000
0000
,  // measure 5
1000
0000
1001
0000
0000
0000
0000
0002
,  // measure 6
0000
0000
0000
1003
0000
0000
0000
0000
,  // measure 7
1000
0000
0000
0000
0000
0000
0000
0200
,  // measure 8
0000
0000
0000
0300
0000
0000
0000
0000
,  // measure 9
0010
0000
0010
0000
0000
0000
0000
0200
,  // measure 10
0000
0000
0000
0300
0000
0000
0000
0000
,  // measure 11
1000
0000
0000
0010
0000
0000
0000
0000
,  // measure 12
1001
0000
0000
0100
0000
0000
0000
0000
,  // measure 13
1001
0000
1000
0000
,  // measure 14
0001
0000
1000
0001
,  // measure 15
1000
0000
0100
0000
,  // measure 16
0010
0000
0100
0010
,  // measure 17
0100
0000
1000
0000
,  // measure 18
0010
0000
1000
0010
,  // measure 19
1000
0000
0001
0000
,  // measure 20
0010
0010
0001
0001
,  // measure 21
0011
0000
1000
0000
,  // measure 22
0100
0000
1000
0100
,  // measure 23
1000
0000
0001
0000
,  // measure 24
0100
0000
0001
0100
,  // measure 25
0001
0000
0010
0000
,  // measure 26
0100
0000
1000
0100
,  // measure 27
0010
0000
0001
0000
,  // measure 28
1000
0000
0010
0000
,  // measure 29
1010
0000
1000
0000
0000
0001
0000
0002
,  // measure 30
0000
0000
0000
0003
,  // measure 31
0010
0000
0010
0000
0000
0100
0000
0200
,  // measure 32
0000
0000
0300
0000
,  // measure 33
1000
0000
1000
0000
0000
0100
0000
0100
,  // measure 34
0000
0000
0010
0000
0010
0000
0000
0002
,  // measure 35
0000
0000
0000
0000
,  // measure 36
0013
0000
0001
0000
,  // measure 37
0101
0000
0100
0000
0000
0001
0000
0002
,  // measure 38
0000
0000
0000
0003
,  // measure 39
1000
0000
1000
0000
0000
0010
0000
0020
,  // measure 40
0000
0000
0030
0000
,  // measure 41
1010
0000
0000
0000
,  // measure 42
0101
0000
0000
0000
,  // measure 43
1100
0000
0000
0000
0000
0000
0000
0022
,  // measure 44
0000
0000
0000
0000
,  // measure 45
0000
0033
0000
0000
,  // measure 46
0001
0000
1001
0000
0000
0000
0000
1000
,  // measure 47
0000
1000
0000
1000
0000
0000
0000
0000
,  // measure 48
0001
0000
0010
0000
,  // measure 49
0100
0000
1000
0000
,  // measure 50
0010
0000
0010
0000
0000
0000
0000
0100
,  // measure 51
0000
0100
0000
0100
0000
0000
0000
0000
,  // measure 52
0001
0000
0000
1000
0000
0000
0000
0000
,  // measure 53
1001
0000
0110
0000
,  // measure 54
1001
0000
0000
0000
1000
0000
0000
0001
,  // measure 55
0000
0001
0000
0001
0000
0000
0000
0000
,  // measure 56
1000
0000
0100
0000
,  // measure 57
0010
0000
0001
0000
,  // measure 58
0100
0000
0100
0000
0000
0000
0000
0010
,  // measure 59
0000
0010
0000
0010
0000
0000
0000
0000
,  // measure 60
1000
0000
0000
0001
0000
0000
0000
0000
,  // measure 61
1100
0000
0000
0011
0000
0000
0000
0000
,  // measure 62
0001
0000
1001
0000
0000
0000
0000
1000
,  // measure 63
0000
0010
0000
1000
0000
0000
0000
0000
,  // measure 64
0001
0000
0100
0000
0000
0001
0000
0100
,  // measure 65
0000
0000
0000
0001
0000
0000
0000
0000
,  // measure 66
0010
0000
0010
0000
0000
0000
0000
0100
,  // measure 67
0000
1000
0000
0100
0000
0000
0000
0000
,  // measure 68
0010
0000
0000
0010
0000
0000
0000
0000
,  // measure 69
0001
0000
0000
0001
0000
0000
0000
0000
,  // measure 70
1000
0000
0000
1000
0000
0000
0000
0010
,  // measure 71
0000
0000
0000
0010
0000
0000
0000
0100
,  // measure 72
0000
0000
0000
0200
0000
0000
0000
0000
,  // measure 73
0000
0300
0110
0000
;

//---------------dance-single - ----------------
#NOTEDATA:;
#CHARTNAME:vincentw-DIF;
#STEPSTYPE:dance-single;
#DESCRIPTION:;
#CHARTSTYLE:;
#DIFFICULTY:Medium;
#METER:6;
#RADARVALUES:0.366213,0.423774,0.070962,0.345938,0.000000,242.000000,8.000000,39.000000,0.000000,0.000000,0.000000,0.000000,0.000000,0.366213,0.423774,0.070962,0.345938,0.000000,242.000000,8.000000,39.000000,0.000000,0.000000,0.000000,0.000000,0.000000;
#CREDIT:vincentw;
#NOTES:
// measure 0
0000
0000
0000
0000
,  // measure 1
0000
0000
0000
0000
,  // measure 2
0000
0000
0000
0000
,  // measure 3
0000
0000
0000
0000
,  // measure 4
0000
0000
0000
0000
,  // measure 5
0001
0000
1001
0000
0000
0000
0000
1000
,  // measure 6
0000
1000
0000
2000
0000
0000
3010
0000
,  // measure 7
0010
0000
0010
0000
0000
0100
0000
0200
,  // measure 8
0000
0000
0000
0301
0000
0000
0000
0000
,  // measure 9
1000
0000
1000
0000
0000
0000
0000
0001
,  // measure 10
0000
0001
0000
0001
0000
0000
0010
0000
,  // measure 11
0010
0000
0010
0100
0000
0100
0000
1000
,  // measure 12
0000
1000
0000
1000
0000
0000
0000
0000
,  // measure 13
1000
0000
0010
0000
1000
0010
0000
1000
,  // measure 14
0000
0010
0000
0000
0000
0100
0000
0100
,  // measure 15
0000
0001
0000
0001
0000
0100
0000
0001
,  // measure 16
0000
0010
0000
0100
0000
2000
0000
3000
,  // measure 17
0001
0000
0010
0000
0001
0010
0000
0001
,  // measure 18
0000
0010
0000
0000
0000
0100
0000
0100
,  // measure 19
0000
1000
0000
1000
0000
0100
0000
1000
,  // measure 20
0000
0010
0000
0100
0000
0002
0000
0003
,  // measure 21
1000
0000
0100
0000
0010
0100
0000
1000
,  // measure 22
0000
0001
0000
0000
0000
1000
0000
0100
,  // measure 23
0000
0010
0000
0001
0000
0010
0000
0100
,  // measure 24
0000
1000
0000
0002
0000
0000
0103
0000
,  // measure 25
0010
0000
1000
0000
0001
1000
0000
0010
,  // measure 26
0000
0100
0000
0000
0000
0001
0000
0100
,  // measure 27
0000
0010
0000
1000
0000
0010
0000
0100
,  // measure 28
0000
0002
0000
0000
1003
0000
0100
0000
,  // measure 29
0001
0000
0000
0001
0000
0100
0000
2000
,  // measure 30
0000
0001
0000
0001
0000
0002
3000
0000
,  // measure 31
0013
0000
0000
1000
0000
0010
0000
0002
,  // measure 32
0000
1000
0000
1003
0000
1000
0000
0000
,  // measure 33
0010
0000
0000
0001
0000
0010
0000
1000
,  // measure 34
0000
0000
0100
0000
0001
0100
0000
2000
,  // measure 35
0000
0020
0000
0030
0000
0002
0000
0003
,  // measure 36
0000
3200
0000
0300
0000
2000
0000
3000
,  // measure 37
0001
0000
0100
0000
0000
0001
0000
0020
,  // measure 38
0000
0100
0000
0100
0000
0200
0030
0000
,  // measure 39
1300
0000
0010
0000
0000
1000
0000
0200
,  // measure 40
0000
0010
0000
0310
0000
0001
0000
0000
,  // measure 41
1001
0000
0000
0000
0000
0100
0000
0000
,  // measure 42
0110
0000
1000
0000
0001
0010
0001
0020
,  // measure 43
0000
0000
0030
0000
0001
0100
0001
0200
,  // measure 44
0000
0010
0000
0000
0010
0000
0000
0020
,  // measure 45
0000
0300
0000
0030
,  // measure 46
0110
0000
1001
0000
0001
1000
0000
0010
,  // measure 47
0000
1000
0000
0001
0000
0000
1000
0000
,  // measure 48
0010
0000
0100
0000
0001
0100
0010
2000
,  // measure 49
0000
0000
0000
3002
0000
0000
0003
0000
,  // measure 50
0001
0000
1000
0000
0100
0010
0000
0001
,  // measure 51
0000
0010
0000
0100
0000
0000
0000
0000
,  // measure 52
1000
0000
0010
0001
0000
0010
0000
2000
,  // measure 53
0000
0000
0020
3030
,  // measure 54
1010
0000
0001
0000
1000
0001
0000
0100
,  // measure 55
0000
0001
0000
1000
0000
0000
0001
0000
,  // measure 56
0010
0000
0100
0000
1000
0100
0010
0002
,  // measure 57
0000
0000
0000
2003
0000
0000
3000
0000
,  // measure 58
1000
0000
0001
0000
0100
0010
0000
1000
,  // measure 59
0000
0010
0000
0100
0000
0000
0000
0000
,  // measure 60
0001
0000
0010
1000
0000
0010
0000
0100
,  // measure 61
0000
1000
0000
0010
0000
1000
0001
0000
,  // measure 62
0100
0000
0101
0000
0000
0000
0000
0002
,  // measure 63
0000
0023
0000
2030
0000
3200
0000
0302
,  // measure 64
0000
0000
1003
0000
0000
0100
1000
0200
,  // measure 65
0000
0000
0000
2300
0000
0000
0000
0000
,  // measure 66
3010
0000
0100
0000
0010
0000
0000
2000
,  // measure 67
0000
3200
0000
0302
0000
0103
1000
0000
,  // measure 68
0010
0000
1000
0100
0000
1000
0000
0000
,  // measure 69
0001
0000
0010
0100
0000
0010
0000
0000
,  // measure 70
0100
0000
1000
0001
0000
1000
0000
0010
,  // measure 71
0000
1000
0000
0100
0000
0001
0000
0100
,  // measure 72
0000
1000
0000
0010
0200
0000
0320
0000
,  // measure 73
2030
3001
1001
0000
;

//---------------dance-single - ----------------
#NOTEDATA:;
#CHARTNAME:vincentw-EXP;
#STEPSTYPE:dance-single;
#DESCRIPTION:;
#CHARTSTYLE:;
#DIFFICULTY:Hard;
#METER:8;
#RADARVALUES:0.628517,0.684558,0.523342,0.443510,0.084267,387.000000,59.000000,50.000000,0.000000,0.000000,0.000000,0.000000,0.000000,0.628517,0.684558,0.523342,0.443510,0.084267,387.000000,59.000000,50.000000,0.000000,0.000000,0.000000,0.000000,0.000000;
#CREDIT:vincentw;
#NOTES:
// measure 0
0000
0000
0000
0000
,  // measure 1
0000
0000
0000
0000
,  // measure 2
0000
0000
0000
0000
,  // measure 3
0000
0000
0000
0000
,  // measure 4
0020
0000
0000
0000
,  // measure 5
0130
0000
1001
0000
1000
0000
0010
0001
,  // measure 6
0000
0010
0000
1000
0000
0001
0010
0100
,  // measure 7
1000
0000
0010
0000
1000
0100
0010
0002
,  // measure 8
0000
1000
0000
2003
0000
0001
3001
0000
,  // measure 9
1000
0010
1000
0000
0001
0000
0010
1000
,  // measure 10
0000
0010
0000
0001
0000
1000
0100
0000
,  // measure 11
1100
0000
0001
0100
0000
0001
0000
0101
,  // measure 12
0000
1001
0000
2020
0000
0000
3030
0000
,  // measure 13
0011
0000
0001
0010
0100
0000
1000
0100
,  // measure 14
0000
1000
0010
0100
0001
1000
0001
0000
,  // measure 15
0100
0000
0010
1000
0001
0000
0010
0100
,  // measure 16
0000
1000
0001
0010
0100
0001
0000
1000
,  // measure 17
0010
0000
0100
1000
0010
0000
0001
0010
,  // measure 18
0000
0100
0010
1000
0001
0010
0100
0000
,  // measure 19
0010
0000
0100
1000
0010
0000
0100
0010
,  // measure 20
0000
2000
0000
3020
0000
0230
0000
0310
,  // measure 21
0110
0000
0010
1000
0100
0000
0010
0001
,  // measure 22
0000
0000
0100
0000
0001
1000
0001
0000
0000
0000
1000
0000
0000
0000
1000
0000
,  // measure 23
0010
0000
0100
0001
0000
1000
0100
0000
,  // measure 24
1000
0002
0203
2300
0000
0000
3200
0301
,  // measure 25
0010
0000
0100
1000
0000
0010
0100
0001
,  // measure 26
1000
0000
0000
0000
0010
0100
0010
0000
0000
0000
0100
0000
0000
0000
0001
0000
,  // measure 27
0100
0000
0010
1000
0001
0010
0000
0001
,  // measure 28
0000
2000
3020
0031
0000
0002
0023
1030
,  // measure 29
1020
0000
2030
0100
3100
0000
1000
0010
,  // measure 30
0000
1010
0000
1001
0000
0101
0000
0100
,  // measure 31
0020
0000
0230
0001
0301
0000
0010
0001
,  // measure 32
0000
0011
0000
0110
0000
1100
0000
0001
,  // measure 33
1002
0000
2003
0010
3010
0000
0100
0001
,  // measure 34
0000
0001
0000
0001
0010
1000
0010
0000
,  // measure 35
0100
1000
0010
0002
0000
1003
0100
0001
,  // measure 36
0000
0001
0010
2000
0000
3001
0100
1000
,  // measure 37
2100
0000
3200
0001
0301
0000
0100
1000
,  // measure 38
0000
1100
0000
1010
0000
0110
0000
0001
,  // measure 39
2000
0000
3002
0010
0023
0000
1030
0010
,  // measure 40
0000
0011
0000
1002
0000
0013
0001
1000
,  // measure 41
2001
0000
0000
0100
0000
3100
0000
0010
,  // measure 42
0021
0001
0000
0100
0130
0000
1000
0001
,  // measure 43
1001
1000
0000
1100
0100
0000
0010
0011
,  // measure 44
0000
0101
0000
1010
0010
0000
0100
0220
,  // measure 45
0000
0000
0000
0330
,  // measure 46
0010
0100
0000
0000
1001
0000
0000
0000
0001
0000
1000
0000
0010
0000
0100
0000
,  // measure 47
0000
0000
0100
0000
0010
0000
1000
0000
0000
0000
1000
0000
0100
0000
0010
0100
,  // measure 48
0000
0010
0001
0100
1000
0100
0001
0101
,  // measure 49
0000
0100
0000
0110
0000
0010
0010
0000
,  // measure 50
1000
0100
0000
0000
1100
0000
0000
0000
0100
0000
0010
0000
0001
0000
0100
0000
,  // measure 51
0000
0000
0001
0000
0010
0000
0100
0000
0000
0000
1000
0100
1000
0000
0000
0000
,  // measure 52
0001
0000
0001
0010
0000
0001
0010
0100
,  // measure 53
0110
0000
0010
0001
0011
0000
1000
0000
,  // measure 54
1010
0000
0001
0000
1000
0001
0100
0010
,  // measure 55
0000
0000
0010
0000
0100
0000
0001
0000
0000
0000
0001
0000
0010
0000
0100
0010
,  // measure 56
0000
0100
1000
0010
0001
0010
1000
1010
,  // measure 57
0000
0010
0000
0110
0000
0100
0100
0000
,  // measure 58
0001
0010
0000
0000
0011
0000
0000
0000
0010
0000
0100
0000
1000
0000
0010
0000
,  // measure 59
0000
0000
1000
0000
0100
0000
0010
0000
0000
0000
0001
0010
0001
0000
0000
0000
,  // measure 60
1010
0000
1000
1100
0000
0100
1000
0000
,  // measure 61
0101
0000
0000
0000
0001
0000
0011
0000
0000
0000
0010
0000
0001
1000
0001
0000
,  // measure 62
1000
0010
0000
0000
1010
0000
0000
0000
0010
0000
1000
0000
0000
0000
0101
0000
,  // measure 63
0000
0000
1001
0000
0000
0000
0011
0000
0000
0000
0001
0010
0100
0000
0010
0001
,  // measure 64
0000
0000
0100
0000
0010
0100
0000
0000
0020
0000
2030
0000
3200
0000
0302
0000
,  // measure 65
0000
2003
0000
3020
0000
0031
0100
0001
,  // measure 66
1000
0100
0000
0000
1200
0000
0000
0000
0310
0000
1000
0000
0010
0000
0001
0000
,  // measure 67
0000
0000
0001
0000
0100
0000
1000
0000
0000
0000
1000
0100
0001
0000
0000
0000
,  // measure 68
0101
0000
0000
0000
0001
0000
0010
0000
0000
0100
0010
0000
0200
0000
0000
0300
,  // measure 69
1100
0000
0000
0000
1000
0000
0010
0000
0000
0100
0010
0000
2000
0000
0000
3000
,  // measure 70
1001
0000
0000
0000
0001
0000
1000
0000
0000
0010
1000
0000
0100
0000
1100
0000
,  // measure 71
0000
0110
0000
0011
0000
0101
0000
1001
,  // measure 72
0000
1010
0000
1100
0200
2300
3020
0032
,  // measure 73
2003
3002
0023
1030
1010
0000
0000
0000
;
