#TITLE:robin;
#SUBTITLE:;
#ARTIST:S-C-U;
#TITLETRANSLIT:;
#SUBTITLETRANSLIT:;
#ARTISTTRANSLIT:;
#GENRE:;
#CREDIT:hooky;
#BANNER:robin.png;
#BACKGROUND:robin-bg.png;
#LYRICSPATH:;
#CDTITLE:;
#MUSIC:robin.ogg;
#OFFSET:0.000000;
#SAMPLESTART:21.473000;
#SAMPLELENGTH:15.000000;
#SELECTABLE:YES;
#DISPLAYBPM:190.000000;
#BPMS:0.000000=190.000000
,196.000000=80.155998
,197.125000=106.875000
,197.500000=142.500000
,198.000000=190.000000
;
#STOPS:
;
#BGCHANGES:;
#KEYSOUNDS:;
#ATTACKS:;

//---------------dance-single - ----------------
#NOTES:
     dance-single:
     :
     Medium:
     7:
     0.459150,0.565846,0.214893,0.084089,0.000000,344.000000,321.000000,23.000000,9.000000,0.000000,0.000000,0.459150,0.565846,0.214893,0.084089,0.000000,344.000000,321.000000,23.000000,9.000000,0.000000,0.000000:
// measure 0
0000
0000
0000
0000
,  // measure 1
0000
0000
0000
0000
,  // measure 2
0000
0000
0000
0000
,  // measure 3
0000
0000
0000
0000
,  // measure 4
0000
0000
0000
0000
,  // measure 5
1000
0000
0100
1000
0000
0000
1000
0000
,  // measure 6
0000
0010
0000
0010
0000
0000
0100
0000
,  // measure 7
0001
0001
0010
0000
,  // measure 8
0001
0000
0001
0000
0000
0200
0000
0300
,  // measure 9
0010
0010
1000
0100
,  // measure 10
1000
1000
0010
0100
,  // measure 11
0001
0000
0001
0010
0001
0000
0001
0000
,  // measure 12
0001
0100
0001
0000
0100
0000
0100
0000
,  // measure 13
0010
1000
0100
0100
,  // measure 14
1000
0010
0100
0001
,  // measure 15
0010
0001
0010
0000
0001
0000
0001
0000
,  // measure 16
0100
0010
0200
0000
0000
0000
0300
0000
,  // measure 17
0110
0000
0110
0000
0000
0000
0000
1100
,  // measure 18
0000
1100
0000
0000
,  // measure 19
0010
0100
0001
0000
0010
0000
0010
0000
,  // measure 20
0001
0100
0001
0000
0100
0000
0010
0000
,  // measure 21
1010
0000
1010
0000
0000
0000
0000
0101
,  // measure 22
0000
0101
0001
0001
,  // measure 23
0010
0001
0100
0000
0010
0000
0010
0000
,  // measure 24
0010
1000
0100
0000
1000
0000
1000
0000
,  // measure 25
0010
0000
0010
0000
0100
0000
0001
0100
,  // measure 26
0000
0100
0001
0000
0001
0000
0001
0000
,  // measure 27
0010
0001
0100
0000
0010
0000
0010
0000
,  // measure 28
0010
1000
0100
0000
1000
0000
1000
0000
,  // measure 29
0010
0000
0010
0000
0100
0000
0100
0001
,  // measure 30
0000
0001
0100
0000
0010
0000
0100
0000
,  // measure 31
0020
0000
0000
0100
0000
0000
0001
0000
,  // measure 32
0000
0100
0000
0000
1000
0000
0130
0000
,  // measure 33
0010
0000
0010
0000
1000
0100
1000
0000
,  // measure 34
0010
0010
0100
0100
,  // measure 35
0001
0000
0010
0000
0001
0100
0001
0000
,  // measure 36
0010
0010
0001
0001
,  // measure 37
0100
0000
0010
0000
1000
0100
1000
0000
,  // measure 38
0010
0010
1000
0100
,  // measure 39
1000
0010
1000
0000
0010
0100
0010
0000
,  // measure 40
0100
0001
0100
0000
0001
0000
0001
0000
,  // measure 41
0010
0000
0001
0000
0001
0100
0001
0000
,  // measure 42
0010
0000
0001
0000
1000
0100
1000
0000
,  // measure 43
0010
0000
0010
0000
0100
0001
0100
0000
,  // measure 44
0001
0000
0001
0000
0010
0001
0100
0000
,  // measure 45
0010
0000
0010
0000
1000
0100
1000
0000
,  // measure 46
0010
0010
0100
0001
,  // measure 47
0011
0000
0000
0101
0000
0000
0110
0000
,  // measure 48
0000
1010
0000
0000
1000
0001
2000
0002
,  // measure 49
0000
0000
0000
3003
1000
0000
0010
0000
,  // measure 50
0100
0001
0100
0000
0001
0000
0010
0000
,  // measure 51
0100
0100
1000
0001
,  // measure 52
0010
0001
0100
0000
0010
0000
0010
0000
,  // measure 53
1000
0100
1000
0000
0010
0000
0110
0000
,  // measure 54
0001
0001
0001
0000
0010
0000
0001
0000
,  // measure 55
0001
0000
0100
0000
0010
0000
1000
0100
,  // measure 56
0000
1000
0000
0010
0000
0100
0001
0010
,  // measure 57
0000
0100
0100
0000
1000
0000
0010
0000
,  // measure 58
1000
0100
1000
0000
0010
0000
1000
0000
,  // measure 59
0010
0000
0010
0000
0100
0001
0010
0000
,  // measure 60
0001
0000
0001
0000
0100
0010
1000
0000
,  // measure 61
0100
0100
1000
1010
,  // measure 62
0101
0001
0010
0001
,  // measure 63
0101
0000
1010
0000
0010
0000
1000
0100
,  // measure 64
0000
1000
0000
0010
0000
0100
0001
0010
,  // measure 65
0001
0100
0100
0000
0220
0000
0000
0000
,  // measure 66
0000
0300
1000
0000
,  // measure 67
0100
0030
0202
0000
,  // measure 68
0000
0003
0010
0000
,  // measure 69
0001
0000
0001
0300
0010
0000
0000
0010
,  // measure 70
1000
0000
0000
1000
0100
0000
0000
0010
,  // measure 71
0001
0000
0000
0100
0001
0000
0000
0010
,  // measure 72
0001
0000
0000
1000
0100
0000
0000
1000
,  // measure 73
0010
0010
0100
0001
,  // measure 74
0010
0010
0001
0100
,  // measure 75
0010
0000
0010
0000
0010
1000
0100
1000
,  // measure 76
0100
0000
0000
0010
0001
0010
0001
0000
,  // measure 77
0001
0101
0010
0010
,  // measure 78
0010
0010
0100
0100
,  // measure 79
0100
0000
0100
0000
0001
0010
0001
0100
,  // measure 80
0010
0000
1000
0000
0110
0110
0110
0000
;

//---------------dance-single - ----------------
#NOTES:
     dance-single:
     :
     Hard:
     8:
     0.698069,0.829908,0.401757,0.084089,0.018686,523.000000,480.000000,43.000000,9.000000,0.000000,0.000000,0.698069,0.829908,0.401757,0.084089,0.018686,523.000000,480.000000,43.000000,9.000000,0.000000,0.000000:
0000
0000
0000
0000
,
0000
0000
0000
0000
,
0000
0000
0000
0000
,
0000
0000
0000
0000
,
0000
0000
0000
0000
,
0001
0000
0100
0010
0000
1000
0100
0000
,
1000
0010
0000
0010
0000
0100
0001
0000
,
0100
0010
1000
0100
1000
0000
0000
0001
,
0100
0001
0010
0000
0000
0002
0000
0003
,
0110
0000
0010
1000
0100
1000
0010
0000
,
0100
0000
0001
0010
0001
0100
0001
0000
,
0100
0100
0010
0010
0010
0000
0000
1000
,
0100
0100
1000
0000
0010
0000
0110
0000
,
0011
0000
0100
0001
0010
0001
0100
0000
,
0010
0000
1000
0100
1000
0010
1000
0000
,
0010
0010
0100
0100
0100
0000
0000
0001
,
0010
0010
0002
0000
0000
0000
0003
0000
,
0110
0000
1010
0000
0100
0000
0001
0101
,
0000
0011
0011
0000
0100
0000
0110
0000
,
0010
1000
0100
0000
0010
0001
0100
0010
,
0100
0001
1000
0100
0010
0100
1000
0000
,
1100
0000
0101
0000
0010
0000
1000
1010
,
0000
1100
1100
0000
0010
0000
0110
0000
,
0100
0001
0010
0001
0100
1000
0100
0001
,
0010
1000
0010
0001
0100
0010
1000
0000
,
1100
0100
1000
0000
1100
0000
0010
0100
,
0000
0100
0010
0100
0001
0010
0100
0000
,
1000
0010
0100
0000
0001
0010
0001
0100
,
0010
1000
0100
1000
0010
0100
0001
0000
,
0001
0010
0001
0000
0011
0000
0100
0010
,
0000
0010
0100
0010
1000
0100
0110
0000
,
0002
0000
0103
0010
0000
1000
0100
0000
,
0010
0001
0000
0100
0001
0000
0100
0000
,
0010
0010
1000
0100
1000
0010
0100
0000
,
0001
0001
0100
0010
1000
0100
1000
0010
,
0100
0100
0001
0010
0001
0100
0001
0010
,
0100
0100
1000
0010
0100
0001
0010
0000
,
0100
0100
1000
0010
0100
0001
0010
0001
,
0100
0010
0010
1000
0100
1000
0010
0100
,
0001
0010
0001
0010
0001
0100
0010
1000
,
0010
0100
0001
0010
0001
0100
0001
0000
,
0100
0100
0001
0010
0001
0100
0010
0000
,
1000
1000
0010
0100
0001
0010
0001
0100
,
0010
0010
1000
0100
1000
0010
1000
0100
,
0010
0010
0001
0100
0010
1000
0100
0000
,
0010
0010
0001
0100
0010
1000
0100
1000
,
0010
0100
0100
0001
0010
0001
0100
0010
,
1100
1010
0000
0110
0101
0000
0011
0110
,
0000
1010
1001
0000
0100
0010
0200
0020
,
0000
0000
0000
0000
0000
0000
0000
0000
0000
0000
0000
0000
0000
0000
0000
0000
0000
0000
0000
0330
0000
0000
0000
0000
0000
0000
0000
0000
0000
0000
0000
0000
1000
0000
0000
0000
0000
0000
0000
0000
0100
0000
0000
0000
0000
0000
0000
0000
1000
0000
0000
0000
0000
0000
0000
0000
0010
0000
0000
0000
0000
0000
0000
0000
,
0100
0001
0010
0001
0100
0010
1000
0100
,
1000
0010
0100
0001
0100
0001
0010
0001
,
0100
0010
1000
0100
0000
1000
0100
0010
,
0001
0010
0100
1000
0010
0100
0101
0000
,
0100
0010
0100
0001
0010
0001
0100
0010
,
1000
0100
1000
0000
0010
0010
0100
0001
,
0010
0001
0100
0010
0000
1000
1000
0010
,
0100
0001
0010
0000
0001
0010
0001
0100
,
0010
1000
0100
1000
0010
0100
0001
0010
,
0001
0100
0010
1000
0010
1000
0100
1000
,
0010
0100
0001
0010
0000
0001
0010
0100
,
1000
0100
0010
0001
0100
0010
1010
0000
,
0010
0100
0010
1000
0100
1000
0010
0100
,
0001
0010
0001
0000
0001
0100
0010
1000
,
0100
1000
0010
0100
0000
0001
0100
0010
,
1000
0100
2200
0000
,
0000
0000
0000
0000
0300
0000
0100
0000
0100
0000
0000
0100
0000
0000
0100
0000
,
0010
0000
0000
0010
3000
0000
0010
0000
0220
0000
0000
0000
0000
0000
0000
0000
,
0000
0000
0000
0000
0300
0000
0000
0000
0100
0000
0000
0100
0000
0000
0100
0000
,
1000
0000
0000
1000
0030
0000
1000
0000
1010
0000
0000
0000
0000
0000
0100
0000
,
0101
0000
0000
0100
0110
0000
0000
1000
,
1100
0000
0000
0010
0011
0000
0000
0001
,
0101
0000
0000
0100
1100
0000
0000
1000
,
1001
0000
0100
0000
0001
0100
1000
0100
,
0001
0100
1000
0100
0001
0010
1000
0010
,
0001
0010
1000
0010
0001
0100
0010
1000
,
0100
0000
0000
1000
0010
0100
0001
0000
,
0010
0000
0011
0000
0001
0100
0001
0100
,
0001
0010
0001
0010
0100
1000
0100
1000
,
0010
1000
0010
1000
0010
0100
0001
1000
,
0001
0100
0010
0100
0110
0110
0110
0000
;

//---------------dance-single - ----------------
#NOTES:
     dance-single:
     :
     Easy:
     4:
     0.335020,0.377231,0.168177,0.074745,0.000000,251.000000,233.000000,18.000000,8.000000,0.000000,0.000000,0.335020,0.377231,0.168177,0.074745,0.000000,251.000000,233.000000,18.000000,8.000000,0.000000,0.000000:
0000
0000
0000
0000
,
0000
0000
0000
0000
,
0000
0000
0000
0000
,
0000
0000
0000
0000
,
0000
0000
0000
0000
,
1000
0000
1000
0000
,
0001
0000
0001
0000
,
0200
0000
0000
0000
,
0020
0000
0000
0330
,
0010
0010
1000
0000
,
1000
1000
0100
0000
,
1000
0010
0100
0100
,
0001
0010
0001
0001
,
0100
0010
1000
0000
,
0100
1000
0001
0000
,
0001
0010
0001
0100
,
0020
0000
0000
0000
0000
0030
0000
0000
,
0010
0000
0010
0000
1000
0000
0000
0100
,
0000
0100
1000
0010
,
0100
0001
0010
0010
,
0001
0100
0010
1000
,
0100
0000
0100
0000
0000
0000
0000
1000
,
0000
1000
0001
0001
,
0100
0010
1000
0100
,
1000
1000
0001
0010
,
0001
0001
0100
0010
,
1000
1000
0100
1000
,
0010
0100
0001
0010
,
0001
0010
0001
0001
,
0100
0010
1000
0100
,
1000
0010
0100
0001
,
0010
0000
0010
0000
,
0100
0000
1000
0001
,
1001
0000
1001
0000
,
0100
0100
0100
0000
,
0110
0000
0110
0000
,
0010
1000
0100
0000
,
1100
0000
1100
0000
,
1000
0010
0100
0001
,
0010
0010
0001
0001
,
0100
0100
0001
0010
,
0101
0000
0101
0000
,
0100
0010
1000
0100
,
1100
0000
1100
0000
,
1000
0010
0100
0001
,
0011
0000
0011
0000
,
0001
0100
0010
1000
,
0100
0000
0000
0100
0000
0000
1000
0000
,
0000
1000
0000
0000
0010
0000
0100
0000
,
0002
0000
0103
0000
,
0100
0000
0010
0000
,
0010
0000
0010
1000
,
0100
0000
0100
1000
,
0001
1000
0010
0000
,
0010
0000
0100
0000
,
0100
0000
0001
0010
,
0001
0100
0001
0001
,
1000
1000
0100
1000
,
0010
0000
0010
0100
,
0001
0000
0010
0010
,
0001
0001
0100
0010
,
1000
0100
1000
1000
,
0001
0000
0001
0001
,
1000
0000
0010
0100
,
0001
0010
0001
0001
,
0100
0001
0022
0000
,
0000
0003
0001
0000
,
0001
0030
0202
0000
,
0000
0003
0010
0000
,
0010
0300
0010
0000
,
1010
0000
0100
0000
,
1100
0000
0001
0000
,
0011
0000
0001
0000
,
0101
0000
0100
0010
,
1000
1000
0010
0100
,
0001
0001
0010
0001
,
0001
0000
0100
0100
,
0010
0010
1000
0100
,
1000
0100
0010
0100
,
0010
0100
0010
0001
,
1000
0000
0010
0000
0100
0010
0100
0000
;

//---------------dance-single - ----------------
#NOTES:
     dance-single:
     :
     Beginner:
     2:
     0.204215,0.263244,0.112118,0.037373,0.000000,153.000000,141.000000,12.000000,4.000000,0.000000,0.000000,0.204215,0.263244,0.112118,0.037373,0.000000,153.000000,141.000000,12.000000,4.000000,0.000000,0.000000:
0000
0000
0000
0000
,
0000
0000
0000
0000
,
0000
0000
0000
0000
,
0000
0000
0000
0000
,
0000
0000
0000
0000
,
1000
0000
1000
0000
,
0001
0000
0001
0000
,
2002
0000
0000
0000
,
0000
0000
0000
3003
,
0100
0000
0100
0000
,
0010
0000
0010
0000
,
1000
0000
0000
0000
,
0001
0000
0000
0000
,
1000
0000
1000
0000
,
0010
0000
0010
0000
,
0100
0000
0000
0000
,
0001
0000
0000
0000
,
1001
0000
0000
0000
,
1001
0000
0000
0000
,
0110
0000
0010
0000
,
1000
0000
0100
0000
,
1001
0000
0000
0000
,
1001
0000
0000
0000
,
0110
0000
0010
0000
,
1000
0000
0100
0000
,
1000
0000
1000
0000
,
0001
0000
0001
0000
,
0100
0000
0010
0000
,
1000
0000
0100
0000
,
1000
0000
1000
0000
,
0001
0000
0001
0000
,
1000
0000
0000
0000
,
0010
0000
0100
0000
,
0110
0000
0000
0000
,
0001
0000
0001
0000
,
1001
0000
0000
0000
,
1000
0000
1000
0000
,
0110
0000
0000
0000
,
0010
0000
0010
0000
,
1000
0000
0100
0000
,
1000
0000
0010
0000
,
0100
0000
0100
0000
,
0001
0001
0001
0000
,
0010
0000
0010
0000
,
0100
0100
0100
0000
,
1000
0000
1000
0000
,
0001
0001
0001
0000
,
1000
0000
0000
1000
,
0000
0000
0010
0000
,
0110
0000
0010
0000
,
0010
0000
1000
0000
,
1000
0000
0100
0000
,
0100
0000
1000
1000
,
1000
0000
0001
0000
,
0001
0000
0100
0000
,
0100
0000
0010
0000
,
1000
0000
0100
0000
,
1000
0000
1000
0000
,
0001
0000
1000
0000
,
0010
0000
0100
0000
,
0001
0000
0010
0010
,
0010
0000
0001
0000
,
1000
0000
0010
0000
,
0100
0000
0001
0000
,
0001
0000
1000
0000
,
0100
0100
0200
0000
,
0000
0300
0010
0000
,
0010
0000
0002
0000
,
0000
0003
1000
0000
,
1000
0000
0010
0000
,
0000
0000
0100
0000
,
0000
0000
0001
0000
,
0000
0000
0001
0000
,
1000
1000
0010
0000
,
0010
0000
0100
0000
,
0100
0000
0001
1000
,
0001
0000
0100
0010
,
0100
0000
0010
0000
,
0010
0000
1000
0000
,
1000
0000
0001
1000
,
0001
0000
1001
0000
;
