#TITLE:fallen leaves;
#SUBTITLE:;
#ARTIST:猫叉Master;
#TITLETRANSLIT:;
#SUBTITLETRANSLIT:;
#ARTISTTRANSLIT:NekoMata Master;
#GENRE:;
#CREDIT:mf32892;
#BANNER:fallen leaves-bn.png;
#BACKGROUND:fallen leaves-bg.png;
#LYRICSPATH:;
#CDTITLE:;
#MUSIC:fallen leaves.mp3;
#OFFSET:-0.922944;
#SAMPLESTART:35.527889;
#SAMPLELENGTH:12.000000;
#SELECTABLE:YES;
#BPMS:0.000000=164.999878
;
#STOPS:191.500000=1.454080
;
#BGCHANGES:;
#KEYSOUNDS:;
#ATTACKS:;

//---------------dance-single - ----------------
#NOTES:
     dance-single:
     :
     Challenge:
     10:
     0.749231,0.709983,0.270341,0.261330,0.639807,523.000000,30.000000,29.000000,0.000000,0.000000,0.000000,0.749231,0.709983,0.270341,0.261330,0.639807,523.000000,30.000000,29.000000,0.000000,0.000000,0.000000:
// measure 0
0000
0000
0000
0000
,  // measure 1
0000
0000
0000
0000
,  // measure 2
0000
0000
0000
0000
,  // measure 3
0000
0000
0000
0000
,  // measure 4
0000
0000
0000
0000
,  // measure 5
0000
0000
0000
0000
,  // measure 6
0000
0000
0000
0000
,  // measure 7
0000
0000
0000
0000
0000
0000
0000
0000
0000
0000
0000
0000
0001
0100
0001
0100
,  // measure 8
0020
1000
1000
2030
,  // measure 9
3002
0010
0023
0230
,  // measure 10
2300
3002
0203
0010
,  // measure 11
0010
0010
0320
1030
,  // measure 12
0001
0000
0000
0001
0010
0000
0000
0010
0100
0000
0000
0100
1000
0000
0010
0000
,  // measure 13
0100
0000
0000
0100
0001
0000
0000
0001
0010
0000
0000
0010
0100
0000
1000
0000
,  // measure 14
0001
0100
0001
0100
0010
1000
0010
1000
0001
0010
0001
0010
0100
1000
0100
1000
,  // measure 15
0002
0000
0000
0000
0000
0000
0000
0000
0000
0000
0000
1003
0100
0000
1000
0000
,  // measure 16
0001
0000
0000
0100
0010
0000
0100
0000
0001
0000
0000
0010
0100
0000
0010
0000
,  // measure 17
0001
0000
0000
0100
0010
0000
0100
0000
0001
0010
0000
0010
0100
0000
1000
0000
,  // measure 18
0001
0000
0000
1000
0100
0000
1000
0000
0001
0000
0000
1000
0010
0000
1000
0000
,  // measure 19
0001
0000
0000
1000
0100
0000
1000
0000
0001
0000
0000
0000
1000
0000
0000
0000
,  // measure 20
0001
0000
0000
0001
0100
0000
1000
0000
0100
0000
0000
0100
0001
0000
0010
0000
,  // measure 21
0100
0000
0000
0100
0001
0000
0100
0000
1000
0000
0000
1000
0010
0000
0100
0001
,  // measure 22
1000
0000
0001
1000
0001
1000
0001
0000
0010
0000
1000
0000
0010
0000
0001
0000
,  // measure 23
0010
0000
0100
0010
0100
0010
0100
0000
2000
0000
0000
0000
0000
0000
3000
0000
,  // measure 24
0001
0000
0000
0001
0100
0000
0020
0000
0000
0000
1030
0000
0001
0000
1000
0100
,  // measure 25
1000
0000
0000
1000
0100
0000
0020
0000
0000
0000
0031
0000
1000
0010
0100
0001
,  // measure 26
1000
0000
0000
1000
0010
0000
0020
0000
0000
0000
0130
0000
0001
0000
1000
0000
,  // measure 27
0200
0000
0310
0001
1000
0001
0100
0010
,  // measure 28
1000
0000
0000
1000
0100
0000
0020
0000
0000
0000
0031
0000
1000
0000
0001
1000
,  // measure 29
0001
0000
0000
0001
0010
0000
0200
0000
0000
0000
1300
0000
0010
0100
0001
1000
,  // measure 30
0010
0000
0000
0010
1000
0000
2000
0000
0000
0000
0010
0000
0000
0000
3100
0010
,  // measure 31
0001
0000
0010
0000
0100
0000
2000
0000
0000
0000
3010
1000
0010
1000
0010
0100
,  // measure 32
0001
0000
0000
0001
1000
0000
0200
0000
0010
0000
0000
1300
0001
0000
1000
0020
,  // measure 33
1000
0000
0000
1030
0100
0000
0020
0000
0031
0000
1000
0000
0001
1000
0010
0100
,  // measure 34
0001
0000
0000
0001
0100
0000
0200
0000
0010
0000
0000
0301
1000
0000
0001
0000
,  // measure 35
0010
0000
0000
0001
1000
0000
0001
0000
0100
0000
0010
0000
1000
0000
0001
0000
,  // measure 36
0010
0000
0000
0010
0001
0000
2000
0000
0100
0000
3000
0001
0010
0000
0001
1000
,  // measure 37
0001
0000
0000
0001
0100
0000
0020
0000
1030
0000
0001
0000
1000
0000
0100
0000
,  // measure 38
0010
0000
0000
0010
0001
0000
0002
0000
0100
0000
0000
1003
0001
0000
1000
0000
,  // measure 39
0100
0000
0000
1000
0100
0000
0000
0010
0001
0000
1000
0000
0010
0000
0100
0000
,  // measure 40
0101
0000
0000
0010
0000
0000
1001
0000
0000
0000
0000
0000
1100
0000
0000
0010
,  // measure 41
0000
0000
0101
0000
0000
0000
1000
0100
0010
0000
0100
0000
1000
0000
0001
0000
,  // measure 42
0101
0000
0000
0010
0000
0000
1010
0000
0000
0000
0000
0000
1100
0000
0000
0010
,  // measure 43
0000
0000
0011
0000
0000
0000
0100
1000
0001
0000
0100
0000
0010
0000
1000
0000
,  // measure 44
1100
0000
0000
0001
0000
0000
0110
0000
0000
0000
0000
0000
0101
0000
0000
1000
,  // measure 45
0000
0000
0110
0000
0000
0000
0001
0010
0100
0000
0010
0000
0001
0000
0100
0000
,  // measure 46
1010
0000
0000
0101
0000
0000
1100
0000
0000
0000
0000
0000
0011
0000
0000
1100
,  // measure 47
0000
0000
0101
0000
0000
0000
1000
0100
0010
0000
0001
0000
1000
0000
0020
0000
,  // measure 48
0130
0000
0001
0100
0001
0000
1000
0100
0010
0000
0001
0100
0010
0000
1000
0100
,  // measure 49
0010
0000
0001
0000
1000
0000
0001
0000
0100
0000
0010
0000
1000
0000
0001
1000
,  // measure 50
0100
0000
1000
0000
0001
0000
0010
0001
0100
0000
0010
1000
0001
0000
1000
0001
,  // measure 51
0100
0000
0001
0000
0010
0000
0100
0000
1000
0000
0001
0100
0001
0100
0010
1000
,  // measure 52
0001
0000
0010
0001
1000
0000
0010
0100
0001
0000
1000
0000
0100
0000
0010
0100
,  // measure 53
1000
0000
0001
0000
0100
0000
0010
1000
0010
0000
0100
0001
0100
0000
0010
0000
,  // measure 54
1010
0000
0000
1001
0000
0000
1000
0000
1100
0000
0000
0000
0011
0000
0000
1001
,  // measure 55
0000
0000
0001
0000
0201
0000
0000
0000
0310
0000
1000
0001
1000
0001
0010
0100
,  // measure 56
1000
0000
0001
0010
0001
0000
1000
0010
0100
0000
0001
0010
0100
0000
1000
0010
,  // measure 57
0100
0000
0001
0000
1000
0000
0001
0000
0010
0000
0100
0000
1000
0000
0001
1000
,  // measure 58
0010
0000
1000
0000
0001
0000
0100
0001
0010
0000
0100
1000
0001
0000
1000
0001
,  // measure 59
0010
0000
0001
0000
0100
0000
0010
0000
1000
0000
0001
0010
0001
0010
0100
1000
,  // measure 60
0001
0000
0000
0001
1000
0000
0000
0100
0001
0000
0000
0100
0010
0000
0001
0000
,  // measure 61
0100
0000
0000
0100
1000
0000
0000
0100
0001
0000
0000
0010
0100
0000
1000
0000
,  // measure 62
1100
0000
0000
1001
0000
0000
1000
0000
1010
0000
0000
0000
0101
0000
0000
1001
,  // measure 63
0000
0000
0001
0000
0011
0000
0000
0000
0100
0000
1000
0001
1000
0001
0010
0100
,  // measure 64
1000
0000
0000
0010
1000
0000
0001
0000
0010
0000
0000
0100
1000
0000
0001
0000
,  // measure 65
0100
0000
0000
0010
1000
0000
0001
0000
0010
0000
0100
0010
0100
0000
1000
0000
,  // measure 66
0001
0000
0000
0100
0010
0000
1000
0000
0001
0000
0000
0010
0100
0000
1000
0000
,  // measure 67
0001
0000
0000
0100
0010
0000
1000
0000
0001
0000
1000
0001
1000
0100
0010
0001
,  // measure 68
1000
0000
0000
0100
0001
0000
0000
0001
0100
0000
0000
0100
0010
0000
0001
0000
,  // measure 69
0100
0000
0000
0100
1000
0000
0000
1000
0100
0000
0000
0100
0010
0000
1000
0000
,  // measure 70
0001
0000
0010
0001
0010
0001
0010
0000
0100
0000
1000
0000
0001
0000
0100
0000
,  // measure 71
0010
0000
1000
0001
1000
0100
2000
0000
0000
0000
3000
0000
0000
0000
0000
0000
;

//---------------dance-single - ----------------
#NOTES:
     dance-single:
     :
     Medium:
     6:
     0.505924,0.578867,0.702886,0.198250,0.072091,293.000000,78.000000,22.000000,0.000000,0.000000,0.000000,0.505924,0.578867,0.702886,0.198250,0.072091,293.000000,78.000000,22.000000,0.000000,0.000000,0.000000:
// measure 0
0000
0000
0000
0000
,  // measure 1
0000
0000
0000
0000
,  // measure 2
0000
0000
0000
0000
,  // measure 3
0000
0000
0000
0000
,  // measure 4
0000
0000
0000
0000
,  // measure 5
0000
0000
0000
0000
,  // measure 6
0000
0000
0000
0000
,  // measure 7
0000
0000
0000
0000
,  // measure 8
0001
0001
1000
1000
,  // measure 9
0100
0100
0010
0010
,  // measure 10
0001
0100
0010
1000
,  // measure 11
0100
0010
0001
1000
,  // measure 12
1010
1010
1010
1010
,  // measure 13
0101
0101
0101
0101
,  // measure 14
0011
1100
1010
0101
,  // measure 15
2002
0000
0000
3003
,  // measure 16
0001
0010
0001
0000
0001
0100
0001
0000
,  // measure 17
0100
0000
0010
0000
1000
0100
1000
0000
,  // measure 18
0001
0010
0100
0000
1000
0001
1000
0000
,  // measure 19
0010
0000
0100
0000
0001
0100
0001
0000
,  // measure 20
1001
1001
1001
1001
,  // measure 21
1100
1100
1100
1100
,  // measure 22
0011
0101
1100
1010
,  // measure 23
1001
0000
0100
0000
0020
0000
0000
0030
,  // measure 24
1000
0000
0001
0100
0001
0000
0010
0000
,  // measure 25
0100
0000
1000
0100
1000
0000
0001
0000
,  // measure 26
0200
0000
0010
0000
0301
0000
1000
0001
,  // measure 27
0020
0000
0100
0000
0031
0100
0010
0000
,  // measure 28
0100
0000
0001
0010
0001
0000
0010
0000
,  // measure 29
0100
0000
1000
0001
1000
0000
0010
0000
,  // measure 30
0200
0000
0001
0000
0310
0000
1000
0001
,  // measure 31
0010
0100
2000
0000
,  // measure 32
3001
0000
1000
0010
1000
0000
0100
0000
,  // measure 33
0010
0000
0001
0010
0001
0000
1000
0000
,  // measure 34
0020
0000
0100
0000
1030
0000
0001
1000
,  // measure 35
0200
0000
0010
0000
1300
0010
0100
0000
,  // measure 36
0010
0000
1000
0100
1000
0000
0100
0000
,  // measure 37
0010
0000
0001
1000
0001
0000
0100
0000
,  // measure 38
0020
0000
1000
0000
0130
0000
0001
1000
,  // measure 39
0100
0000
0010
0000
0001
1000
0010
0000
,  // measure 40
0100
0000
0000
0001
0000
0000
0101
0000
0000
0000
0000
0000
0010
0000
0000
1000
,  // measure 41
0000
1010
0000
0000
1100
0000
1001
0000
,  // measure 42
0001
0000
0000
0010
0000
0000
0011
0000
0000
0000
0000
0000
0100
0000
0000
1000
,  // measure 43
0000
1100
0000
0000
1001
0000
0101
0000
,  // measure 44
1000
0000
0000
0100
0000
0000
0110
0000
0000
0000
0000
0000
0001
0000
0000
0100
,  // measure 45
0000
0110
0000
0000
1010
0000
1100
0000
,  // measure 46
1000
0000
0000
0100
0000
0000
0011
0000
0000
0000
0000
0000
0001
0000
0000
0100
,  // measure 47
0000
1010
0000
1000
0002
0000
0010
0013
,  // measure 48
0100
1000
1100
1001
,  // measure 49
0102
0000
0010
0000
0103
0010
1000
0000
,  // measure 50
0001
0010
0011
1001
,  // measure 51
2100
0000
0010
0000
3100
1000
0001
0000
,  // measure 52
0120
1000
0001
0130
,  // measure 53
0210
0001
1000
0310
,  // measure 54
1001
0000
0000
0100
0000
0000
0010
0000
0110
0000
0000
0000
1001
0000
0000
0010
,  // measure 55
0000
0100
0110
0000
1001
0000
0100
0001
,  // measure 56
0020
0130
0011
0110
,  // measure 57
2100
0000
0001
0000
0010
0010
3010
0000
,  // measure 58
0200
0301
0011
1010
,  // measure 59
1200
0000
0010
0000
1000
1000
1300
0000
,  // measure 60
1100
1100
1100
1100
,  // measure 61
0011
0011
0011
0011
,  // measure 62
0101
0000
0000
0010
0000
0000
1000
0000
1010
0000
0000
0000
1100
0000
0000
0010
,  // measure 63
0000
0000
0001
0000
0011
0000
0000
0000
0002
0000
0000
0023
0000
0000
0230
0000
,  // measure 64
1300
0100
1000
0000
1000
0010
1000
0000
,  // measure 65
0010
0000
0100
0000
0001
0010
0001
0000
,  // measure 66
1000
0100
0010
0000
0001
1000
0001
0000
,  // measure 67
0100
0000
0000
0000
0010
0000
0000
0000
1000
0000
0000
0010
1000
0000
0000
0010
,  // measure 68
1000
1010
0101
1010
,  // measure 69
0001
1100
0011
1100
,  // measure 70
0001
0010
0100
0000
1000
0010
0100
0001
,  // measure 71
0010
0000
0000
0100
0000
0000
1001
0000
0000
0000
0000
0000
0000
0000
0000
0000
;

//---------------dance-single - ----------------
#NOTES:
     dance-single:
     :
     Easy:
     4:
     0.324409,0.514549,0.234295,0.459580,0.000000,175.000000,26.000000,51.000000,0.000000,0.000000,0.000000,0.324409,0.514549,0.234295,0.459580,0.000000,175.000000,26.000000,51.000000,0.000000,0.000000,0.000000:
// measure 0
0000
0000
0000
0000
,  // measure 1
0000
0000
0000
0000
,  // measure 2
0000
0000
0000
0000
,  // measure 3
0000
0000
0000
0000
,  // measure 4
0000
0000
0000
0000
,  // measure 5
0000
0000
0000
0000
,  // measure 6
0000
0000
0000
0000
,  // measure 7
0000
0000
0000
0000
,  // measure 8
2000
0000
0000
0000
,  // measure 9
3002
0000
0000
0000
,  // measure 10
0203
0000
0000
0000
,  // measure 11
0320
0000
0000
0000
,  // measure 12
1030
1000
1000
0000
,  // measure 13
0001
0001
0001
0000
,  // measure 14
0010
0100
1000
0001
,  // measure 15
2002
0000
0000
3003
,  // measure 16
1000
0000
1000
0000
,  // measure 17
1000
0000
1000
0001
,  // measure 18
1000
0000
1000
0000
,  // measure 19
1000
0000
0100
0010
,  // measure 20
0001
0001
0001
0000
,  // measure 21
1000
1000
1000
0000
,  // measure 22
0010
0010
0100
0010
,  // measure 23
1000
0000
0001
0000
2002
0000
0000
3003
,  // measure 24
0001
0002
0013
0000
,  // measure 25
1000
2000
3010
0000
,  // measure 26
0001
0002
0103
0000
,  // measure 27
2000
0000
3100
0010
,  // measure 28
0001
0002
0103
0000
,  // measure 29
1000
2000
3100
0000
,  // measure 30
0001
0002
0013
0000
,  // measure 31
1000
0001
1001
0000
,  // measure 32
1000
0100
1000
0000
,  // measure 33
0010
0100
0001
0000
,  // measure 34
0010
0001
0010
0000
,  // measure 35
0100
1000
0001
0000
,  // measure 36
0100
0010
1000
0000
,  // measure 37
0001
0010
0100
0000
,  // measure 38
1000
0001
0100
0000
,  // measure 39
0010
0100
1001
0000
,  // measure 40
0022
0000
0033
2200
,  // measure 41
0000
3300
1000
0001
,  // measure 42
2002
0000
3003
2200
,  // measure 43
0000
3300
1000
0010
,  // measure 44
0220
0000
0330
0202
,  // measure 45
0000
0303
0001
1000
,  // measure 46
2200
0000
3300
0022
,  // measure 47
0000
0000
0033
0000
2002
0000
0000
3003
,  // measure 48
0002
0000
0013
0010
,  // measure 49
0020
0000
0130
0110
,  // measure 50
2000
0000
3010
0010
,  // measure 51
0020
0000
0130
0110
,  // measure 52
0001
1000
0001
1000
,  // measure 53
0010
0100
0010
0100
,  // measure 54
0220
0330
0110
2002
,  // measure 55
3003
1001
1000
0001
,  // measure 56
2000
0000
3001
0001
,  // measure 57
0002
0000
1003
1010
,  // measure 58
0200
0000
0310
0010
,  // measure 59
0020
0000
1030
0101
,  // measure 60
1000
1000
1000
1000
,  // measure 61
0001
0001
0001
0001
,  // measure 62
0022
0033
0011
2200
,  // measure 63
3300
1100
2002
3003
,  // measure 64
0001
0000
0001
0000
,  // measure 65
0001
0000
0001
1000
,  // measure 66
0001
0000
0001
0000
,  // measure 67
0001
0000
0010
0100
,  // measure 68
1000
1000
1000
0000
,  // measure 69
0001
0001
0001
0000
,  // measure 70
0100
0100
0100
0100
,  // measure 71
0010
0000
0100
0100
0000
0000
0000
0000
;

//---------------dance-single - ----------------
#NOTES:
     dance-single:
     :
     Hard:
     8:
     0.597325,0.514549,0.045057,0.441557,0.346937,410.000000,5.000000,49.000000,0.000000,0.000000,0.000000,0.597325,0.514549,0.045057,0.441557,0.346937,410.000000,5.000000,49.000000,0.000000,0.000000,0.000000:
// measure 0
0000
0000
0000
0000
,  // measure 1
0000
0000
0000
0000
,  // measure 2
0000
0000
0000
0000
,  // measure 3
0000
0000
0000
0000
,  // measure 4
0000
0000
0000
0000
,  // measure 5
0000
0000
0000
0000
,  // measure 6
0000
0000
0000
0000
,  // measure 7
0000
0000
0000
0000
0000
0000
1000
0100
,  // measure 8
0020
0001
0001
0032
,  // measure 9
2003
0010
3020
0230
,  // measure 10
0302
2003
3200
0010
,  // measure 11
0010
0010
0320
0031
,  // measure 12
1000
0000
0000
1000
0100
0000
0000
0100
0010
0000
0000
0010
0001
0000
1000
0000
,  // measure 13
0001
0000
0000
0001
0100
0000
0000
0100
0010
0000
0000
0010
1000
0000
0001
0000
,  // measure 14
1000
0000
0000
1000
0010
0000
0000
0010
0100
0000
0000
0100
0001
0000
0010
0000
,  // measure 15
0200
0000
0000
0000
0000
0000
0000
0000
0000
0300
0000
1000
0100
0000
1000
0000
,  // measure 16
0001
0000
0000
0001
1000
0000
0100
0000
0010
0000
0000
0010
0001
0000
0100
0000
,  // measure 17
0010
0000
0000
0010
1000
0000
0100
0000
0010
0000
0100
0000
1000
0000
0010
0000
,  // measure 18
0100
0000
0000
0100
0001
0000
1000
0000
0100
0000
0000
0100
1000
0000
0001
0000
,  // measure 19
0100
0000
0000
0100
0010
0000
1000
0000
0100
0000
0000
0000
0010
0000
0000
0000
,  // measure 20
0001
0000
0000
0001
1000
0000
0000
1000
0100
0000
0000
0100
0010
0000
0001
0000
,  // measure 21
1000
0000
0000
1000
0010
0000
0000
0010
0100
0000
0000
0100
0001
0000
1000
0000
,  // measure 22
0100
0010
0100
0010
0001
1000
0001
1000
,  // measure 23
0010
0100
0001
0010
0200
0000
0000
0300
,  // measure 24
2000
0000
3100
0020
0000
0031
0000
0100
,  // measure 25
0020
0000
1030
0002
0000
0013
0100
1000
,  // measure 26
0020
0000
0130
0200
0000
0001
0000
0310
,  // measure 27
2000
0000
3001
1000
0100
0010
0001
1000
,  // measure 28
0020
0000
0130
0002
0000
1003
0000
0100
,  // measure 29
0200
0000
0310
0002
0000
1003
0001
0100
,  // measure 30
0020
0000
1030
2000
0000
0100
0000
3001
,  // measure 31
0010
0100
1000
0002
0000
0103
0010
0100
,  // measure 32
0002
0000
0013
0200
0000
1300
0000
0010
,  // measure 33
0200
0000
0301
2000
0000
3100
0010
0001
,  // measure 34
0200
0000
0310
0020
0000
1000
0000
0130
,  // measure 35
0002
0000
1003
0001
0010
0100
1000
0001
,  // measure 36
0200
0000
0310
2000
0000
3001
0000
0010
,  // measure 37
0020
0000
0130
1000
0001
0100
0010
1000
,  // measure 38
0200
0000
0310
0002
0000
0010
0000
1003
,  // measure 39
0100
0000
0000
0100
0010
0000
0000
0010
0001
0000
1000
0000
0000
0000
0010
0000
,  // measure 40
2000
0000
0000
0100
0000
0000
3001
0000
0000
0000
0000
0000
0002
0000
0000
0010
,  // measure 41
0000
1003
0000
0001
0010
0100
1000
0010
,  // measure 42
0200
0000
0000
0001
0000
0000
0310
0000
0000
0000
0000
0000
0020
0000
0000
1000
,  // measure 43
0000
0130
0000
0010
1000
0100
0010
0001
,  // measure 44
2000
0000
0000
0010
0000
0000
3100
0000
0000
0000
0000
0000
0002
0000
0000
0010
,  // measure 45
0000
0103
0000
0010
1000
0100
0010
0001
,  // measure 46
0200
0000
0000
1000
0000
0000
0301
0000
0000
0000
0000
0000
0020
0000
0000
0001
,  // measure 47
0000
1030
0000
0010
0200
0000
0010
0310
,  // measure 48
1000
0000
0000
1000
0001
0000
0100
0000
0010
0000
0000
0010
1000
0000
0000
1000
,  // measure 49
0001
0000
0000
0000
1000
0000
0000
0000
0100
0000
0000
0100
1000
0000
0001
0000
,  // measure 50
0100
0000
0000
0100
0010
0000
0100
0000
0001
0000
0000
0001
0010
0000
0000
0010
,  // measure 51
0100
0000
0000
0000
1000
0000
0000
0000
0001
0000
1000
0100
1000
0000
0100
0000
,  // measure 52
0010
0000
0000
0010
0001
0000
0000
0001
1000
0000
0000
1000
0010
0000
0000
0010
,  // measure 53
0100
0000
0000
0000
0001
0000
0000
0001
0100
0000
0001
0000
0010
0000
0100
0000
,  // measure 54
1000
0000
0000
0010
0000
0000
0100
0000
1010
0000
0000
0000
0001
0000
0000
0010
,  // measure 55
0000
0100
0011
0000
1000
0010
0100
0001
,  // measure 56
1000
0000
0000
1000
0010
0000
0100
0000
0001
0000
0000
0001
0010
0000
0000
0010
,  // measure 57
0100
0000
0000
0000
1000
0000
0000
0000
0001
0000
0000
0001
0100
0000
0001
0000
,  // measure 58
0010
0000
0000
0010
0001
0000
1000
0000
0010
0000
0000
0010
0100
0000
0000
0100
,  // measure 59
0001
0000
0000
0000
1000
0000
0000
0000
0010
0000
0100
0001
0100
0000
0010
0000
,  // measure 60
1000
0000
0000
1000
0100
0000
0000
0100
0010
0000
0000
0010
0001
0000
1000
0000
,  // measure 61
0010
0000
0000
0010
0100
0000
0000
0100
0001
0000
0000
0001
0010
0000
0100
0000
,  // measure 62
1000
0000
0000
0001
0000
0000
0010
0000
1100
0000
0000
0000
0001
0000
0000
1000
,  // measure 63
0000
0000
0010
0000
0101
0000
0000
0000
0002
0000
0000
0023
0000
0000
0230
0000
,  // measure 64
1300
0000
0000
1000
0001
0000
0100
0000
0010
0000
0000
0010
1000
0000
0100
0000
,  // measure 65
0010
0000
0000
0010
0001
0000
0100
0000
0010
0000
0100
0000
0001
0000
0010
0000
,  // measure 66
0100
0000
0000
0100
1000
0000
0001
0000
0100
0000
0000
0100
0001
0000
1000
0000
,  // measure 67
0100
0000
0000
0100
0010
0000
0001
0000
0100
0000
0000
0000
0010
0000
0000
0000
,  // measure 68
1000
0000
0000
1000
0100
0000
0000
0100
0010
0000
0000
0010
0001
0000
1000
0000
,  // measure 69
0010
0000
0000
0010
0100
0000
0000
0100
0001
0000
0000
0001
0010
0000
0100
0000
,  // measure 70
1000
0010
1000
0010
0100
0001
0010
0100
,  // measure 71
1000
0000
0000
0001
0000
0000
1001
0000
0000
0000
0000
0000
0000
0000
0000
0000
;
