#TITLE:Venus;
#SUBTITLE:;
#ARTIST:Lady Gaga;
#TITLETRANSLIT:;
#SUBTITLETRANSLIT:;
#ARTISTTRANSLIT:;
#GENRE:;
#CREDIT:;
#BANNER:banner.png;
#BACKGROUND:Venus-bg.png;
#LYRICSPATH:;
#CDTITLE:;
#MUSIC:Venus.ogg;
#OFFSET:-0.146425;
#SAMPLESTART:71.582436;
#SAMPLELENGTH:12.000000;
#SELECTABLE:YES;
#BPMS:0.000000=121.000000
,76.000000=60.500000
,92.000000=121.000000
;
#STOPS:30.000000=0.496000,
45.000000=0.496000,
60.000000=0.496000,
75.000000=0.496000
;
#BGCHANGES:;
#KEYSOUNDS:;
#ATTACKS:;

//---------------dance-single - ----------------
#NOTES:
     dance-single:
     :
     Beginner:
     1:
     0.106462,0.087565,0.009315,0.000000,0.000000,79.000000,1.000000,0.000000,0.000000,0.000000,0.000000,0.106462,0.087565,0.009315,0.000000,0.000000,79.000000,1.000000,0.000000,0.000000,0.000000,0.000000:
0000
0000
0000
0000
,
0000
0000
0000
0000
,
0000
0000
0000
0000
,
0000
0000
0000
0000
,
1000
0000
1000
0000
,
0001
0000
0001
0000
,
0100
0000
0100
0000
,
0010
0000
0000
0010
,
0000
0010
0000
1000
,
0000
1000
0000
0001
,
0000
0001
0000
0100
,
0000
0000
0100
0000
,
0100
0000
0001
0000
,
0001
0000
0010
0000
,
0010
0000
0001
0000
,
0000
0001
0000
0001
,
0000
1000
0000
1000
,
0000
0010
0000
0010
,
0000
0100
0000
0000
,
0100
0000
0001
0000
,
0010
0000
0100
0000
,
1000
0000
0010
0000
,
0100
0000
0001
0000
,
1000
0000
1000
0000
,
0001
0000
0001
0000
,
0100
0000
0100
0000
,
0010
0000
0010
0000
,
1000
0000
1000
0000
,
0100
0000
0100
0000
,
0010
0000
0010
0000
,
0001
0000
0001
0000
,
1000
0000
0000
0000
,
0001
0000
0000
0000
,
0100
0000
0000
0000
,
0010
0000
0010
0000
,
1000
0000
0000
0000
,
0100
0000
0000
0000
,
0010
0000
0000
0000
,
0001
0000
0001
0000
,
1000
0000
1000
0000
,
0010
0000
0010
0000
,
0100
0000
0100
0000
,
0001
0000
0001
0000
,
0010
0000
0010
0000
,
0100
0000
0100
0000
,
1000
0000
1000
0000
,
0001
0000
0001
0000
,
1001
0000
0000
0000
;

//---------------dance-single - ----------------
#NOTES:
     dance-single:
     :
     Easy:
     4:
     0.240870,0.265489,0.018631,0.167677,0.000000,161.000000,2.000000,18.000000,0.000000,0.000000,0.000000,0.240870,0.265489,0.018631,0.167677,0.000000,161.000000,2.000000,18.000000,0.000000,0.000000,0.000000:
0000
0000
0000
0000
,
0000
0000
0000
0000
,
0000
0000
0000
0000
,
0000
0000
0000
0000
,
1000
1000
0001
0001
,
0100
0100
0010
0010
,
1000
1000
0100
0100
,
0010
0010
0001
1000
,
1000
0001
0001
0010
,
0010
0100
0100
1000
,
1000
0010
0010
0100
,
0100
0001
0010
0010
,
0100
0100
1000
1000
,
0001
0001
0100
0100
,
0010
0010
1000
1000
,
0001
0010
0010
0100
,
0100
1000
1000
0001
,
0001
0100
0100
0010
,
0010
1000
1000
0001
,
1000
0000
0001
0000
,
0100
0000
0010
0000
,
1000
0001
1000
0001
,
0100
0010
0100
0010
,
1000
0010
1000
0000
,
0001
0100
0001
0000
,
1000
0100
1000
0000
,
0001
0010
0001
0000
,
1000
0001
1000
0000
,
0010
0100
0010
0000
,
0100
0001
0100
0000
,
0001
0010
0001
0000
,
1000
0100
0010
0001
,
0010
0100
1000
0001
,
0100
0010
1000
0010
,
0100
0001
1000
0001
,
1000
0100
0010
0001
,
0010
0100
1000
0001
,
1000
0010
0100
0001
,
0100
0010
0010
0010
,
0200
0302
0023
0230
,
2300
3002
0203
0320
,
1030
0001
1000
0001
,
0010
0010
0100
0100
,
2000
3020
0230
0302
,
0023
0230
2300
3002
,
1003
0100
0010
0001
,
0010
0010
0100
0110
,
2002
0000
3003
0000
;

//---------------dance-single - ----------------
#NOTES:
     dance-single:
     :
     Medium:
     5:
     0.271478,0.266887,0.065208,0.149047,0.000000,181.000000,7.000000,16.000000,0.000000,0.000000,0.000000,0.271478,0.266887,0.065208,0.149047,0.000000,181.000000,7.000000,16.000000,0.000000,0.000000,0.000000:
0000
0000
0000
0000
,
0000
0000
0000
0000
,
0000
0000
0000
0000
,
0000
0000
0000
0000
,
1000
0100
1000
0001
,
1000
0001
0100
0001
,
1000
0010
0100
0001
,
0010
0000
0100
0000
2002
3003
1000
0000
,
0001
0010
0100
1000
,
0010
0100
0001
0010
,
0100
1000
0100
0010
,
0001
0000
0202
0303
0100
0000
0010
0000
,
1000
0010
0100
0001
,
0010
0100
1000
0100
,
0010
0001
0100
0010
,
2020
3030
1000
0000
0010
0000
0100
0000
,
0001
0010
0100
1000
,
0100
0001
0100
1000
,
0001
0000
0100
0000
0010
0000
0220
0330
,
2001
0000
3200
0000
,
0320
0000
0032
0000
,
1003
1000
0010
0010
0100
0100
0001
0001
,
0010
0010
0100
0100
1000
1000
0001
0001
,
1000
1000
0001
0001
,
0100
0100
0010
0010
,
1000
0100
0010
0100
,
1000
0001
1000
0001
,
0100
0100
0010
0010
,
0100
0100
0001
0001
,
0010
0001
0100
0010
,
0100
0000
0001
0001
,
1001
0000
1000
0000
0100
0000
0010
0001
,
0000
0000
0100
0000
0010
0000
0100
0001
,
0000
1000
0100
0010
,
0100
0000
1000
0010
0000
0010
0100
0000
,
0001
0000
0010
0000
0001
0000
0100
0010
,
0000
0000
0100
0000
0001
0000
0010
0100
,
0000
1000
0001
0100
,
0010
0000
0100
0001
0000
0001
0010
0100
,
2000
0010
0100
0001
,
0100
0010
0100
3001
,
0000
0001
1000
0000
0001
0000
0100
0000
,
0010
0000
0100
0001
0000
0001
0010
0010
,
0002
0100
0010
1000
,
0010
0100
0010
1003
,
0000
1000
0010
0100
,
0001
0000
0010
0100
0000
0100
1000
0000
,
2002
0000
3000
0003
;

//---------------dance-single - ----------------
#NOTES:
     dance-single:
     :
     Hard:
     6:
     0.367293,0.355849,0.149047,0.149047,0.013973,244.000000,16.000000,16.000000,0.000000,0.000000,0.000000,0.367293,0.355849,0.149047,0.149047,0.013973,244.000000,16.000000,16.000000,0.000000,0.000000,0.000000:
1000
0000
0000
0000
,
0000
0000
0000
0000
,
0000
0000
0000
0000
,
0000
0000
0000
0000
,
1000
0001
0100
0010
0100
0000
0001
0010
,
0100
0000
1000
0100
0001
0100
1000
0000
,
0001
0000
1000
0010
0001
0010
1000
0000
,
0001
0000
0010
0000
2002
3003
1000
0010
,
0100
0001
0010
0000
0100
0010
0001
0000
,
0100
0010
0100
0001
0010
0000
0100
0000
,
1000
0010
0100
0001
,
0010
0000
0202
0303
1000
0000
0010
0000
,
0100
0000
0001
0010
0100
0000
1000
0100
,
0001
0100
1000
0000
0001
0000
1000
0010
,
0001
0010
1000
0000
0001
0000
0010
0000
,
2200
3300
1000
0010
0100
0010
1000
0000
,
0001
0100
0010
0000
0100
0001
0010
0100
,
1000
0001
0100
0010
,
1000
0000
0100
0000
0010
0000
0022
0033
,
1002
0000
0000
0000
0000
0000
0000
0100
0203
0000
0000
0000
0000
0000
0000
0000
,
0320
0000
2030
0001
,
3001
0010
0001
0010
0100
1000
0100
1000
,
0001
0000
1000
0000
0001
0000
1000
0000
0010
0000
0100
0000
0010
1000
0100
0010
,
0001
0000
0001
0000
1000
0010
0100
0001
,
1000
0000
1000
0000
0100
0010
0100
1000
,
0001
0001
1000
1000
,
0010
0000
0010
0000
0100
0001
0010
0100
,
1000
0000
1000
0000
0001
0100
0010
1000
,
0001
0000
0001
0000
1000
0100
0010
0100
,
1000
1000
0001
0001
,
0100
0000
0100
0000
0010
0000
0100
0010
,
1001
0000
0001
0010
0100
1000
0100
0010
,
0001
0000
1000
0010
0100
0001
0100
0010
,
1000
0100
0010
0000
0011
0000
1100
0000
,
0001
0100
0010
1000
0000
1000
0010
0100
,
0001
0000
1000
0100
0001
0100
1000
0001
,
1000
0000
0001
0100
1000
0100
0001
1000
,
0001
0010
0100
0000
1100
0000
0011
0000
,
0001
0100
0010
1000
0000
1000
0010
0100
,
1002
0010
1000
0100
,
1000
0010
1000
0103
,
0100
0001
0010
0000
1001
0000
0101
0000
,
1000
0010
0100
0001
0000
0001
0100
0010
,
2000
0100
0010
0001
,
0010
0100
0010
3001
,
0001
0010
0100
0000
1001
0000
0011
0000
,
0001
0001
1000
1000
0010
0010
0100
0100
,
2002
0000
0003
3000
;

//---------------dance-single - ----------------
#NOTES:
     dance-single:
     :
     Challenge:
     8:
     0.440486,0.467051,0.195624,0.158362,0.079181,293.000000,21.000000,17.000000,0.000000,0.000000,0.000000,0.440486,0.467051,0.195624,0.158362,0.079181,293.000000,21.000000,17.000000,0.000000,0.000000,0.000000:
0000
0000
0000
0000
,
0000
0000
0000
0000
,
0000
0000
0000
0000
,
0000
0000
0000
0000
,
1000
0001
0100
0010
0100
0000
0001
0010
,
0100
0000
1000
0100
0010
0001
0100
0000
,
0010
0000
0100
0001
0010
0100
1000
0000
,
0100
0010
0100
0010
2002
3003
1000
0010
,
0100
0001
0010
0000
0010
0001
0100
0000
,
0100
0010
0100
0001
0010
0000
0010
0000
,
0100
1000
0010
0100
0001
0000
1000
0000
,
0100
0000
0022
0033
0001
0000
0100
0010
,
0100
0000
0010
0100
0001
0000
0010
0100
,
1000
0100
0010
0000
0001
0000
1000
0010
,
0100
0010
0100
0000
0001
0000
0010
0000
,
2200
3300
1000
0010
0100
0010
1000
0000
,
0001
0100
0010
0000
0100
0001
0010
0100
,
1000
0000
0001
1000
0001
1000
0010
0100
,
0010
0100
0001
0010
0001
0010
0202
0303
,
2001
0000
0000
0000
0000
0000
0000
0010
3020
0000
0000
0000
0000
0000
0000
0000
,
0032
0000
0010
0010
,
0023
0001
1000
0001
2030
0010
0100
0010
,
3200
0000
0001
0000
1000
0000
0001
0000
2300
0000
0001
0000
0001
0001
3001
0001
,
1100
0000
0000
0001
0010
0000
0000
0001
0100
0000
0010
0000
0100
0000
0001
0000
,
1001
0000
0000
1000
0010
0000
0000
0100
0010
0000
1000
0000
0001
0000
0010
0100
,
1000
0000
0100
0000
0001
0000
0100
1000
0001
0000
0100
0000
1000
0000
0100
0001
,
1000
0010
0100
0000
0001
0010
0100
0010
,
0110
0000
0000
0010
0001
0000
0000
0100
0010
0000
0100
0000
0001
0000
0010
0000
,
1100
0000
0000
1000
0010
0000
0000
0100
0001
0000
0010
0000
0001
0000
1000
0010
,
0001
0000
0010
0000
1000
0000
0001
0010
1000
0000
0010
0000
0001
0000
1000
0001
,
0100
0000
0001
0000
1000
0000
0100
1000
,
1001
0000
1000
0001
0100
0010
1000
0010
,
0100
0000
0001
0010
0100
1000
0100
0001
,
0100
1000
0001
0000
0011
0000
1100
0000
,
0001
0100
0010
1000
0000
1000
0010
0100
,
0001
0000
1000
0010
0001
0010
1000
0001
,
1000
0000
0001
0010
1000
0010
0001
1000
,
0001
1000
0010
0000
0110
0000
0101
0000
,
0001
0100
0010
1000
0000
1000
0100
0010
,
1001
1000
0010
0100
0001
0010
0100
0010
,
0001
0100
1000
0100
0001
0010
1000
0010
,
0001
0100
0010
0000
0110
0000
1010
0000
,
0010
1000
0100
0010
0000
0010
0001
0100
,
0010
0001
0010
1000
0100
0001
0100
1000
,
0010
0100
0001
0010
0100
0001
0100
1000
,
0001
0100
0010
0000
1001
0000
0101
0000
,
1000
0010
0100
1000
0100
0001
0110
0100
,
2002
0000
3000
0003
;
