#VERSION:0.83;
#TITLE:Tori-no-kimochi;
#SUBTITLE:;
#ARTIST:猫叉Master+;
#TITLETRANSLIT:;
#SUBTITLETRANSLIT:;
#ARTISTTRANSLIT:Nekomata Master+;
#GENRE:;
#ORIGIN:;
#CREDIT:;
#BANNER:[Mother Nature] - Tori-no-kimochi.png;
#BACKGROUND:[Mother Nature] - Tori-no-kimochi-bg.png;
#PREVIEWVID:;
#JACKET:[Mother Nature] - Tori-no-kimochi-jacket.png;
#CDIMAGE:;
#DISCIMAGE:
#LYRICSPATH:;
#CDTITLE:cdtitle.png;
#MUSIC:[Mother Nature] - Tori-no-kimochi.ogg;
#OFFSET:-0.111000;
#SAMPLESTART:96.485023;
#SAMPLELENGTH:14.545456;
#SELECTABLE:YES;
#DISPLAYBPM:66.000000:132.000000;
#BPMS:0.000=66.000,
16.000=132.000,
176.000=66.000,
184.000=396.000,
187.000=132.000;
#STOPS:183.979=0.909;
#DELAYS:;
#WARPS:;
#TIMESIGNATURES:0.000=4=4;
#TICKCOUNTS:0.000=4;
#COMBOS:0.000=1;
#SPEEDS:0.000=1.000=0.000=0;
#SCROLLS:0.000=1.000;
#FAKES:;
#LABELS:0.000=Song Start;
#BGCHANGES:;
#KEYSOUNDS:;
#ATTACKS:
;

//---------------dance-single - ----------------
#NOTEDATA:;
#CHARTNAME:vincentw-BEG;
#STEPSTYPE:dance-single;
#DESCRIPTION:;
#CHARTSTYLE:;
#DIFFICULTY:Beginner;
#METER:1;
#RADARVALUES:0.081023,0.120336,0.000000,0.089552,0.000000,76.000000,76.000000,0.000000,12.000000,0.000000,0.000000,0.000000,0.000000,0.000000,0.081023,0.120336,0.000000,0.089552,0.000000,76.000000,76.000000,0.000000,12.000000,0.000000,0.000000,0.000000,0.000000,0.000000;
#CREDIT:vincentw;
#DISPLAYBPM:66.000000:132.000000;
#NOTES:
// measure 0
0000
0000
0000
0000
,  // measure 1
0000
0000
0000
0000
,  // measure 2
0000
0000
0000
0000
,  // measure 3
0000
0000
0000
0000
,  // measure 4
1000
0000
0000
0000
,  // measure 5
1000
0000
0000
0000
,  // measure 6
0001
0000
0000
0000
,  // measure 7
0001
0000
0000
0000
,  // measure 8
0100
0000
0000
0000
,  // measure 9
0100
0000
0000
0000
,  // measure 10
0010
0000
0000
0000
,  // measure 11
0010
0000
0000
0000
,  // measure 12
1000
0000
1000
0000
,  // measure 13
0001
0000
0001
0000
,  // measure 14
2000
0000
0000
0000
,  // measure 15
3000
0000
0000
0000
,  // measure 16
0010
0000
0010
0000
,  // measure 17
0100
0000
0100
0000
,  // measure 18
0020
0000
0000
0000
,  // measure 19
0030
0000
0000
0000
,  // measure 20
1000
0000
1000
0000
,  // measure 21
0100
0000
0100
0000
,  // measure 22
0020
0000
0030
0000
,  // measure 23
0001
0000
0001
0000
,  // measure 24
1000
0000
1000
0000
,  // measure 25
0010
0000
0010
0000
,  // measure 26
0200
0000
0300
0000
,  // measure 27
0001
0000
0001
0000
,  // measure 28
0010
0000
0000
0000
,  // measure 29
0010
0000
0010
0000
,  // measure 30
0100
0000
0100
0000
,  // measure 31
0000
0000
0000
0000
,  // measure 32
1000
0000
0000
0000
,  // measure 33
1000
0000
1000
0000
,  // measure 34
0001
0000
0001
0000
,  // measure 35
0000
0000
0000
0000
,  // measure 36
0020
0000
0000
0000
,  // measure 37
0030
0000
0000
0000
,  // measure 38
0002
0000
0000
0000
,  // measure 39
0003
0000
0000
0000
,  // measure 40
0200
0000
0000
0000
,  // measure 41
0300
0000
0000
0000
,  // measure 42
0020
0000
0030
0000
,  // measure 43
1000
0000
0100
0000
,  // measure 44
0010
0000
0100
0000
,  // measure 45
1000
1000
0000
0000
,  // measure 46
0000
0000
0000
0000
,  // measure 47
0001
0000
0001
0000
,  // measure 48
0100
0000
0100
0000
,  // measure 49
0020
0000
0000
0000
,  // measure 50
0030
0000
0000
0000
,  // measure 51
1000
0000
1000
0000
,  // measure 52
0100
0000
0100
0000
,  // measure 53
0020
0000
0000
0000
,  // measure 54
0030
0000
0000
0000
,  // measure 55
0001
0000
0001
0000
,  // measure 56
1000
0000
1000
0000
,  // measure 57
0020
0000
0000
0000
,  // measure 58
0030
0000
0000
0000
,  // measure 59
1000
0000
1000
0000
,  // measure 60
0001
0000
0001
0000
,  // measure 61
0020
0000
0000
0000
,  // measure 62
0000
0000
0030
0000
,  // measure 63
0010
0000
0001
0000
,  // measure 64
1000
0000
0010
0000
;

//---------------dance-single - ----------------
#NOTEDATA:;
#CHARTNAME:vincentw-BAS;
#STEPSTYPE:dance-single;
#DESCRIPTION:;
#CHARTSTYLE:;
#DIFFICULTY:Easy;
#METER:3;
#RADARVALUES:0.134328,0.168470,0.000000,0.365672,0.000000,126.000000,126.000000,0.000000,49.000000,0.000000,0.000000,0.000000,0.000000,0.000000,0.134328,0.168470,0.000000,0.365672,0.000000,126.000000,126.000000,0.000000,49.000000,0.000000,0.000000,0.000000,0.000000,0.000000;
#CREDIT:vincentw;
#DISPLAYBPM:66.000000:132.000000;
#NOTES:
0000
0000
0000
0000
,
0000
0000
0000
0000
,
0000
0000
0000
0000
,
0000
0000
0000
0000
,
1000
0000
0001
0000
,
0010
0000
0100
0000
,
1000
0000
0000
0000
,
0000
0000
0000
1000
,
0010
0000
0100
0000
,
0001
0000
0100
0000
,
0010
0000
0000
0000
,
1000
0000
0000
0010
,
0200
0000
0302
0000
,
2003
0000
3200
0000
,
0320
0000
0000
0000
,
0030
0000
0000
0010
,
0002
0000
2003
0000
,
3020
0000
2030
0000
,
3200
0000
0000
0000
,
1300
0001
1000
0001
,
0100
0000
0001
0000
,
1000
0000
0010
0000
,
1000
0000
0000
0100
,
0010
0001
1000
0100
,
0010
0000
0001
0000
,
0100
0000
0010
0000
,
1000
0000
0000
0001
,
0100
0000
0000
0000
0010
0000
0000
0000
1000
0000
0000
0000
0002
0000
0000
0003
,
0000
0000
0000
0000
0020
0000
0000
0030
0000
0000
0000
0000
0200
0000
0000
0300
,
0000
0000
0000
0000
2000
0000
0000
3000
0000
0000
0000
0000
0001
0000
0000
0000
,
0100
0000
0000
0000
0020
0000
0000
0030
0000
0000
0000
0000
0000
0000
0000
0000
,
0000
0000
0000
0000
0000
0000
0000
0000
0000
0000
0000
0000
2000
0000
0000
3000
,
0000
0000
0000
0000
0002
0000
0000
0003
0000
0000
0000
0000
0200
0000
0000
0300
,
0000
0000
0000
0000
0020
0000
0000
0030
0000
0000
0000
0000
0100
0000
0000
0000
,
0001
0000
0000
0000
0020
0000
0000
0030
0000
0000
0000
0000
0000
0000
0000
0000
,
0200
0000
0000
2300
,
3002
0000
0100
0000
,
1000
0000
0013
0100
,
2000
0000
0100
0000
,
0001
0000
3010
1000
,
0200
0000
0010
0000
,
0001
0000
1300
0001
,
0020
0000
0100
0000
,
1000
0000
0031
0000
,
1000
0100
0010
0001
,
2000
0002
3000
0003
,
0000
0000
0000
1000
,
0020
0000
2030
0000
,
3002
0000
0023
0000
,
0032
0000
0000
0000
,
1000
1000
2003
3010
,
0200
0000
0302
0000
,
2003
0000
3200
0000
,
2300
0000
0000
0100
,
0001
0010
3100
1000
,
0002
0000
0023
0000
,
2030
0000
3020
0000
,
0032
0000
0000
0000
,
0010
0100
0013
0001
,
2000
0000
3200
0000
,
0302
0000
0203
0000
,
2300
0000
0000
0000
,
0000
0000
3000
0000
,
1000
0000
0010
0000
,
0100
0000
0001
0000
;

//---------------dance-single - ----------------
#NOTEDATA:;
#CHARTNAME:vincentw-DIF;
#STEPSTYPE:dance-single;
#DESCRIPTION:;
#CHARTSTYLE:;
#DIFFICULTY:Medium;
#METER:5;
#RADARVALUES:0.240938,0.312873,0.037313,0.223881,0.089552,226.000000,221.000000,5.000000,30.000000,0.000000,0.000000,0.000000,0.000000,0.000000,0.240938,0.312873,0.037313,0.223881,0.089552,226.000000,221.000000,5.000000,30.000000,0.000000,0.000000,0.000000,0.000000,0.000000;
#CREDIT:vincentw;
#DISPLAYBPM:66.000000:132.000000;
#NOTES:
0000
0000
0000
0000
,
0000
0000
0000
0000
,
0000
0000
0000
0000
,
0000
0000
0000
0000
,
1000
0000
0001
0000
,
0010
0000
0001
0000
,
1000
0000
0100
0000
,
0010
0000
0000
0000
0100
0000
1000
0100
,
0010
0000
0100
0000
,
0001
0000
0100
0000
,
1000
0000
0001
0000
,
0100
0010
1000
0010
,
0200
0001
0302
0010
,
0023
0100
0230
1000
,
2300
0000
0010
0000
0002
0003
0000
0000
,
3010
0000
0010
0000
2000
3000
0001
0100
,
0002
0010
0023
1000
,
2030
0100
3200
0001
,
0302
0100
1000
0010
,
1003
0010
0100
0001
,
0101
0000
0100
0010
,
1000
0000
0100
0010
,
0002
0000
0000
1003
,
0010
0000
0100
0000
0010
0000
1000
0100
,
1000
0000
0001
0100
,
1000
0000
1000
0100
,
0020
0000
0000
1030
,
0100
0000
0000
0000
0000
0000
0000
0000
0000
0000
0000
0000
0001
0000
0000
0000
0000
0000
0000
0000
0000
0000
0000
0000
0200
0000
0000
0000
0000
0000
0000
0000
0000
0000
0000
0000
0000
0000
0000
0000
0000
0000
0000
0000
0000
0300
1000
0000
,
0000
0000
0000
0000
0000
0000
0001
0000
0000
0000
0000
0001
0000
0000
0000
0000
0000
0000
0010
0000
0000
0000
0000
0010
,
0000
0000
0000
0000
0000
0000
0100
0000
0000
0000
0000
0100
0000
0000
0000
1000
0000
0000
0100
0000
0000
0000
0000
0000
,
0001
0000
0000
0000
0000
0000
0100
0000
0000
0000
0000
1000
0000
0000
0000
0000
0000
0000
0001
0000
0000
0000
0000
0000
,
0100
0000
0000
0000
0000
0000
0000
0000
0000
0000
0000
0000
0010
0000
0000
0000
0000
0000
0000
0000
0000
0000
0000
0000
0010
0000
0000
0000
0000
0000
0000
0000
0000
0000
0000
0000
0200
0000
0000
0000
0000
0000
0000
0000
0000
0300
0010
0000
,
0000
0000
0000
0000
0000
0000
1000
0000
0000
0000
0000
1000
0000
0000
0000
0000
0000
0000
0100
0000
0000
0000
0000
0100
,
0000
0000
0000
0000
0000
0000
0010
0000
0000
0000
0000
0010
0000
0000
0000
0001
0000
0000
0010
0000
0000
0000
0000
0000
,
1000
0000
0000
0000
0000
0000
0010
0000
0000
0000
0000
0001
0000
0000
0000
0000
0000
0000
0000
0000
0000
0000
0000
0000
,
1000
0100
1000
0001
,
0200
0000
0000
0000
0000
0000
0010
0000
0000
0000
0000
0010
0000
0000
0000
0000
0000
0000
1000
0000
0000
0000
0000
1000
,
0000
0000
0000
0000
0000
0000
0001
0000
0000
0000
0000
0001
0300
0000
0000
0000
0000
0000
1000
0000
0000
0001
0000
0000
,
0020
0000
0000
0000
0000
0000
0100
0000
0000
0000
0000
0100
0000
0000
0000
0000
0000
0000
0001
0000
0000
0000
0000
0000
,
2000
0000
0000
0000
0000
0000
3000
0000
0000
0000
0000
0000
0032
0000
0000
0000
0000
0000
1003
0000
0000
0000
0000
2000
,
0000
0000
0000
0000
0000
0000
0010
0000
0000
0000
0000
0010
0000
0000
0000
0000
0000
0000
0100
0000
0000
0000
0000
0100
,
0000
0000
0000
0000
0000
0000
0001
0000
0000
0000
0000
0001
0000
3000
0000
0010
0000
0000
0100
0000
0000
0010
0000
0000
,
0002
0000
0000
0000
0000
0000
0100
0000
0000
0000
0000
1000
0000
0000
0000
0000
0000
0000
1000
0000
0000
0000
0000
0000
,
0020
0030
0203
0000
,
0301
0010
0100
1000
,
0010
0000
0100
0001
0000
0000
2000
0000
0000
3002
0000
0000
,
2003
0000
0000
3001
,
2001
0000
0000
0000
0000
0000
0000
0000
0000
0000
0000
0000
0000
0000
0000
3010
0000
0000
0000
0000
1000
0000
0000
0000
,
0001
0000
0010
0000
0000
0001
0010
0000
,
0100
0000
0000
0000
0000
0000
1000
0000
0000
0000
0000
0000
0000
0000
0000
0100
0000
0000
0000
0000
1000
0000
0000
0000
,
0001
0000
0100
0000
0000
0001
0100
0000
,
0001
0000
0000
0000
0000
0000
0010
0000
0000
0000
0000
0000
0000
0000
0000
1000
0000
0000
0000
0000
0010
0000
0000
0000
,
0001
0000
0100
0000
0000
0010
0100
0000
,
0010
0000
0000
0000
0000
0000
1000
0000
0000
0000
0000
0000
0000
0000
0000
0100
0000
0000
0000
0000
0001
0000
0000
0000
,
0100
0000
1000
0000
0000
0001
0010
0001
,
0100
0000
0010
0000
1000
0010
1000
0000
,
0010
0000
0100
0000
0001
0010
0001
0000
,
1000
0000
0001
0000
0100
0001
0100
0000
,
0001
0010
0100
1000
0001
0000
0010
0000
,
0011
0001
0100
0010
,
0110
0100
0010
1000
,
2020
0000
0000
0000
,
0030
0000
0000
0000
3010
1000
0001
0000
,
0100
0000
0001
0000
,
1000
0000
0100
0000
;

//---------------dance-single - ----------------
#NOTEDATA:;
#CHARTNAME:vincentw-EXP;
#STEPSTYPE:dance-single;
#DESCRIPTION:;
#CHARTSTYLE:;
#DIFFICULTY:Hard;
#METER:9;
#RADARVALUES:0.422175,0.529478,0.037313,0.313433,0.373134,396.000000,391.000000,5.000000,42.000000,0.000000,0.000000,0.000000,0.000000,0.000000,0.422175,0.529478,0.037313,0.313433,0.373134,396.000000,391.000000,5.000000,42.000000,0.000000,0.000000,0.000000,0.000000,0.000000;
#CREDIT:vincentw;
#DISPLAYBPM:66.000000:132.000000;
#NOTES:
0000
0000
0000
0000
,
0000
0000
0000
0000
,
0000
0000
0000
0000
,
0000
0000
0000
0000
0000
0000
0000
0001
,
1001
0000
0000
0000
0000
0000
1000
0000
0000
0100
0000
0000
1000
0000
0000
0000
0000
0000
0100
0000
0010
0000
0000
0000
,
0001
0000
0000
0100
0000
0000
0010
0000
0000
1000
0000
0000
0100
0000
0000
0000
0000
0000
1000
0000
0010
0000
0000
0000
,
0100
0001
0100
0000
0010
1000
0010
0000
,
1000
0000
0000
0100
0000
0000
1000
0000
0000
0001
0000
0000
0010
0000
0000
0000
0000
0000
0001
0000
1000
0001
0000
0000
,
1000
0000
0000
0000
0000
0000
0001
0000
0000
0010
0000
0000
0001
0000
0000
0000
0000
0000
0010
0000
0100
0000
0000
0000
,
1000
0000
0000
0010
0000
0000
0100
0000
0000
0001
0000
0000
0010
0000
0000
0000
0000
0000
0001
0000
0100
0000
0000
0000
,
0010
1000
0010
0000
0100
0001
0100
0000
,
0001
0010
0001
1000
0100
1000
0010
0100
,
0002
0000
0000
1000
0000
0000
2003
0000
0000
3010
1000
0000
,
0200
0000
0000
0010
0000
0000
0320
0000
0000
1030
0010
0000
,
0001
0000
0000
0000
0000
0000
0001
0000
0000
1000
0000
0000
0100
0000
0000
1000
0000
0000
0020
0000
0030
0000
0000
0000
,
1000
0000
0000
0000
0000
0000
1000
0000
0000
0001
0000
0000
0100
0000
0000
0001
0000
0000
1000
0000
0010
1000
0000
0000
,
0020
0000
0000
1000
0000
0000
0230
0000
0000
0301
0100
0000
,
0002
0000
0000
0010
0000
0000
2003
0000
0000
3100
1000
0000
,
0001
0000
0000
0010
0000
0000
0100
0000
0000
1000
0000
0000
0010
0000
0000
0100
0000
0000
0001
0000
1000
0000
0000
0000
,
0020
2030
3200
0302
,
0013
0000
0000
1000
0000
0000
0010
0000
0000
0000
0000
0010
0000
0000
0000
0100
0000
0000
0001
0000
0000
0000
0000
0001
,
0000
0000
0000
1000
0000
0000
0100
0000
0000
0000
0000
0100
0000
0000
0000
0010
0000
0000
0001
0000
0000
0000
0000
0100
,
0000
0000
0000
0010
0000
0000
1000
0000
0000
0000
0000
0100
0000
0000
0000
1000
0000
0000
0002
0000
0010
0000
0000
0000
,
0023
0000
0000
0000
0000
0000
2030
0000
0000
0000
0000
0000
3001
0000
0000
0100
0000
0000
1000
0000
0100
1000
0000
0000
,
0010
0000
0000
0000
0000
0000
0100
0000
0000
0000
0000
0100
0000
0000
0000
0001
0000
0000
0010
0000
0000
0000
0000
0010
,
0000
0000
0000
0100
0000
0000
0001
0000
0000
0000
0000
0001
0000
0000
0000
1000
0000
0000
0010
0000
0000
0000
0000
0001
,
0000
0000
0000
1000
0000
0000
0100
0000
0000
0000
0000
0001
0000
0000
0000
0100
0000
0000
2000
0000
0000
0000
0000
0000
,
3002
0000
0000
0000
0000
0000
0023
0000
0000
0000
0000
1000
0030
0000
0010
0000
0000
0001
0000
0000
0010
0000
0000
1000
,
0000
0000
0000
0000
0000
0000
0001
0000
0100
0000
0000
1000
0000
0000
0000
0000
0000
0000
0001
0000
0100
0000
0000
1000
,
0000
0000
0000
0000
0000
0000
0001
0000
0010
0000
0000
1000
0000
0000
0000
0001
0000
0000
0010
0000
0100
0010
0000
0000
,
0001
0000
0000
0000
0000
0000
1000
0000
0010
0000
0000
0100
0000
0000
0000
0001
0000
0000
0010
0000
0100
0000
0000
1000
,
0200
0000
0000
0000
0000
0000
2300
0000
0000
0000
0000
0000
3020
0000
0000
0000
0000
0000
0031
0000
0010
0000
0000
1000
,
0000
0000
0000
0000
0000
0000
0001
0000
0100
0000
0000
0010
0000
0000
0000
0000
0000
0000
1000
0000
0100
0000
0000
0001
,
0000
0000
0000
0000
0000
0000
1000
0000
0010
0000
0000
0100
0000
0000
0000
1000
0000
0000
1000
0000
0001
0100
0000
0000
,
0010
0000
0000
0000
0000
0000
0001
0000
1000
0000
0000
0100
0000
0000
0000
0010
0000
0000
1000
0000
0000
0000
0000
1000
,
0000
0001
0010
0100
0001
0100
1000
0010
,
0200
0000
0000
0000
0000
0000
1000
0000
0000
0000
0000
1000
0000
0000
0000
0000
0000
0000
0010
0000
0000
0000
0000
0010
,
0000
0000
0000
0000
0000
0000
0001
0000
0000
0000
0000
0001
0300
0000
0000
0100
0000
0000
0001
0000
0010
0001
0000
0000
,
2000
0000
0000
0000
0000
0000
0001
0000
0000
0000
0000
0001
0000
0000
0000
0000
0000
0000
3100
0000
0000
1000
0000
0010
,
2000
0000
0000
0000
0000
0000
3010
0000
0000
0100
0000
0001
0200
0000
0000
0000
0000
0000
0310
0000
1000
0000
0000
0020
,
0000
0000
0000
0000
0000
0000
0001
0000
0000
0000
0000
0001
0000
0000
0000
0000
0000
0000
0100
0000
0000
0000
0000
0100
,
0000
0000
0000
0000
0000
0000
1000
0000
0000
0000
0000
1000
0030
0000
0000
0100
0000
0000
1000
0000
0010
1000
0000
0000
,
0002
0000
0000
0000
0000
0000
1000
0000
0000
0000
0000
1000
0000
0000
0000
0000
0000
0000
0013
0000
0000
0001
0000
0100
,
0002
0000
0000
0000
0000
0000
1003
0000
0000
0010
0000
1000
0020
0000
0100
0000
0000
0000
0200
0000
0000
0300
0000
0000
,
1030
0100
0001
0010
,
1000
0000
0000
0000
0000
0000
0000
0000
0001
0000
0100
0000
0010
0000
0000
0000
0000
0000
0000
0000
0000
2000
0000
0000
3020
0000
0000
0000
0000
0000
0000
0000
0000
0230
0000
0000
0302
0000
0000
0000
0000
0000
0000
0000
0000
0000
0000
0000
,
1003
0100
0010
0001
,
1001
0000
0000
0000
0000
0000
1000
0000
0000
0010
0000
1000
0010
0000
0000
0100
0000
0000
0010
0000
0100
0000
0000
0000
,
0001
0000
0000
0000
0000
0000
0010
0000
0000
0001
0000
0010
0001
0000
0000
1000
0000
0000
0020
0000
0000
0000
0000
0000
,
1030
0000
0000
0000
0000
0000
0100
0000
0000
1000
0000
0100
1000
0000
0000
0001
0000
0000
1000
0000
0001
0000
0000
0000
,
0010
0000
0000
0000
0000
0000
1000
0000
0000
0010
0000
0100
0010
0000
0000
0001
0000
0000
0100
0000
0010
1000
0000
0010
,
0100
0000
0000
0000
0000
0000
0001
0000
0000
0100
0000
0001
0100
0000
0000
0010
0000
0000
0100
0000
0010
0000
0000
0000
,
1000
0000
0000
0000
0000
0000
0100
0000
0000
1000
0000
0100
1000
0000
0000
0001
0000
0000
0200
0000
0000
0000
0000
0000
,
0301
0000
0000
0000
0000
0000
0010
0000
0000
0001
0000
0010
0001
0000
0000
1000
0000
0000
0001
0000
1000
0000
0000
0000
,
0100
0001
0100
0010
0100
0001
1000
0010
,
0011
0000
0000
0000
0000
0000
0001
0000
0000
0010
0000
0100
0000
0000
1000
0100
0000
0000
0010
0000
0001
0000
0000
0000
,
0010
0000
0000
0000
0000
0000
1000
0000
0000
0010
0000
0001
0000
0000
0100
0010
0000
0000
2000
0000
0000
0000
0000
0000
,
3200
0000
0000
0000
0000
0000
0301
0000
0000
0100
0000
1000
0000
0000
0010
0100
0000
0000
0001
0000
0010
0000
0000
0000
,
0100
0000
0000
0100
0000
0000
1000
0000
0000
1000
0000
0000
0001
0000
0000
0001
0000
0000
0100
0000
0001
0100
0000
0001
,
0100
0000
0000
0000
0000
0000
0001
0000
0000
0100
0000
0010
1000
0000
0010
0100
0000
0000
0001
0000
1000
0000
0000
0000
,
1001
0000
0000
0000
0000
0000
0000
0000
0000
0000
0000
0000
0000
0000
0000
0000
0000
0000
0000
0000
0000
0000
0000
0000
0000
0000
0000
0000
0000
0000
0000
0000
0000
0000
0000
0000
0000
0000
0000
0000
0000
0000
0000
0000
0000
0000
0000
0000
1000
0000
0000
0000
0000
0000
0000
0000
0000
0000
0000
0000
0000
0000
0000
0000
0000
0000
0000
0000
0000
0000
0000
0000
0010
0000
0000
0000
0000
0000
0000
0000
0000
0000
0000
0000
0000
0000
0000
0000
1000
0000
0000
0000
0000
0000
0000
0000
0100
0000
0000
0000
0000
0000
0000
0000
0000
0000
0000
0000
0000
0000
0000
0000
1000
0000
0000
0000
0000
0000
0000
0000
0010
0000
0000
0000
0000
0000
0000
0000
0000
0000
0000
0000
0000
0000
0000
0000
0000
0000
0000
0000
0000
0000
0000
0000
0200
0000
0000
0000
0000
0000
0000
0000
0000
0000
0000
0000
0000
0000
0000
0000
0000
0000
0000
0000
0000
0000
0000
0000
0000
0000
0000
0000
0000
0000
0000
0000
0000
0000
0000
0000
0000
0000
0000
0000
0000
0000
0000
0000
0000
0000
0000
0300
,
0220
0000
0000
0000
,
0300
0000
0000
0000
1030
0100
0001
0000
,
0100
0000
0010
0000
,
0001
0000
0100
0000
;
