#TITLE:Timberwolves;
#SUBTITLE:;
#ARTIST:S-C-U;
#TITLETRANSLIT:;
#SUBTITLETRANSLIT:;
#ARTISTTRANSLIT:;
#GENRE:;
#CREDIT:;
#BANNER:Timberwolves.png;
#BACKGROUND:;
#LYRICSPATH:;
#CDTITLE:;
#MUSIC:Timberwolves.ogg;
#OFFSET:-1.869000;
#SAMPLESTART:62.338001;
#SAMPLELENGTH:15.000000;
#SELECTABLE:YES;
#DISPLAYBPM:95.000000:190.000000;
#BPMS:0.000000=95.000000
,16.000000=190.000000
,112.000000=95.000000
,128.000000=190.000000
,279.500000=47.500000
,279.875000=190.000000
;
#STOPS:
;
#BGCHANGES:;
#KEYSOUNDS:;
#ATTACKS:;

//---------------dance-single - ----------------
#NOTES:
     dance-single:
     :
     Hard:
     10:
     0.766738,1.032540,0.445684,0.303444,0.578440,566.000000,519.000000,47.000000,32.000000,0.000000,0.000000,0.766738,1.032540,0.445684,0.303444,0.578440,566.000000,519.000000,47.000000,32.000000,0.000000,0.000000:
// measure 0
0000
0000
0000
0000
,  // measure 1
0000
0000
0000
0000
,  // measure 2
1001
0000
1000
0100
1000
0000
0000
0110
0000
0110
0000
0001
0100
0001
0000
1001
,  // measure 3
0000
0000
0001
0000
0100
0000
0010
0000
0100
0000
0110
0000
0000
0000
1001
0000
0000
0000
0001
0100
0001
0000
0100
0000
0010
0000
1000
0000
0100
0000
0010
0000
,  // measure 4
0001
0010
0100
1000
0100
0010
0001
0011
,  // measure 5
0000
0000
1100
0000
0000
0000
1000
0000
0100
0010
0001
0010
0001
0000
0011
0000
,  // measure 6
0000
0000
0001
0000
1000
0000
0010
0100
0001
0000
0101
0000
0000
0000
1010
0000
,  // measure 7
0000
0000
1000
0000
0100
0000
0001
0000
1000
0000
0010
0001
0010
1000
0001
0000
,  // measure 8
1001
0000
0001
0100
1000
0100
0010
1010
,  // measure 9
0000
0000
0101
0000
0000
0000
1000
0000
0100
0010
0001
1000
0010
0000
1010
0000
,  // measure 10
0000
0001
0010
0100
1000
1100
0000
0022
,  // measure 11
0000
0000
0000
0000
0000
0000
0000
0000
0000
0000
0000
0000
0030
0000
0013
0001
,  // measure 12
1000
0100
0001
0100
0000
0001
0100
1000
,  // measure 13
0000
0000
0100
0000
0000
0000
0001
0010
0001
0000
0010
0000
0100
0000
1000
0000
,  // measure 14
0000
0001
0100
0010
0000
1000
0010
0100
,  // measure 15
0010
0100
0001
0000
0100
0000
1000
0000
0100
0000
0010
0000
1000
0000
0100
0010
,  // measure 16
0001
0100
1000
0100
0000
0001
0010
0200
,  // measure 17
0000
0000
0000
0000
0000
1300
0100
0001
,  // measure 18
0000
0001
0010
1000
0000
0110
0000
2002
,  // measure 19
0000
0000
0000
0000
0000
0000
0000
0000
0000
0000
0000
0000
0003
0000
3001
0100
,  // measure 20
0010
1000
0100
0001
0000
0100
1000
0001
,  // measure 21
0000
0000
0010
0000
0000
0000
0100
1000
0100
0000
0010
0000
0001
0000
0100
0000
,  // measure 22
0000
0010
1000
0010
0000
0100
0001
0010
,  // measure 23
0100
0000
1000
0000
0001
0010
0001
0000
0100
0000
0010
0000
1000
0000
0100
1000
,  // measure 24
0001
0010
0100
1000
0000
0001
0100
2000
,  // measure 25
0000
0000
0000
0000
0000
3100
0001
0100
,  // measure 26
0000
0010
1000
0010
0000
0010
1000
2002
,  // measure 27
0000
0000
0000
0000
0000
0000
0000
3003
,  // measure 28
2000
0000
0000
0000
0000
0000
0000
0000
3020
0000
0000
0230
0000
0000
0302
0000
,  // measure 29
0023
0000
0000
0000
0100
0000
0230
0000
0000
0000
1000
0000
2000
0000
0000
0000
0000
0000
0000
0000
0000
0000
0000
0000
0000
0000
0000
0000
0300
0000
3100
0010
,  // measure 30
0002
0000
0000
0000
0203
0320
2030
3200
,  // measure 31
0310
0001
0010
0001
1000
0100
1000
0100
0010
0001
0010
0200
0000
0000
0000
0000
,  // measure 32
1300
0100
0010
0001
0000
0001
0100
0010
,  // measure 33
1000
0000
0000
0100
0010
0001
1000
0000
,  // measure 34
0000
1000
0001
0010
0100
1000
0001
0000
,  // measure 35
1000
0100
0010
0100
1000
0000
0001
0000
,  // measure 36
0101
0100
0010
1000
0000
0000
0100
1000
,  // measure 37
1100
0100
0010
0001
0000
0100
0010
0100
,  // measure 38
2002
0000
0000
0000
,  // measure 39
3003
0000
0000
0000
0000
0000
0000
0000
0000
0000
0000
0000
0000
0000
0001
0010
,  // measure 40
0100
0000
1000
0000
0010
0000
0100
0000
0010
0000
1000
0100
0010
0000
0001
0000
,  // measure 41
0010
0000
0100
0000
0010
0000
0100
0000
1000
0000
0001
0100
0010
0000
1000
0000
,  // measure 42
0010
0100
0001
0010
0100
0010
0001
0010
0100
1000
0100
0010
0100
1000
0100
0010
,  // measure 43
0001
0000
0001
1000
0000
0001
1000
0000
0010
0000
0010
0000
0100
0000
0100
0000
,  // measure 44
0010
1000
0100
1000
0010
0000
0100
0000
0001
0010
0100
1000
0010
0100
0001
0000
,  // measure 45
0010
0000
0100
0000
1000
0000
0001
1000
0001
0000
1000
0001
1000
0000
0010
0000
,  // measure 46
0100
0000
0001
0000
0010
0000
1000
0000
0010
0000
0001
0010
0100
0000
1000
0000
,  // measure 47
0001
0010
0100
1000
0001
0100
0010
1000
0100
0010
0001
0010
0100
1000
0100
0010
,  // measure 48
0100
1000
0001
0000
0100
0000
1000
0000
0100
0000
0001
0100
0010
0100
0001
0000
,  // measure 49
0010
0000
0100
0000
1000
0000
0001
0000
0100
0000
0010
1000
0100
0010
0001
0000
,  // measure 50
0100
0000
0010
1000
0000
0001
0100
0000
0010
0000
1000
0100
0000
0010
0001
0000
,  // measure 51
0100
0000
1000
0000
0001
0100
0001
0100
0010
1000
0010
1000
0100
0010
0001
0100
,  // measure 52
0010
0000
1000
0001
0100
0000
0110
0000
0000
0000
0001
0010
0100
1000
0100
0010
,  // measure 53
0001
0000
0100
0000
1000
0000
0100
0010
0100
0000
0010
0100
0010
1000
0001
0010
,  // measure 54
0100
1000
0010
0100
0001
0010
0100
1000
,  // measure 55
0001
0100
0001
0100
0010
1000
0010
1000
0100
0010
0001
0100
0010
1000
0100
0010
,  // measure 56
0002
0100
0100
0100
,  // measure 57
2003
0100
0100
3100
,  // measure 58
1100
0000
0000
0101
0000
0000
0011
0000
0000
1010
0000
0000
2002
0000
0000
0000
,  // measure 59
0000
0000
0000
0000
0000
0000
0000
3003
,  // measure 60
1001
0000
0001
0010
0010
1000
0100
1100
,  // measure 61
0000
0000
1100
0000
0000
0000
0010
0000
1000
0100
0010
0001
0100
0000
0101
0000
,  // measure 62
0000
0000
0100
0000
0001
0010
0100
1000
0001
0000
1001
0000
0000
0000
1001
0000
,  // measure 63
0000
0000
0001
0000
0100
0001
0100
0000
0010
1000
0100
1000
0010
0000
0100
0000
,  // measure 64
0101
0000
0001
0100
0100
1000
0001
0011
,  // measure 65
0000
0000
0011
0000
0000
0000
0010
0000
0001
0100
0010
1000
0100
0000
0110
0000
,  // measure 66
0000
0000
0001
0000
1000
0010
0100
0001
0010
0000
0110
0000
0000
0000
0110
0000
,  // measure 67
0000
0000
0100
1000
0100
0000
0010
0000
0001
0100
0010
1000
0100
0010
0001
0100
,  // measure 68
0110
0000
1000
2100
0000
3001
0201
0000
,  // measure 69
0301
0000
0000
0000
0012
0000
0000
0000
0000
0000
0000
0000
1003
0000
0000
0000
1100
0000
0000
0000
0100
0000
1000
0000
0001
0000
0010
0000
0100
0000
0000
2002
,  // measure 70
0000
3003
0000
0000
;

//---------------dance-single - ----------------
#NOTES:
     dance-single:
     :
     Medium:
     7:
     0.571667,0.666155,0.341375,0.151722,0.071120,422.000000,386.000000,36.000000,16.000000,0.000000,0.000000,0.571667,0.666155,0.341375,0.151722,0.071120,422.000000,386.000000,36.000000,16.000000,0.000000,0.000000:
// measure 0
0000
0000
0000
0000
,  // measure 1
0000
0000
0000
0000
,  // measure 2
1001
0000
1000
0000
0100
0000
0000
0010
0000
0010
0000
0001
0010
0000
0000
1001
,  // measure 3
0000
0000
0010
0000
1000
0100
0000
0100
0010
0001
0010
0000
0100
0000
0100
0000
,  // measure 4
0001
0000
0010
0100
1000
0000
0000
1001
,  // measure 5
0000
1001
0000
0001
0010
0100
1000
1001
,  // measure 6
0000
0001
0100
0001
0100
0101
0000
1001
,  // measure 7
0000
0001
1000
0100
0010
0001
0100
0010
,  // measure 8
0110
0000
1000
0100
0010
0001
0000
0110
,  // measure 9
0000
1001
0000
0001
0100
0010
1000
1010
,  // measure 10
0000
0100
1000
0001
0100
0110
0000
1001
,  // measure 11
0000
0000
0000
0000
0000
0000
0000
0100
,  // measure 12
0001
0010
0001
0100
0000
0010
1000
0100
,  // measure 13
0000
0000
0000
0001
0010
0100
1000
0010
,  // measure 14
0000
0100
0001
1000
0000
0010
0100
0010
,  // measure 15
1000
0001
1000
0100
0010
0001
0010
0100
,  // measure 16
1000
0001
0100
0010
0000
1000
0001
0100
,  // measure 17
0000
0010
0000
0010
0000
1000
0100
0001
,  // measure 18
0000
1000
0010
0100
0000
0010
0000
2002
,  // measure 19
0000
0000
0000
0000
0000
3003
0000
0100
,  // measure 20
0100
0010
0001
0100
0000
0001
0100
0001
,  // measure 21
0000
1000
0000
1000
0100
1000
0001
1000
,  // measure 22
0000
0001
0100
0001
0000
0001
0010
0100
,  // measure 23
1000
0100
0010
0000
0100
0000
1001
0000
,  // measure 24
0001
0100
0010
1000
0000
0100
0010
0001
,  // measure 25
0000
0100
0000
1000
0000
0010
0100
0010
,  // measure 26
0000
1000
0001
1000
0000
0010
0000
0220
,  // measure 27
0000
0000
0000
0000
0000
0000
0000
0330
,  // measure 28
1000
0000
0000
0000
0000
0000
0000
0000
0100
0000
0000
0010
0000
0000
0001
0000
,  // measure 29
0100
0000
0010
0100
0000
0001
2000
0000
0000
0000
0000
0000
0000
0000
0000
0000
,  // measure 30
3200
0000
0000
0000
0310
0001
1000
0100
,  // measure 31
0010
0000
0001
0000
0100
0000
0010
0000
1000
0100
0010
0002
0000
0000
0000
0000
,  // measure 32
0103
0000
0110
0000
,  // measure 33
1000
1000
0101
0000
,  // measure 34
0001
0001
1100
1000
,  // measure 35
1000
1000
1010
0010
,  // measure 36
0100
0001
0100
0001
0100
0001
0100
0010
,  // measure 37
1000
0010
1000
0010
1000
0010
1000
0010
,  // measure 38
2000
0000
0000
0000
,  // measure 39
3000
0000
0000
0000
0000
0000
0000
0001
,  // measure 40
0001
0010
0100
1000
0010
0100
0010
1000
,  // measure 41
0100
0010
0001
0010
0100
0010
0001
0100
,  // measure 42
0010
0100
0010
0100
0001
1000
0001
1000
,  // measure 43
0001
0010
0100
1000
0100
0010
0001
0100
,  // measure 44
0010
1000
0100
0010
0000
0001
0100
0010
,  // measure 45
1000
0000
0100
0100
0010
0001
0100
0010
,  // measure 46
1000
0100
0100
0010
0010
0001
0001
1000
,  // measure 47
1000
0100
0010
0001
0100
1000
0100
0010
,  // measure 48
1000
0100
0010
0001
0100
0010
0100
0001
,  // measure 49
0010
0100
1000
0100
0010
0100
1000
0001
,  // measure 50
0100
0010
1000
0100
0001
0100
1000
0001
,  // measure 51
0100
0010
0100
0010
0110
0000
0110
0000
,  // measure 52
1000
0100
0010
0011
0000
0001
0010
0100
,  // measure 53
1000
1100
0000
1000
0010
0100
0001
0100
,  // measure 54
0010
1000
0100
0010
0001
0010
0100
1000
,  // measure 55
0010
0001
0010
1000
0100
0001
0100
0010
,  // measure 56
0002
0000
0000
0000
,  // measure 57
2003
0000
0000
0000
,  // measure 58
3010
0000
0000
0100
0000
0000
0001
0000
0000
1000
0000
0000
0010
0000
0000
0000
,  // measure 59
0000
0000
0000
0000
,  // measure 60
1001
0000
1000
0000
0100
0000
0010
0110
,  // measure 61
0000
0110
0000
0001
0010
0100
1000
1001
,  // measure 62
0000
1000
0100
0010
0001
1001
0000
1001
,  // measure 63
0000
0001
0100
0010
1000
0100
0001
0100
,  // measure 64
1000
0000
0100
0010
0001
1000
0100
0110
,  // measure 65
0000
0110
0000
0001
0010
0100
1000
1100
,  // measure 66
0000
1000
0100
0010
0001
0101
0000
0101
,  // measure 67
0000
0001
0100
0010
1000
0001
0100
0001
,  // measure 68
0200
0000
0000
0320
0000
0000
2030
0000
,  // measure 69
0000
0000
0000
0000
3002
0000
0000
0000
0000
0000
0000
0000
0000
0000
0000
0000
1003
0000
0000
0000
0100
0000
0000
0000
0010
0000
0000
0000
0001
0000
0000
2002
,  // measure 70
0000
3003
0000
0000
;

//---------------dance-single - ----------------
#NOTES:
     dance-single:
     :
     Easy:
     3:
     0.331892,0.431363,0.293961,0.180170,0.000000,245.000000,214.000000,31.000000,19.000000,0.000000,0.000000,0.331892,0.431363,0.293961,0.180170,0.000000,245.000000,214.000000,31.000000,19.000000,0.000000,0.000000:
0000
0000
0000
0000
,
0000
0000
0000
0000
,
0000
0000
0000
0000
,
0000
0000
0000
0000
,
0001
0010
0100
1000
,
1000
0100
0010
0001
,
0001
0100
0010
0010
,
1000
0010
0100
0100
,
0001
0010
0100
1000
,
1001
0001
0100
0010
,
0110
0010
1000
0100
,
0020
0000
0000
0000
,
0031
0010
0000
0110
,
1000
0100
0000
0110
,
0010
0001
0000
0011
,
0010
0001
0100
0101
,
0001
0100
0000
0110
,
1000
0100
0000
0110
,
1000
0100
0010
0001
,
0001
1000
1000
0010
,
0010
0100
0001
0100
,
0010
1000
0100
0100
,
0010
0001
0010
0010
,
0100
1000
1001
1001
,
0100
0010
0000
0110
,
1000
0001
0000
1001
,
0001
0001
1000
1000
,
0010
0010
0100
0100
,
0002
0000
0023
0000
,
0230
0000
2300
3020
,
0230
0000
0302
0000
,
1003
0100
0010
0001
,
0100
0010
0010
1000
,
0010
0100
0100
0001
,
0010
0100
1000
1000
,
0100
0010
0001
0001
,
0200
0010
0010
0310
,
0020
0100
0100
0130
,
0002
0103
2000
3100
,
2002
0000
0000
3003
,
0001
0010
0100
1000
,
0010
0100
0001
0001
,
0100
0010
1000
0100
,
0010
0010
0100
0100
,
1000
0001
0101
0101
,
0001
1000
1100
1100
,
1000
0010
0001
0010
,
1000
0100
0010
0001
,
0100
0010
1000
0100
,
0010
0001
1000
0100
,
0010
0001
0100
0010
,
0110
0001
0110
1000
,
1001
0100
1001
0010
,
0001
0010
0100
0100
,
0001
0100
1000
0100
,
0001
0010
0010
0010
,
2000
0000
0000
0000
,
3002
0000
0000
0000
,
0203
0000
0000
0300
,
0000
0000
0000
0000
,
1001
0000
0000
0000
0000
0000
0000
0100
,
0000
0010
0000
0000
0000
0000
0000
0110
,
0000
0000
0000
0000
0000
0001
0000
1000
,
0000
0100
0100
0100
,
0110
0000
0000
0000
0000
0000
0000
0010
,
0000
0001
0000
0000
0000
0000
0000
1100
,
0000
0000
0000
0000
0000
1000
0000
0100
,
0000
0000
0000
0000
,
0011
0000
0000
0011
0000
0000
1100
0000
,
0000
0000
0000
0000
0000
0000
0000
0000
1100
0000
0000
0000
0000
0000
0000
0000
0000
0000
0000
0000
0000
0000
0000
0000
0000
0000
0000
0000
0000
0000
0000
0000
0110
0000
0000
0000
0000
0000
0000
0000
0000
0000
0000
0000
0000
0000
0000
0000
0000
0000
0000
0000
0000
0000
0000
0000
2002
0000
0000
0000
0000
0000
0000
3003
;
