#TITLE:Thunderbolt;
#SUBTITLE:;
#ARTIST:雷龍;
#TITLETRANSLIT:;
#SUBTITLETRANSLIT:;
#ARTISTTRANSLIT:Rairyu;
#GENRE:RAVERS DANCE SPEED;
#CREDIT:;
#BANNER:[Mother Nature] - Thunderbolt-png;
#BACKGROUND:[Mother Nature] - Thunderbolt-bg.png;
#LYRICSPATH:;
#CDTITLE:cdtitle.png;
#MUSIC:[Mother Nature] - Thunderbolt.mp3;
#OFFSET:-0.440000;
#SAMPLESTART:45.073914;
#SAMPLELENGTH:10.272552;
#SELECTABLE:YES;
#BPMS:0.000000=188.000000
;
#STOPS:
;
#BGCHANGES:;
#KEYSOUNDS:;
#ATTACKS:;

//---------------dance-single - ----------------
#NOTES:
     dance-single:
     :
     Challenge:
     12:
     0.904238,0.930687,0.357384,0.007942,0.865663,797.000000,752.000000,45.000000,1.000000,0.000000,0.000000,0.904238,0.930687,0.357384,0.007942,0.865663,797.000000,752.000000,45.000000,1.000000,0.000000,0.000000:
0000
0000
0000
0000
,
0000
0000
0000
0000
,
0000
0000
0000
0000
,
0000
0000
0000
0000
,
0000
0000
0000
0000
,
0000
0000
0000
0000
,
0000
0000
0000
0000
,
0001
0000
1000
0000
0001
0000
0000
1000
0000
0000
0100
0000
0010
0000
0000
0000
,
0001
0000
1000
0000
0001
0000
0000
1000
0000
0000
0010
0000
0100
0010
0100
0010
,
0100
0000
0001
0000
0100
0000
0000
0010
0000
0000
1000
0000
0100
0000
0010
0000
,
0001
0000
1000
0010
0000
1000
0000
0001
0100
0000
0001
0000
0010
0001
1000
0001
,
1000
0000
0010
0000
0100
0001
0000
0001
0010
0000
0010
0100
0000
0100
1000
0000
,
0001
0000
0010
0000
0100
1000
0000
1000
0010
0000
0010
0100
0000
0100
0001
0010
,
0001
0000
1000
0000
0100
0010
0000
0010
0001
0000
0001
0100
0000
0100
0010
0000
,
1000
0000
0001
0100
0000
0001
0000
1000
0100
0000
0010
0000
1001
0000
1001
0000
,
1001
0000
0001
0000
1000
0010
0000
0010
0100
0000
0100
0001
0000
0001
0010
0000
,
0001
0000
1000
0000
0010
0100
0000
0100
0001
0000
0001
1000
0000
1000
0100
0010
,
0100
0000
1000
0000
0001
0100
0000
0100
0010
0000
0010
0100
0000
0100
0001
0000
,
1000
0000
0001
0100
0000
0001
0000
1000
0100
0000
0010
0000
0110
0000
0000
0000
,
1000
0000
0001
0100
0001
0000
1000
0100
1000
0000
0001
0000
0011
0000
0010
0000
,
0001
0000
1000
0100
1000
0000
0001
0100
0001
0000
1000
0000
1010
0000
0010
0000
,
1000
0000
0001
0010
0001
0000
1000
0010
1000
0000
0001
0000
0101
0000
0100
0000
,
0001
1001
1000
1010
0010
0110
0110
0100
,
0001
0000
1000
0010
1000
0000
0001
0010
0001
0000
1000
0000
1100
0000
0100
0000
,
1000
0000
0001
0010
0001
0000
1000
0010
1000
0000
0001
0000
0101
0000
0100
0000
,
0001
0000
1000
0100
1000
0000
0001
0100
0001
0000
1000
0000
1010
0000
0010
0000
,
1000
0000
1001
0000
0001
0000
1001
0000
1000
0001
1000
0000
0100
0000
0010
0000
,
0010
0000
0100
0000
0000
1000
0000
0000
0010
0000
0000
0100
0000
0000
0001
0000
,
0000
0010
0000
0000
0100
0000
0000
1000
0000
0000
0010
0000
0100
0000
0001
0000
,
0010
0000
0001
0000
0000
1000
0000
0000
0100
0000
0000
1000
0000
0000
0010
0000
,
0000
0100
0000
0000
0001
0000
0000
0010
0000
0000
0100
0000
1000
0000
0010
0000
,
0100
0000
0001
0000
0000
1000
0000
0000
0100
0000
0000
0010
0000
0000
0001
0000
,
0000
0100
0000
0000
0010
0000
0000
1000
0000
0000
0001
0000
0010
0000
0100
0000
,
1000
0000
0010
0000
0000
0100
0000
0000
0001
0000
0000
0010
0000
0000
1000
0000
,
0000
0010
0000
0000
0001
0000
0000
0100
0000
0000
0010
0000
1000
0000
0100
0000
,
0010
0001
0010
0001
0010
0000
0001
1000
0000
0100
1000
0000
0010
0000
0100
0000
,
0000
0000
0001
0000
0010
0000
0100
0000
1000
0000
0001
0010
0001
0000
1000
0000
,
0100
1000
0100
1000
0100
0000
0010
0001
0000
1000
0001
0000
0100
0000
0010
0000
,
0000
1000
0001
0100
0000
0011
0001
1001
,
1000
0010
1000
0010
1000
0000
0001
0100
0000
0010
0100
0000
0001
0000
0010
0000
,
0000
0100
1000
0010
0110
0110
0110
0000
,
1000
0001
1000
0001
1000
0000
0100
0010
0000
0100
1000
0000
0010
0000
0100
0000
,
0000
0001
0010
0100
0100
1000
0010
0100
,
0001
0010
0001
0010
0001
0000
1000
0100
0000
0010
0100
0000
1000
0000
0010
0000
,
0000
0000
0100
0000
0001
0000
0010
0000
0100
0000
1000
0010
1000
0000
0001
0000
,
0100
0010
0100
0010
0100
0000
0001
1000
0000
0100
1000
0000
0010
0000
0100
0000
,
0000
0001
0010
0100
0000
1010
1000
1001
,
0001
0100
0001
0100
0001
0000
0010
0100
0000
0010
0001
0000
1000
0000
0010
0000
,
0000
1000
0001
0100
0110
0110
0110
0000
,
0010
1000
0010
1000
0010
0000
1000
0100
0000
1000
0001
0000
0010
0000
0001
0000
,
0000
1000
0100
0001
0000
0001
0100
1000
,
0001
0000
0100
0001
0000
0100
0001
0000
1000
0010
0000
1000
0100
0000
0010
0000
,
0001
0000
0100
0000
0010
1000
0000
1000
0100
0000
0010
0000
0001
0100
0000
0000
,
0010
0000
1000
0010
0000
0100
0010
0000
1000
0001
0000
1000
0001
0000
0100
0000
,
0010
0000
1000
0000
0100
0010
0000
0010
0001
0000
0100
0000
0010
1000
0000
0000
,
0001
0000
0000
0010
0000
0000
0100
0000
0000
1000
0000
0000
0010
0000
0100
0000
,
0001
0000
1000
0000
0100
0010
0000
0000
0100
0000
1000
0000
0001
0010
0000
0000
,
0001
0000
0000
0100
0000
0000
0010
0000
0000
1000
0000
0000
0100
0000
0010
0000
,
0001
0000
1000
0000
0010
0100
0000
0000
0010
0000
1000
0000
0001
0100
0000
0000
,
0001
0000
0010
0000
0100
0000
0000
0100
0000
0000
0010
0000
0001
0000
0000
0000
,
1000
0000
0010
0000
0100
0000
0000
0100
0000
0000
0010
0000
1000
0001
1000
0001
,
1000
0000
0100
0000
0010
0000
0000
0010
0000
0000
0100
0000
1000
0000
0010
0000
,
1000
0000
0001
0100
0000
0001
0000
1000
0100
0000
0010
0000
0001
0000
0000
0000
,
1000
0000
0001
0000
1000
0000
0000
0001
0000
0000
0010
0000
0100
0000
0000
0000
,
1000
0000
0001
0000
1000
0000
0000
0001
0000
0000
0100
0000
0010
0100
0010
0100
,
0010
0000
1000
0000
0100
0000
0000
0010
0000
0000
0001
0000
0100
0000
0001
0000
,
1000
0000
0010
0100
0000
0001
0000
0010
0100
0000
0010
0000
0001
1000
0001
1000
,
0001
0000
0100
0000
0010
1000
0000
1000
0100
0000
0100
0010
0000
0010
0001
0000
,
1000
0000
0010
0000
1000
0100
0000
0100
0010
0000
0010
0001
0000
0001
0100
0010
,
0100
0000
0010
0000
1000
0001
0000
0001
0010
0000
0010
0100
0000
0100
1000
0000
,
0001
0000
1000
0010
0000
1000
0000
0001
0010
0000
0100
0000
1001
0000
1001
0000
,
1001
0000
1000
0000
0010
0100
0000
0100
0001
0000
0001
0010
0000
0010
0100
0000
,
1000
0000
0010
0000
0100
0001
0000
0001
1000
0000
1000
0100
0000
0100
0010
0001
,
0010
0000
0001
0000
1000
0010
0000
0010
0100
0000
0100
0001
0000
0001
0010
0000
,
0001
0000
1000
0001
0000
0010
0000
0100
1000
0000
0010
0000
0110
0000
0100
0000
,
0001
0000
1000
0001
0000
0100
0000
0010
1000
0000
0010
0000
0110
0000
0000
0000
,
1000
0010
0100
0010
1000
0000
0001
0100
0000
0001
0010
0000
0001
0000
1000
0000
,
0000
0000
0001
0000
0010
0000
0100
0000
1000
0000
0010
0100
0010
0000
1000
0000
,
0100
1000
0010
1000
0100
0000
1000
0010
0000
0100
0001
0000
0010
0000
0100
0000
,
0000
1000
0010
0100
0000
0011
0001
1001
,
1000
0100
0010
0100
1000
0000
0001
0100
0000
0010
0100
0000
0001
0000
1000
0000
,
0000
0100
0010
0001
1001
1001
1001
0000
,
1000
0001
0010
0001
1000
0000
0100
0010
0000
0100
0010
0000
0001
0000
0100
0000
,
0000
0001
0010
0100
0100
1000
0010
0100
,
0001
1000
0010
1000
0001
0000
1000
0100
0000
1000
0010
0000
0100
0000
0001
0000
,
0000
0000
0010
0000
0001
0000
1000
0000
0001
0000
0100
0001
0100
0000
0010
0000
,
1000
0001
0100
0001
1000
0000
0100
0010
0000
0100
1000
0000
0001
0000
0100
0000
,
0000
0001
1001
1000
1100
0100
0110
0010
,
0001
1000
0001
1000
0001
0000
1000
0100
0000
0010
0100
0000
1000
0000
0010
0000
,
0000
0100
0001
0010
0110
0110
0110
0000
,
1000
0010
1000
0010
1000
0000
0001
0100
0000
0010
1000
0000
0001
0000
0010
0000
,
0011
0001
1000
0100
0110
0010
0001
1000
,
1010
0000
0010
0000
0100
0000
0001
0000
1000
0001
1000
0001
1000
0001
1000
0001
,
2000
0000
0000
3000
;

//---------------dance-single - ----------------
#NOTES:
     dance-single:
     :
     Hard:
     10:
     0.771495,0.781777,0.071477,0.007942,0.694913,680.000000,671.000000,9.000000,1.000000,0.000000,0.000000,0.771495,0.781777,0.071477,0.007942,0.694913,680.000000,671.000000,9.000000,1.000000,0.000000,0.000000:
0000
0000
0000
0000
,
0000
0000
0000
0000
,
0000
0000
0000
0000
,
0000
0000
0000
0000
,
0000
0000
0000
0000
,
0000
0000
0000
0000
,
0000
0000
0000
0000
,
1000
0000
0001
0000
1000
0000
0000
0001
0000
0000
0010
0000
0100
0000
0000
0000
,
1000
0000
0001
0000
1000
0000
0000
0001
0000
0000
0100
0000
0010
1000
0010
1000
,
0010
0000
0100
0000
0010
0000
0000
0100
0000
0000
0001
0000
0010
0000
0100
0000
,
1000
0000
0001
1000
0000
0001
0000
1000
0100
0000
1000
0000
0001
0000
1000
0000
,
0010
0000
0100
0000
0001
0010
0000
0001
0010
0000
0100
1000
0000
0100
1000
0000
,
0001
0000
0100
0000
0010
1000
0000
0010
1000
0000
0100
0010
0000
0100
0010
0000
,
0001
0000
1000
0000
0100
1000
0000
0100
1000
0000
0010
0100
0000
0010
0100
0000
,
0001
0000
1000
0010
0000
1000
0000
0100
0010
0000
0001
0000
1001
0000
0000
0000
,
1000
0000
0010
0000
0100
0001
0000
0100
0001
0000
1000
0010
0000
1000
0010
0000
,
1000
0000
0100
0000
0010
0001
0000
0010
0001
0000
0010
0100
0000
0010
0100
0000
,
1000
0000
0001
0000
0010
0100
0000
0010
0100
0000
1000
0001
0000
1000
0001
0000
,
1000
0000
0001
0100
0000
0001
0000
0010
0100
0000
1000
0000
1001
0000
0000
0000
,
0001
0000
1000
0010
1000
0000
0001
0000
0010
0000
0100
0000
0010
0000
0001
0000
,
1000
0000
0001
0010
0001
0000
1000
0000
0010
0000
0100
0000
0010
0000
1000
0000
,
0001
0000
1000
0100
1000
0000
0001
0000
0100
0000
0010
0000
0100
0000
0001
0000
,
1000
0010
0001
0010
1000
0100
0010
0001
,
1000
0000
0001
0100
0001
0000
1000
0000
0100
0000
0010
0000
0100
0000
1000
0000
,
0001
0000
1000
0100
1000
0000
0001
0000
0100
0000
0010
0000
0100
0000
0001
0000
,
1000
0000
0001
0010
0001
0000
1000
0000
0010
0000
0100
0000
0010
0000
1000
0000
,
0000
0000
0001
0000
0000
0000
0001
0000
1000
0001
1000
0000
0100
0000
0000
0000
,
1000
0000
0010
0000
0000
0010
0000
0000
0100
0000
0000
0100
0000
0000
0001
0000
,
0000
0001
0000
0000
0010
0000
0000
0010
0000
0000
0100
0000
1000
0000
0001
0000
,
1000
0000
0100
0000
0000
0100
0000
0000
0010
0000
0000
0010
0000
0000
0001
0000
,
0000
0001
0000
0000
0100
0000
0000
0100
0000
0000
0010
0000
1000
0000
0010
0000
,
0100
0000
0001
0000
0000
0001
0000
0000
1000
0000
0000
1000
0000
0000
0100
0000
,
0000
0100
0000
0000
0010
0000
0000
0010
0000
0000
0001
0000
0100
0000
0010
0000
,
1000
0000
0100
0000
0000
0100
0000
0000
1000
0000
0000
1000
0000
0000
0010
0000
,
0000
0010
0000
0000
0100
0000
0000
0100
0000
0000
0001
0000
1000
0000
0001
0000
,
1000
0000
0100
1000
0100
0000
0000
0010
0000
0001
1000
0000
0010
0000
0100
0000
,
0000
0001
0010
0100
1000
0001
1000
0000
,
0001
0000
0100
0001
0100
0000
0000
0010
0000
1000
0001
0000
0010
0000
0100
0000
,
0000
1000
0010
0100
0000
0110
0000
0110
,
0001
0000
1000
0010
1000
0000
0000
0100
0000
0010
0001
0000
0100
0000
0010
0000
,
0000
1000
0001
0010
0100
0100
0010
0000
,
0001
0000
1000
0100
1000
0000
0000
0010
0000
0100
0001
0000
0010
0000
0100
0000
,
0000
1000
0010
0001
0000
0001
0010
1000
,
0001
0000
0100
0001
0100
0000
0000
0010
0000
1000
0001
0000
0010
0000
0100
0000
,
0000
1000
0010
0100
0001
1000
0001
0000
,
1000
0000
0100
1000
0100
0000
0000
0010
0000
0001
1000
0000
0010
0000
0100
0000
,
0000
0001
0010
0100
0000
0110
0000
0110
,
1000
0000
0001
0010
0001
0000
0000
0100
0000
0010
1000
0000
0100
0000
0010
0000
,
0000
0001
1000
0010
0100
0100
0010
0000
,
1000
0000
0001
0100
0001
0000
0000
0010
0000
0100
1000
0000
0010
0000
0100
0000
,
0000
0001
0010
1000
0000
1000
0010
0001
,
1000
0000
0000
1000
0000
0000
0001
0000
0000
0001
0000
0000
0010
0000
0100
0000
,
1000
0000
0010
0000
0100
0010
0000
0000
1000
0000
0100
0000
0010
0100
0000
0000
,
1000
0000
0000
1000
0000
0000
0001
0000
0000
0001
0000
0000
0100
0000
0010
0000
,
1000
0000
0001
0000
0010
0100
0000
0000
0010
0000
0001
0000
1000
0010
0000
0000
,
1000
0000
0000
0100
0000
0000
0001
0000
0000
0100
0000
0000
1000
0000
0010
0000
,
0100
0000
0001
0000
0010
0001
0000
0000
1000
0000
0001
0000
1000
0010
0000
0000
,
1000
0000
0000
0001
0000
0000
0100
0000
0000
1000
0000
0000
0100
0000
0001
0000
,
0010
0000
0100
0000
0010
0001
0000
0000
1000
0000
0010
0000
0100
0010
0000
0000
,
1000
0000
0001
0000
1000
0000
0000
0001
0000
0000
0010
0000
0100
0000
0000
0000
,
1000
0000
0001
0000
1000
0000
0000
0001
0000
0000
0100
0000
0010
1000
0010
1000
,
0010
0000
0100
0000
0001
0000
0000
0010
0000
0000
0100
0000
1000
0000
0001
0000
,
1000
0000
0010
0100
0000
0010
0000
1000
0001
0000
1000
0000
0010
0000
0000
0000
,
1000
0000
0100
0000
1000
0000
0000
0010
0000
0000
0100
0000
0001
0000
0000
0000
,
1000
0000
0010
0000
1000
0000
0000
0100
0000
0000
0010
0000
0001
1000
0001
1000
,
0001
0000
0100
0000
0001
0000
0000
0010
0000
0000
0100
0000
1000
0000
0001
0000
,
1000
0000
0001
0100
0000
0001
0000
0100
0010
0000
1000
0000
0100
1000
0100
0000
,
1000
0000
0001
0000
0100
0001
0000
0100
0001
0000
0010
0100
0000
0010
0100
0000
,
1000
0000
0001
0000
1000
0100
0000
1000
0100
0000
1000
0010
0000
1000
0010
0000
,
0100
0000
0001
0000
0010
0100
0000
0010
0100
0000
1000
0001
0000
1000
0001
0000
,
1000
0000
0001
0100
0000
0010
0000
1000
0100
0000
0010
0000
0110
0000
0000
0000
,
0001
0000
1000
0000
0100
1000
0000
0100
1000
0000
0010
1000
0000
0010
1000
0000
,
0001
0000
1000
0000
0100
0010
0000
0100
0010
0000
0001
0100
0000
0001
0100
0000
,
0010
0000
1000
0000
0100
0010
0000
0100
0010
0000
0001
1000
0000
0001
1000
0000
,
0001
0000
0010
0100
0000
0010
0000
0100
1000
0000
0010
0000
0100
0000
0001
0000
,
1000
0000
0010
0100
0000
0010
0000
0100
0001
0000
0010
0000
0100
0000
0000
0000
,
1000
0000
0010
1000
0010
0000
0000
0100
0000
0001
0010
0000
0100
0000
1000
0000
,
0000
0001
0100
0010
1000
0100
0010
0000
,
0001
0000
0010
0001
0010
0000
0000
0100
0000
1000
0010
0000
0100
0000
0001
0000
,
0000
1000
0010
0100
0000
0110
0000
0110
,
0010
0000
1000
0001
1000
0000
0000
0100
0000
1000
0010
0000
0100
0000
0001
0000
,
0000
0010
0100
1000
0010
0010
0100
0000
,
0010
0000
1000
0100
1000
0000
0000
0001
0000
1000
0100
0000
1000
0000
0010
0000
,
0000
1000
0100
0001
0000
0001
0100
1000
,
0001
0000
0100
0010
0100
0000
0000
0010
0000
1000
0100
0000
0010
0000
0001
0000
,
0000
1000
0001
0010
0100
0010
0001
0000
,
1000
0000
0100
0010
0100
0000
0000
0010
0000
0001
0100
0000
0010
0000
1000
0000
,
0000
0001
0100
0010
1000
0100
0010
0100
,
1000
0000
0001
0100
0001
0000
0000
1000
0000
0100
0010
0000
0001
0000
0100
0000
,
0000
0001
0010
0100
0010
0010
0001
0000
,
1000
0000
0010
0100
0010
0000
0000
1000
0000
0001
0010
0000
0100
0000
0010
0000
,
0000
0001
0100
1000
0000
1000
0100
0001
,
0000
0001
0010
1000
0000
1000
0010
0001
,
0200
0000
0000
0300
;

//---------------dance-single - ----------------
#NOTES:
     dance-single:
     :
     Medium:
     8:
     0.602447,0.632867,0.087361,0.007942,0.023826,531.000000,520.000000,11.000000,1.000000,0.000000,0.000000,0.602447,0.632867,0.087361,0.007942,0.023826,531.000000,520.000000,11.000000,1.000000,0.000000,0.000000:
0000
0000
0000
0000
,
0000
0000
0000
0000
,
0000
0000
0000
0000
,
0000
0000
0000
0000
,
0000
0000
0000
0000
,
0000
0000
0000
0000
,
0000
0000
0000
0000
,
1000
0000
0001
0000
1000
0000
0000
0001
0000
0000
1000
0000
0001
0000
0000
0000
,
0010
0000
0100
0000
0010
0000
0000
0100
0000
0000
0010
0000
0100
0000
0000
0000
,
1000
0000
0001
0000
1000
0000
0000
0001
0000
0000
1000
0000
0001
0000
0001
0000
,
1000
0010
1000
0010
0100
0001
0100
0000
,
0001
0000
0100
0000
0001
1000
0010
0000
,
1000
0000
0100
0000
1000
0100
0010
0000
,
0100
0000
0010
0000
0001
0010
0001
0000
,
1000
1000
0010
0010
0100
0001
0100
0000
,
0001
0000
0100
0000
0010
1000
0100
0000
,
1000
0000
0100
0000
1000
0001
0010
0000
,
0001
0000
0100
0000
0001
0100
0010
0000
,
1000
1000
0001
0001
0100
0001
0010
0000
,
0001
0001
0010
0010
0100
1000
0010
0000
,
0100
0100
0001
0001
0010
0100
1000
0000
,
0010
0010
1000
1000
0100
1000
0001
0000
,
1000
1000
0100
0100
1000
0010
0100
0000
,
0010
0010
0100
0100
0001
1000
0100
0000
,
1000
1000
0100
0100
0010
0100
1000
0000
,
0100
0100
1000
1000
0010
0100
0001
0010
,
0001
0100
0001
0100
0010
1000
0100
0010
,
0001
0100
0001
0010
,
0001
1000
0010
1000
,
0100
0010
0001
0100
,
0010
1000
0001
1000
,
0001
0010
0100
0000
1000
0001
0100
0000
,
0010
1000
0100
0000
1000
0010
0100
0000
,
0001
0010
0001
0010
0100
1000
0100
1000
,
0001
0000
0000
1001
,
1000
0010
1000
0000
0001
0001
0010
0100
,
0000
1000
0010
1000
0001
0010
0001
0000
,
1000
1000
0010
0000
0100
0001
0010
0100
,
0000
1000
0001
1000
0000
1001
0000
1001
,
0001
0100
0010
0000
1000
1000
0010
0100
,
0000
0001
0010
0001
1000
0010
1000
0000
,
0001
0001
0100
0000
0010
1000
0100
0010
,
0000
0001
0100
1000
0000
1000
0100
0001
,
0010
0001
1000
0000
0010
0010
0100
0001
,
0000
1000
0100
1000
0001
0100
0001
0000
,
0010
0100
1000
0000
0010
0010
0100
0001
,
0000
1000
0100
0010
0000
0011
0000
0011
,
0001
0100
0010
0000
1000
1000
0001
0100
,
0000
0001
0010
0001
1000
0010
1000
0000
,
0001
0001
1000
0000
0001
0010
0100
0010
,
0000
0001
0100
1000
0000
1000
0100
0001
,
1000
0000
1001
0000
0001
0100
0010
0000
,
1000
0100
0010
0000
0010
0100
1000
0000
,
0001
0000
1001
0000
1000
0001
0100
0000
,
0001
0010
0100
0000
0100
0010
0001
0000
,
1000
0000
1010
0000
0010
0100
0001
0000
,
1000
0001
0010
0000
0010
0001
1000
0000
,
0010
0000
0110
0000
0100
0001
1000
0000
,
0001
1000
0100
0000
0100
1000
0001
0000
,
1000
0000
0001
0000
1000
0000
0000
0001
0000
0000
1000
0000
0001
0000
0000
0000
,
0100
0000
0010
0000
0100
0000
0000
0010
0000
0000
0100
0000
0010
0000
0000
0000
,
1000
0000
0001
0000
1000
0000
0000
0001
0000
0000
1000
0000
0001
0000
0001
0000
,
1000
0100
1000
0100
0010
0001
0010
0000
,
0001
0100
0010
1000
,
0100
0010
0001
1000
,
0001
0100
1000
0100
,
0001
0001
1000
1000
0010
0100
0001
1000
,
0001
0000
0100
0000
0001
1000
0100
0000
,
1000
0000
0100
0000
0010
0100
1000
0000
,
0001
0000
0100
0000
0010
0100
0001
0000
,
1000
1000
0100
0100
0010
0001
0100
0000
,
0001
0000
1000
0000
0010
1000
0100
0000
,
0010
0000
0100
0000
1000
0010
1000
0000
,
0001
0000
0010
0000
0100
0010
0001
0000
,
1000
1000
0001
0001
0100
0010
1000
0000
,
0001
0001
1000
1000
0100
0010
0001
0000
,
1000
1000
0100
0000
1000
0001
0010
0100
,
0000
1000
0010
1000
0001
0010
0001
0000
,
0100
0001
0100
0000
0001
0001
0010
0100
,
0000
1000
0001
0100
0000
0110
0000
0110
,
0010
1000
0100
0000
1000
1000
0001
0100
,
0000
0001
0010
0001
1000
0010
1000
0000
,
0001
0001
0100
0000
0010
1000
0100
0010
,
0000
0001
0100
0001
0000
1000
0100
1000
,
0010
0010
0100
0000
0001
1000
0100
0010
,
0000
0001
0100
0001
1000
0100
1000
0000
,
0010
0010
0100
0000
0001
1000
0100
0010
,
0000
0001
0100
0001
0010
0100
1000
0010
,
1000
0100
1000
0000
0001
0001
0100
0010
,
0000
1000
0010
0100
0001
0010
0100
0000
,
1000
1000
0010
0000
0100
0001
0100
0010
,
0000
1000
0010
0001
0000
0001
0010
1000
,
0000
1000
0100
0001
0000
0001
0100
1000
,
0002
0000
0000
0003
;

//---------------dance-single - ----------------
#NOTES:
     dance-single:
     :
     Easy:
     7:
     0.417515,0.558412,0.023826,0.039709,0.000000,368.000000,365.000000,3.000000,5.000000,0.000000,0.000000,0.417515,0.558412,0.023826,0.039709,0.000000,368.000000,365.000000,3.000000,5.000000,0.000000,0.000000:
0000
0000
0000
0000
,
0000
0000
0000
0000
,
0000
0000
0000
0000
,
0000
0000
0000
0000
,
0000
0000
0000
0000
,
0000
0000
0000
0000
,
0000
0000
0000
0000
,
1000
0010
0100
0001
,
0010
0100
1000
0010
,
0100
0001
0010
0100
,
0010
0000
0010
0000
0001
1000
0001
0000
,
1000
0100
0010
0100
,
1000
0001
0010
0100
,
0010
0001
1000
0010
,
1000
0100
1000
0000
0001
0100
0001
0000
,
1000
0001
0100
0010
,
1000
0100
0010
0001
,
0100
0010
1000
0001
,
1000
0010
1000
0010
1000
0001
1000
0000
,
0001
0000
0001
0000
1000
0001
1000
0000
,
0010
0000
0100
0000
0010
0100
0010
0000
,
1000
0000
1000
0000
0001
1000
0001
0000
,
1000
1010
0001
0011
,
1000
0000
1000
0000
0001
1000
0001
0000
,
0100
0000
0010
0000
0100
0010
0100
0000
,
0001
0000
0001
0000
1000
0001
1000
0000
,
0001
0010
0100
1000
,
0001
0000
0100
0000
,
0010
0000
1000
0000
,
0100
0000
0010
0000
,
0001
0000
0100
0000
,
0010
1000
0100
0010
,
0100
1000
0010
0100
,
0001
0010
0100
1000
,
0010
0000
0000
1001
,
1000
0000
0010
0000
0100
0010
0100
0000
,
0001
0000
0010
0000
0001
1000
0001
0000
,
1000
0000
0010
0000
1000
0001
1000
0000
,
0000
0001
0010
0001
0000
1000
0000
0010
,
1000
0000
0010
0000
1000
0001
1000
0000
,
0001
0000
0100
0000
0001
1000
0001
0000
,
1000
0000
0010
0000
0100
0001
0100
0000
,
0000
0001
1000
0001
0000
1000
0001
1000
,
0001
0000
1000
0000
0010
0100
0010
0000
,
1000
0000
0100
0000
0010
0001
0010
0000
,
0001
0000
0100
0000
0010
1000
0010
0000
,
0000
1000
0001
1000
0000
0010
0000
0100
,
0001
0000
0010
0000
0001
1000
0001
0000
,
1000
0000
0010
0000
0100
0010
0100
0000
,
0001
0000
0010
0000
0100
1000
0100
0000
,
0000
1000
0001
1000
0000
0001
1000
0001
,
1000
0010
0000
0100
,
0000
0001
0000
0010
,
0000
0100
0000
1000
,
0000
0010
0000
0100
,
0002
0000
0003
0000
,
2000
0000
3000
0000
,
0200
0000
0300
0000
,
0020
0000
0030
0000
,
0001
0000
0000
0000
,
1000
0000
0000
0000
,
0001
0000
0000
0000
,
0100
0000
0000
0000
,
0001
0010
0100
0010
,
0001
1000
0010
0100
,
0010
1000
0100
0010
,
0001
0000
0001
0000
1000
0010
1000
0000
,
0001
0100
0010
1000
,
0100
0010
0001
1000
,
0001
0100
0010
1000
,
0001
0010
0001
0000
1000
0010
1000
0000
,
0001
0100
0010
1000
,
0100
0010
0100
1000
,
0010
0100
0001
0010
,
0001
0100
0001
0100
0001
1000
0001
0000
,
1000
0100
1000
0100
1000
0001
1000
0000
,
0001
0000
0100
0000
0010
0100
0010
0000
,
1000
0000
0100
0000
0010
0001
0010
0000
,
0001
0000
0100
0000
0010
1000
0010
0000
,
0000
1000
0001
1000
0000
0010
0000
0100
,
0001
0000
0010
0000
0001
1000
0001
0000
,
1000
0000
0010
0000
1000
0100
1000
0000
,
0001
0000
0100
0000
0010
0100
0010
0000
,
0000
1000
0001
1000
0000
0001
1000
0001
,
1000
0000
0010
0000
0100
0001
0100
0000
,
0001
0000
0010
0000
0100
1000
0100
0000
,
1000
0000
0010
0000
0100
0010
0100
0000
,
0000
0001
0010
0001
1000
0010
1000
0100
,
0010
0000
0001
0000
1000
0010
1000
0000
,
0001
0000
0100
0000
0001
0010
0001
0000
,
1000
0000
0100
0000
1000
0010
1000
0000
,
0000
0001
0100
0001
0000
1000
0100
1000
,
0000
0001
0010
0001
0000
1000
0010
1000
,
0200
0000
0000
0300
;

//---------------dance-single - ----------------
#NOTES:
     dance-single:
     :
     Beginner:
     2:
     0.153165,0.223365,0.000000,0.007942,0.000000,135.000000,135.000000,0.000000,1.000000,0.000000,0.000000,0.153165,0.223365,0.000000,0.007942,0.000000,135.000000,135.000000,0.000000,1.000000,0.000000,0.000000:
// measure 0
0000
0000
0000
0000
,  // measure 1
0000
0000
0000
0000
,  // measure 2
0000
0000
0000
0000
,  // measure 3
0000
0000
0000
0000
,  // measure 4
0000
0000
0000
0000
,  // measure 5
0000
0000
0000
0000
,  // measure 6
0000
0000
0000
0000
,  // measure 7
1000
0000
0000
0000
,  // measure 8
1000
0000
0000
0000
,  // measure 9
0001
0000
0000
0000
,  // measure 10
0001
0000
0000
0000
,  // measure 11
1000
0000
1000
0000
,  // measure 12
0010
0000
0010
0000
,  // measure 13
0100
0000
0100
0000
,  // measure 14
0001
0000
0001
0000
,  // measure 15
1000
0000
1000
0000
,  // measure 16
0010
0000
0010
0000
,  // measure 17
1000
0000
1000
0000
,  // measure 18
0001
0000
0001
0000
,  // measure 19
0100
0000
0000
0000
,  // measure 20
0010
0000
0000
0000
,  // measure 21
1000
0000
0000
0000
,  // measure 22
0001
0000
0000
0000
,  // measure 23
1000
0000
0000
0000
,  // measure 24
0100
0000
0000
0000
,  // measure 25
0010
0000
0000
0000
,  // measure 26
0001
0000
0000
0000
,  // measure 27
1000
0000
0000
0000
,  // measure 28
0000
0000
0000
0000
,  // measure 29
0001
0000
0000
0000
,  // measure 30
0000
0000
0000
0000
,  // measure 31
1000
0000
0000
0000
,  // measure 32
0000
0000
0000
0000
,  // measure 33
0001
0000
0000
0000
,  // measure 34
1000
0000
0000
0000
,  // measure 35
0001
0000
0001
0000
,  // measure 36
0100
0000
0100
0000
,  // measure 37
0010
0000
0010
0000
,  // measure 38
1000
0000
1000
0000
,  // measure 39
0100
0000
0100
0000
,  // measure 40
0010
0000
0010
0000
,  // measure 41
0001
0000
0001
0000
,  // measure 42
1000
0000
1000
0000
,  // measure 43
0010
0000
0010
0000
,  // measure 44
0100
0000
0100
0000
,  // measure 45
0001
0000
0001
0000
,  // measure 46
1000
0000
1000
0000
,  // measure 47
0010
0000
0010
0000
,  // measure 48
0100
0000
0100
0000
,  // measure 49
0001
0000
0001
0000
,  // measure 50
1000
0000
1000
0000
,  // measure 51
0010
0000
0000
0000
,  // measure 52
1000
0000
0000
0000
,  // measure 53
0001
0000
0000
0000
,  // measure 54
1000
0000
0000
0000
,  // measure 55
0100
0000
0000
0000
,  // measure 56
0010
0000
0000
0000
,  // measure 57
0001
0000
0000
0000
,  // measure 58
1000
0000
0000
0000
,  // measure 59
0001
0000
0000
0000
,  // measure 60
1000
0000
0000
0000
,  // measure 61
0010
0000
0000
0000
,  // measure 62
0100
0000
0000
0000
,  // measure 63
0001
0000
0000
0000
,  // measure 64
0001
0000
0000
0000
,  // measure 65
1000
0000
0000
0000
,  // measure 66
1000
0000
0000
0000
,  // measure 67
0010
0000
0010
0000
,  // measure 68
0100
0000
0100
0000
,  // measure 69
0001
0000
0001
0000
,  // measure 70
1000
0000
1000
0000
,  // measure 71
0100
0000
0100
0000
,  // measure 72
0010
0000
0010
0000
,  // measure 73
0001
0000
0001
0000
,  // measure 74
0100
0000
0100
0000
,  // measure 75
0010
0000
0010
0000
,  // measure 76
1000
0000
1000
0000
,  // measure 77
0010
0000
0010
0000
,  // measure 78
0100
0000
0100
0000
,  // measure 79
0001
0000
0001
0000
,  // measure 80
0010
0000
0010
0000
,  // measure 81
0100
0000
0100
0000
,  // measure 82
1000
0000
1000
0000
,  // measure 83
0100
0000
0100
0000
,  // measure 84
0010
0000
0010
0000
,  // measure 85
0001
0000
0001
0000
,  // measure 86
0100
0000
0100
0000
,  // measure 87
0000
0001
1000
0001
,  // measure 88
1000
0000
1000
0000
,  // measure 89
0010
0000
0010
0000
,  // measure 90
0100
0000
0100
0000
,  // measure 91
0001
0000
1000
0000
,  // measure 92
0001
0000
1000
0000
,  // measure 93
0002
0000
0000
0003
;
