#VERSION:0.82;
#TITLE:The End of Yggdrasil;
#SUBTITLE:- EOIII The End of the Raging Waves Remix -;
#ARTIST:ginkiha&wk.;
#TITLETRANSLIT:;
#SUBTITLETRANSLIT:;
#ARTISTTRANSLIT:;
#GENRE:;
#ORIGIN:;
#CREDIT:Akihiro;
#BANNER:[Mother Nature] - The End of Yggdrasil.png;
#BACKGROUND:[Mother Nature] - The End of Yggdrasil-bg.png;
#PREVIEWVID:;
#JACKET:[Mother Nature] - The End of Yggdrasil-jacket.png;
#CDIMAGE:;
#DISCIMAGE:;
#LYRICSPATH:;
#CDTITLE:;
#MUSIC:[Mother Nature] - The End of Yggdrasil.ogg;
#OFFSET:-0.074989;
#SAMPLESTART:55.859001;
#SAMPLELENGTH:25.945999;
#SELECTABLE:YES;
#DISPLAYBPM:185.000000;
#BPMS:0.000=185.000;
#STOPS:;
#DELAYS:;
#WARPS:;
#TIMESIGNATURES:0.000=4=4;
#TICKCOUNTS:0.000=4;
#COMBOS:0.000=1;
#SPEEDS:0.000=1.000=0.000=0;
#SCROLLS:0.000=1.000;
#FAKES:;
#LABELS:0.000=Song Start;
#BGCHANGES:;
#KEYSOUNDS:;
#ATTACKS:
;

//---------------dance-single - ----------------
#NOTEDATA:;
#CHARTNAME:;
#STEPSTYPE:dance-single;
#DESCRIPTION:;
#CHARTSTYLE:;
#DIFFICULTY:Beginner;
#METER:1;
#RADARVALUES:0.160497,0.222792,0.076168,0.000000,0.000000,165.000000,12.000000,0.000000,0.000000,0.000000,0.000000,0.000000,0.000000,0.160497,0.222792,0.076168,0.000000,0.000000,165.000000,12.000000,0.000000,0.000000,0.000000,0.000000,0.000000,0.000000;
#CREDIT:;
#DISPLAYBPM:185.000000;
#NOTES:
// measure 0
0000
0000
0000
0000
,  // measure 1
1000
0000
1000
0000
,  // measure 2
0001
0000
0001
0000
,  // measure 3
1000
0000
1000
0000
,  // measure 4
0010
0000
0010
0000
,  // measure 5
0100
0000
0100
0000
,  // measure 6
0010
0000
0010
0000
,  // measure 7
0100
0000
0100
0000
,  // measure 8
0001
0000
0001
0000
,  // measure 9
1001
0000
0000
0000
,  // measure 10
0001
0000
0000
0000
,  // measure 11
0010
0000
0000
0000
,  // measure 12
0100
0000
0000
0000
,  // measure 13
1000
0000
0001
0000
,  // measure 14
1000
0000
0000
0000
,  // measure 15
0001
0000
0100
0000
,  // measure 16
0001
0000
0000
0000
,  // measure 17
1001
0000
0000
0000
,  // measure 18
1000
0000
0000
0000
,  // measure 19
0010
0000
0000
0000
,  // measure 20
0100
0000
0000
0000
,  // measure 21
0001
0000
1000
0000
,  // measure 22
0001
0000
0000
0000
,  // measure 23
1000
0000
0010
0000
,  // measure 24
1000
0000
0000
0000
,  // measure 25
1001
0000
0000
0000
,  // measure 26
0100
0000
0000
0000
,  // measure 27
0100
0000
0000
0000
,  // measure 28
0010
0000
0000
0000
,  // measure 29
0010
0000
0000
0000
,  // measure 30
0001
0000
0000
0000
,  // measure 31
1000
0000
0000
0000
,  // measure 32
0001
0000
0010
0000
,  // measure 33
0100
0000
0000
0000
,  // measure 34
1000
0000
0000
0000
,  // measure 35
0010
0000
0000
0000
,  // measure 36
0100
0000
0000
0000
,  // measure 37
0001
0000
0000
0000
,  // measure 38
1000
0000
0000
0000
,  // measure 39
0100
0000
0000
0000
,  // measure 40
1000
0000
0000
0000
,  // measure 41
0001
0000
0000
1000
0000
0000
0001
0000
,  // measure 42
1000
0000
0000
0000
,  // measure 43
1001
0000
0000
0000
,  // measure 44
0010
0000
0100
0000
,  // measure 45
1000
0000
0000
0000
,  // measure 46
0001
0000
0001
0000
,  // measure 47
1000
0000
0000
0000
,  // measure 48
0010
0000
0100
0000
,  // measure 49
0001
0000
0000
0000
,  // measure 50
1000
0000
1000
0000
,  // measure 51
0001
0000
0000
0000
,  // measure 52
0010
0000
0100
0000
,  // measure 53
1000
0000
0000
0000
,  // measure 54
0001
0000
1000
0000
,  // measure 55
1001
0000
0000
0000
,  // measure 56
0100
0000
0000
0000
,  // measure 57
1001
0000
0000
0000
,  // measure 58
0010
0000
0000
0000
,  // measure 59
1001
0000
0000
0000
,  // measure 60
0100
0000
0000
0000
,  // measure 61
0001
0000
1000
0000
,  // measure 62
0000
1001
0000
0000
,  // measure 63
1001
0000
0000
0010
,  // measure 64
0000
0000
0100
0000
,  // measure 65
1000
0000
0000
0010
,  // measure 66
0000
0000
0100
0000
,  // measure 67
0001
0000
0000
0010
,  // measure 68
0000
0000
0100
0000
,  // measure 69
1000
0000
0000
0010
,  // measure 70
0000
0000
0100
0000
,  // measure 71
0001
0000
0000
0010
,  // measure 72
0000
0000
0100
0000
,  // measure 73
1000
0000
0000
0010
,  // measure 74
0000
0000
0100
0000
,  // measure 75
0001
0000
0000
0010
,  // measure 76
0000
0000
0100
0000
,  // measure 77
1000
0000
0000
0010
,  // measure 78
0000
0000
0100
0000
,  // measure 79
1001
0000
0000
0000
,  // measure 80
0010
0000
0100
0000
,  // measure 81
1000
0000
0000
0000
,  // measure 82
0100
0000
0010
0000
,  // measure 83
0001
0000
0000
0000
,  // measure 84
1000
0000
0001
0000
,  // measure 85
0100
0000
0000
0000
,  // measure 86
0001
0000
1000
0000
,  // measure 87
0100
0000
0000
0000
,  // measure 88
0001
0000
0010
0000
,  // measure 89
0100
0000
0000
0000
,  // measure 90
1000
0000
0010
0000
,  // measure 91
0100
0000
0000
0000
,  // measure 92
0001
0000
1000
0000
,  // measure 93
0100
0000
0000
0000
,  // measure 94
1000
0000
0000
0000
,  // measure 95
0001
0000
0000
1000
0000
0000
0001
0000
,  // measure 96
1000
0000
0000
0000
,  // measure 97
1001
0000
0000
0000
,  // measure 98
0100
0000
0001
0000
,  // measure 99
0010
0000
0000
0000
,  // measure 100
1000
0000
1000
0000
,  // measure 101
0001
0000
0000
0000
,  // measure 102
1000
0000
0010
0000
,  // measure 103
0100
0000
0000
0000
,  // measure 104
0001
0000
0001
0000
,  // measure 105
1000
0000
0000
0000
,  // measure 106
0001
0000
0100
0000
,  // measure 107
1000
0000
0000
0000
,  // measure 108
0010
0000
0010
0000
,  // measure 109
1000
0000
0000
0000
,  // measure 110
0010
0000
0000
0000
,  // measure 111
0100
0000
0000
0000
,  // measure 112
0001
0000
0000
0000
,  // measure 113
1000
0000
0000
0000
,  // measure 114
0100
0000
0000
0000
,  // measure 115
0010
0000
0000
0000
,  // measure 116
0001
0010
0100
1000
,  // measure 117
1001
0000
0000
0000
;

//---------------dance-single - ----------------
#NOTEDATA:;
#CHARTNAME:;
#STEPSTYPE:dance-single;
#DESCRIPTION:;
#CHARTSTYLE:;
#DIFFICULTY:Easy;
#METER:3;
#RADARVALUES:0.356358,0.334188,0.152336,0.000000,0.000000,369.000000,24.000000,0.000000,0.000000,0.000000,0.000000,0.000000,0.000000,0.356358,0.334188,0.152336,0.000000,0.000000,369.000000,24.000000,0.000000,0.000000,0.000000,0.000000,0.000000,0.000000;
#CREDIT:;
#DISPLAYBPM:185.000000;
#NOTES:
0000
0000
0000
0000
,
1000
0010
1000
0001
,
0010
0100
1000
0001
,
0001
0100
0001
1000
,
0100
0010
0001
1000
,
0100
1000
0001
0100
,
0010
1000
0001
0001
,
0010
0001
1000
0010
,
0100
0001
1000
0100
,
0110
0010
0001
1000
,
0010
0000
0000
0100
0000
0000
0001
0000
,
0010
0000
0000
0100
0000
0000
1000
0000
,
0000
0010
0000
0000
1000
0000
0001
0000
,
0010
0000
0000
0001
0000
0000
1000
0000
,
0100
0010
0001
0100
,
0001
0000
0000
1000
0000
0000
0010
0000
,
0100
0001
0010
0001
,
1000
0010
0100
0001
,
1000
0000
0000
0010
0000
0000
0100
0000
,
0001
0000
0000
0010
0000
0000
0100
0000
,
0000
1000
0000
0000
0001
0000
1000
0000
,
0010
0000
0000
0100
0000
0000
0100
0000
,
0001
0010
0001
1000
,
0001
0000
0000
0010
0000
0000
0100
0000
,
0000
1000
0000
0000
0010
0000
0100
0000
,
0001
0000
1001
0000
,
0001
0010
0100
0000
,
0010
0000
1001
0000
,
1000
0010
0100
0000
,
0010
0000
0011
0000
,
1000
0100
0001
0000
,
0010
0000
1010
0000
,
0001
0100
1000
0010
,
0001
0000
1001
0000
,
1000
0100
0010
0000
,
0100
0000
1001
0000
,
0001
0100
0010
0000
,
0100
0000
1100
0000
,
0001
0010
1000
0000
,
0100
0000
0101
0000
,
1000
0100
0010
0001
,
1000
0000
0000
0001
0000
0000
0010
0000
,
1001
0000
0000
0000
,
0011
0010
0100
1000
,
0001
1000
0100
0010
,
0001
1000
0010
0100
,
0001
0000
0000
0100
0000
0000
0001
0000
,
0010
0000
0000
0100
0000
0000
1000
0000
,
0001
0100
0010
1000
,
0001
0000
0000
0100
0000
0000
1000
0000
,
0100
0001
1000
0010
,
0100
0001
0100
0001
,
0010
0100
1000
0001
,
0100
0001
1000
0010
,
1000
0000
0000
0001
0000
0000
0010
0000
,
0100
0000
0000
0001
0000
0000
0100
0000
,
1000
0000
0000
0010
0000
0000
1000
0000
,
0001
0000
0000
0100
0000
0000
1000
0000
,
0100
0000
0000
0010
0000
0000
0100
0000
,
0001
0010
0100
1000
,
0001
0100
0010
1000
,
0001
0010
0001
0100
,
1001
0100
0010
0000
,
0001
0000
0000
0100
0000
0000
0001
0000
,
0000
0010
0000
0000
0001
0000
1000
0000
,
1000
0000
0000
0100
0000
0000
1000
0000
,
0000
0010
0000
0000
1000
0000
0001
0000
,
0001
0000
0000
0010
0000
0000
0001
0000
,
0000
0100
0000
0000
0001
0000
1000
0000
,
1000
0000
0000
0010
0000
0000
1000
0000
,
0001
1000
0010
0100
,
0001
0000
0000
0010
0000
0000
0001
0000
,
0000
0100
0000
0000
0001
0000
1000
0000
,
1000
0000
0000
0010
0000
0000
1000
0000
,
0000
0100
0000
0000
1000
0000
0001
0000
,
0001
0000
0000
0100
0000
0000
0001
0000
,
0000
0010
0000
0000
0001
0000
1000
0000
,
1000
0000
0000
0100
0000
0000
1000
0000
,
0001
1000
0100
0010
,
0001
0000
1001
0000
,
0001
0100
0010
0000
,
0100
0000
1001
0000
,
1000
0100
0010
0000
,
0100
0000
0101
0000
,
1000
0010
0001
0000
,
0100
0000
1100
0000
,
0001
0010
1000
0100
,
0001
0000
1001
0000
,
1000
0010
0100
0000
,
0010
0000
1001
0000
,
0001
0010
0100
0000
,
0010
0000
1010
0000
,
0001
0100
1000
0000
,
0010
0000
0011
0000
,
1000
0010
0100
0001
,
1000
0000
0000
0001
0000
0000
0100
0000
,
1001
0000
0000
0000
,
0101
0100
0010
1000
,
0001
1000
0010
0100
,
0001
1000
0100
0010
,
0001
0000
0000
0010
0000
0000
0001
0000
,
0100
0000
0000
0010
0000
0000
1000
0000
,
0001
0010
0100
1000
,
0001
0000
0000
0010
0000
0000
1000
0000
,
0010
0001
1000
0100
,
0010
0001
0010
0001
,
0100
0010
1000
0001
,
0010
0001
1000
0100
,
1000
0000
0000
0001
0000
0000
0100
0000
,
0110
0000
0000
1000
0000
0000
0001
0000
,
0010
0000
0000
1000
0000
0000
0001
0000
,
0100
0000
0000
1000
0000
0000
0010
0000
,
0100
0000
0000
1000
0000
0000
0100
0000
,
0001
0000
0000
1000
0000
0000
0001
0000
,
0010
0000
0000
1000
0000
0000
0001
0000
,
0100
1000
0010
0100
,
0001
1000
0010
0100
,
1001
0000
0000
0000
,
0000
0000
0000
0000
,
0000
0000
0000
0000
,
0000
0000
0000
0000
,
0000
0000
0000
0000
;

//---------------dance-single - ----------------
#NOTEDATA:;
#CHARTNAME:;
#STEPSTYPE:dance-single;
#DESCRIPTION:;
#CHARTSTYLE:;
#DIFFICULTY:Medium;
#METER:7;
#RADARVALUES:0.496907,0.599190,0.063474,0.038084,0.000000,532.000000,10.000000,6.000000,0.000000,0.000000,0.000000,0.000000,0.000000,0.496907,0.599190,0.063474,0.038084,0.000000,532.000000,10.000000,6.000000,0.000000,0.000000,0.000000,0.000000,0.000000;
#CREDIT:;
#DISPLAYBPM:185.000000;
#NOTES:
0000
0000
0000
0000
,
1000
0100
0010
0001
0000
1000
0010
0000
,
1000
0001
0000
0010
0100
1000
0001
0000
,
0001
0010
0100
1000
0000
0001
0100
0000
,
0001
1000
0000
0100
0010
0001
1000
0000
,
1000
0010
0100
0001
0000
1000
0100
0000
,
1000
0001
0000
0100
0010
1000
0001
0000
,
0001
0100
0010
1000
0000
0001
0010
0000
,
0001
1000
0010
0100
0001
0010
0100
1000
,
0001
0000
0110
0000
1000
0001
0010
0100
,
1000
0000
0000
0010
0000
0000
0100
0000
,
0001
0000
0000
0100
0000
0000
0010
0000
,
0000
1000
0000
0000
0001
0000
0010
0000
,
0100
0000
0000
1000
0000
0000
0010
0000
,
1000
0001
0100
0000
0001
1000
0100
0000
,
0010
0000
0000
0001
0000
0000
1000
0000
,
0010
1000
0100
0000
0010
0001
0100
0001
,
1000
0000
0001
0000
0001
1000
0100
0010
,
0001
0000
0000
0100
0000
0000
0010
0000
,
1000
0000
0000
0010
0000
0000
0100
0000
,
0000
0001
0000
0000
1000
0000
0100
0000
,
0010
0000
0000
0001
0000
0000
0100
0000
,
0001
1000
0010
0000
1000
0001
0010
0000
,
1000
0000
0000
0010
0000
0000
0001
0000
,
0000
0100
0000
0000
1000
0000
0100
0000
,
1001
0000
0000
0000
0000
0001
0010
0100
,
1000
0000
0000
0001
0000
0000
0100
0000
,
0010
0000
0000
0000
0000
1000
0100
0010
,
0001
0000
0000
1000
0000
0000
0010
0000
,
0100
0000
0000
0000
0000
1000
0100
0001
,
0010
0000
0000
0100
0000
0000
1000
0000
,
0010
0000
0000
0100
0000
0000
0001
0000
,
0010
0000
0000
0100
0000
0000
1000
0000
,
1001
0000
0000
0000
0000
1000
0100
0010
,
0001
0000
0000
1000
0000
0000
0010
0000
,
0100
0000
0000
0000
0000
0001
0010
0100
,
1000
0000
0000
0001
0000
0000
0100
0000
,
0010
0000
0000
0000
0000
0001
0010
1000
,
0100
0000
0000
0010
0000
0000
0001
0000
,
0200
0000
0000
0020
0000
0000
0000
0000
,
0000
0000
0330
0000
0000
1000
0010
0100
,
0001
0000
0000
1000
0000
0000
0001
0000
,
0110
0000
1001
0000
,
1000
0000
0010
0000
1000
0000
0001
0100
,
0001
0010
0100
1000
0000
0010
0100
0001
,
0000
0001
1000
0000
0100
0000
0010
0000
,
0010
0000
0001
0100
0000
0000
0010
0000
,
1000
0000
0100
0000
1000
0000
0001
0010
,
0001
0100
0010
1000
0000
1000
0100
0010
,
0001
0000
1000
0001
0000
0010
0100
0000
,
1000
0000
0010
0000
0100
0000
0001
1000
,
0001
0000
0100
0000
0001
0000
1000
0010
,
1000
0100
0010
0001
0000
0100
0010
1000
,
0000
1000
0001
0000
0010
0000
0100
0000
,
0100
0000
1000
0010
0000
1000
0010
0100
,
0001
0000
0010
0100
0000
0000
1000
0000
,
0001
0000
0000
0010
0000
0000
1000
0000
,
0001
0000
0000
0100
0000
0000
1000
0000
,
0001
0000
0000
0010
0000
0000
1000
0000
,
0001
0100
0010
1000
0001
0010
0100
1000
,
0001
1000
0100
0010
0001
1000
0010
0100
,
0001
1000
0001
1000
0010
0100
0010
0100
,
0001
0000
0010
0000
0100
1000
0010
0000
,
1001
0000
1000
0010
0100
0000
0001
0000
,
0010
0100
1000
0000
1000
0100
0010
0001
,
1000
0000
0001
0010
0100
0000
1000
0000
,
0010
0100
0001
0000
0001
0100
0010
1000
,
0001
0000
1000
0100
0010
0000
0001
0000
,
0100
0010
1000
0000
1000
0010
0100
0001
,
1000
0000
0001
1000
0100
0000
0010
0000
,
0001
0100
1000
0100
0001
0010
0100
1000
,
0001
0000
0001
0100
0010
0000
1000
0000
,
0100
0010
0001
0000
0001
0010
0100
1000
,
0001
0000
1000
0100
0010
0000
0001
0000
,
0100
0010
1000
0000
1000
0010
0100
0001
,
1000
0000
0001
0010
0100
0000
1000
0000
,
0010
0100
0001
0000
0001
0100
0010
1000
,
0001
0000
1000
0001
0010
0000
0100
0000
,
1000
0010
0001
0010
1000
0100
0010
0001
,
1000
0000
0000
0000
0000
1000
0100
0010
,
0001
0000
0000
1000
0000
0000
0010
0000
,
0100
0000
0000
0000
0000
0001
0010
0100
,
1000
0000
0000
0001
0000
0000
0100
0000
,
0010
0000
0000
0000
0000
0001
0010
1000
,
0100
0000
0000
0010
0000
0000
0001
0000
,
0100
0000
0000
0010
0000
0000
1000
0000
,
0100
0000
0000
0010
0000
0000
0001
0000
,
1001
0000
0000
0000
0000
0001
0010
0100
,
1000
0000
0000
0001
0000
0000
0100
0000
,
0010
0000
0000
0000
0000
1000
0100
0010
,
0001
0000
0000
1000
0000
0000
0010
0000
,
0100
0000
0000
0000
0000
1000
0100
0001
,
0010
0000
0000
0100
0000
0000
1000
0000
,
0002
0000
0000
2000
0000
0000
0000
0000
,
0000
0000
3003
0000
0000
0001
0100
0010
,
1000
0000
0000
0100
0000
0000
0010
0000
,
1001
0000
0110
0000
,
0001
0000
0100
0000
0001
0000
1000
0010
,
1000
0100
0010
0001
0000
0100
0010
1000
,
0000
1000
0001
0000
0010
0000
0100
0000
,
0100
0000
1000
0010
0000
0000
0100
0000
,
0001
0000
0010
0000
0001
0000
1000
0100
,
1000
0010
0100
0001
0000
0001
0010
0100
,
1000
0000
0001
1000
0000
0100
0010
0000
,
0001
0000
0100
0000
0010
0000
1000
0001
,
1000
0000
0010
0000
1000
0000
0001
0100
,
0001
0010
0100
1000
0000
0010
0100
0001
,
0000
0001
1000
0000
0100
0000
0010
0000
,
0010
0000
0001
0100
0000
0001
0100
0010
,
1000
0000
0100
0010
0000
0000
0001
0000
,
1000
0000
0000
0010
0000
0000
1000
0000
,
0001
0000
0000
1000
0000
0000
0001
0000
,
0100
0000
0000
0001
0000
0000
0010
0000
,
0100
0000
0000
1000
0000
0000
0010
0000
,
0100
0000
0000
0001
0000
0000
1000
0000
,
0001
0010
0100
1000
0001
0100
0010
1000
,
0001
1000
0100
0000
0010
0001
1000
0000
,
2002
0000
0000
0000
,
3003
0000
0000
0000
,
0000
0000
0000
0000
,
0000
0000
0000
0000
,
0000
0000
0000
0000
;

//---------------dance-single - ----------------
#NOTEDATA:;
#CHARTNAME:;
#STEPSTYPE:dance-single;
#DESCRIPTION:;
#CHARTSTYLE:;
#DIFFICULTY:Hard;
#METER:9;
#RADARVALUES:0.748081,0.902593,0.615693,0.012695,0.266589,726.000000,97.000000,2.000000,0.000000,0.000000,0.000000,0.000000,0.000000,0.748081,0.902593,0.615693,0.012695,0.266589,726.000000,97.000000,2.000000,0.000000,0.000000,0.000000,0.000000,0.000000;
#CREDIT:;
#DISPLAYBPM:185.000000;
#NOTES:
0000
0000
0000
0000
,
0001
0100
0001
1000
0010
1000
0001
0010
,
0001
1000
0100
1000
0010
0001
0010
1000
,
0001
0010
0001
1000
0100
1000
0001
0100
,
0001
1000
0010
1000
0100
0001
0100
1000
,
0001
0100
0001
0010
0100
1000
0010
0100
,
0001
1000
0010
1000
0100
0001
0100
1000
,
0001
0010
0001
0100
0010
1000
0100
0010
,
0001
0000
1000
0000
0001
0000
0100
0000
0010
1000
0010
1000
0001
0100
0001
0100
,
0010
0000
1100
0000
1000
0001
0010
0100
,
1000
0000
0001
0100
0000
0100
1000
0000
,
0011
0000
1000
0100
0000
0100
0001
0000
,
0001
0100
0000
0010
1000
0000
0101
0000
,
1100
0000
0100
1000
0000
0001
0100
0000
,
0010
0000
0000
0000
0100
0000
0000
0000
0001
0000
0000
0000
1000
0100
0010
0001
,
1000
0000
0001
0100
0000
0010
1000
0000
,
0100
0000
0001
0000
0100
0000
1000
0010
,
0100
0000
0001
0000
1000
0001
0010
0100
,
1000
0000
0001
0100
0000
0100
1000
0000
,
0011
0000
1000
0100
0000
0100
0001
0000
,
0001
0100
0000
0010
1000
0000
0101
0000
,
0110
0000
0100
0001
0000
0001
0010
0000
,
0100
0000
0000
0000
1000
0000
0000
0000
0001
0000
0000
0000
1000
0100
0010
0001
,
1000
0000
0001
0100
0000
0001
1000
0000
,
0100
0000
0010
0000
0000
0000
0001
0000
0100
0000
0010
0000
1000
0100
0010
0100
,
1000
0000
0000
0010
0000
0000
0100
0000
1001
0000
0000
0000
0001
0000
0000
0000
,
1000
0000
0001
0010
0000
0100
1000
0000
0011
0000
0000
0000
1000
0000
0000
0000
,
0001
0000
0000
0100
0000
0000
0010
0000
1001
0000
0000
0000
1000
0000
0000
0000
,
0001
0000
1000
0010
0000
0100
0001
0000
1010
0000
0000
0000
0001
0000
0000
0000
,
1000
0000
0000
0100
0000
0000
0010
0000
1001
0000
0000
0000
0010
0000
0000
0000
,
1000
0000
0001
0100
0000
0010
1000
0000
0101
0000
0000
0000
0100
0000
0000
0000
,
0001
0000
0000
0010
0000
0000
0100
0000
1001
0000
0000
0000
0010
0000
0000
0000
,
1000
0000
0001
0100
0000
0010
1000
0000
1000
0100
0000
0010
0001
0000
0100
0000
,
1001
0000
0000
0010
0000
0000
0100
0000
1001
0000
0000
0000
0010
0000
0000
0000
,
1000
0000
0001
0100
0000
0010
1000
0000
0101
0000
0000
0000
0010
0000
0000
0000
,
1000
0000
0000
0100
0000
0000
0010
0000
1001
0000
0000
0000
0010
0000
0000
0000
,
0001
0000
1000
0100
0000
0010
0001
0000
1100
0000
0000
0000
1000
0000
0000
0000
,
0001
0000
0000
0010
0000
0000
0100
0000
1001
0000
0000
0000
0100
0000
0000
0000
,
1000
0000
0001
0010
0000
0100
1000
0000
0011
0000
0000
0000
0100
0000
0000
0000
,
1000
0000
0000
0010
0000
0000
0100
0000
1001
0000
0000
0000
0100
0000
0000
0000
,
1000
0000
0001
1000
0000
0010
0100
0000
1001
0000
0100
0000
0010
0000
0001
0000
,
1001
0000
0000
0110
0000
0000
1100
0000
,
0101
0000
1001
0000
,
1000
0001
0100
0000
0001
1000
0100
0010
,
0001
1000
0010
0100
0000
0100
0001
0010
,
0000
0100
1000
0000
0011
0000
1001
0000
,
1010
0000
0010
0100
0000
0001
1000
0100
,
0010
0000
0001
1000
0100
0000
0010
0100
,
1000
0010
0100
0001
0000
1000
0010
0100
,
0010
0000
0100
0001
0000
0010
0001
0000
,
1000
0100
0001
0000
0001
0100
1000
0000
,
0001
1000
0010
0000
1000
0001
0010
0100
,
1000
0001
0100
0010
0000
0010
1000
0100
,
0000
0010
0001
0000
1100
0000
1001
0000
,
0101
0000
0100
0010
0000
1000
0001
0010
,
0100
0000
1000
0001
0010
0000
1100
0000
,
0011
0000
0010
1000
0001
0000
0101
0000
,
1100
0000
0100
0001
1000
0000
1100
0000
,
0011
0000
0010
1000
0001
0000
0101
0000
,
1100
0100
0010
0001
1000
0010
0100
0001
,
1000
0100
0010
0001
0100
0010
1000
0100
,
1000
0010
1000
0010
0100
0001
0100
0001
0010
0100
1000
0001
0010
0001
0100
0010
,
1000
0000
0010
0000
1000
0000
0001
0010
0100
1000
0001
0000
0010
0000
0100
0000
,
1001
0000
1000
0010
0100
0000
1010
0000
,
0100
0001
0010
0000
1100
0100
0010
0001
,
1001
0000
1000
0010
0100
0000
0101
0000
,
0001
0010
0100
0000
1010
0010
0100
0001
,
1001
0000
1000
0100
0010
0000
0011
0000
,
0010
1000
0001
0000
1100
0100
0010
0001
,
1001
0000
1000
0010
0100
0000
1001
0000
,
0001
0010
1000
0010
0001
1000
0010
0100
,
1001
0000
0001
0100
0010
0000
0101
0000
,
0010
1000
0100
0000
0011
0010
0100
1000
,
1001
0000
0001
0100
0010
0000
1010
0000
,
1000
0100
0010
0000
0101
0100
0010
1000
,
1001
0000
0001
0010
0100
0000
1100
0000
,
0100
0001
1000
0000
0011
0010
0100
1000
,
1001
0000
0001
0100
0010
0000
1001
0000
,
1000
0100
0001
0100
1000
0001
0010
0100
,
1001
0000
0000
0010
0000
0000
0100
0000
1001
0000
0000
0000
1000
0000
0000
0000
,
0001
0000
1000
0100
0000
0010
0001
0000
1100
0000
0000
0000
0001
0000
0000
0000
,
1000
0000
0000
0010
0000
0000
0100
0000
1001
0000
0000
0000
0001
0000
0000
0000
,
1000
0000
0001
0100
0000
0010
1000
0000
0101
0000
0000
0000
1000
0000
0000
0000
,
0001
0000
0000
0010
0000
0000
0100
0000
1001
0000
0000
0000
0100
0000
0000
0000
,
0001
0000
1000
0010
0000
0100
0001
0000
1010
0000
0000
0000
0010
0000
0000
0000
,
1000
0000
0000
0100
0000
0000
0010
0000
1001
0000
0000
0000
0100
0000
0000
0000
,
0001
0000
1000
0010
0000
0100
0001
0000
0001
0010
0000
0100
1000
0000
0010
0000
,
1000
0000
0000
0010
0000
0000
0100
0000
1001
0000
0000
0000
0001
0000
0000
0000
,
1000
0000
0001
0010
0000
0100
1000
0000
0011
0000
0000
0000
1000
0000
1000
0000
,
0001
0000
0000
0100
0000
0000
0010
0000
1001
0000
0000
0000
1000
0000
0000
0000
,
0001
0000
1000
0010
0000
0100
0001
0000
1010
0000
0000
0000
0001
0000
0001
0000
,
1000
0000
0000
0100
0000
0000
0010
0000
1001
0000
0000
0000
0010
0000
0000
0000
,
1000
0000
0001
0100
0000
0010
1000
0000
0101
0000
0000
0000
0100
0000
0100
0000
,
0001
0000
0000
0010
0000
0000
0100
0000
1001
0000
0000
0000
0010
1000
0010
1000
,
0001
0000
0010
0100
0000
0100
1000
0000
1001
0000
0001
0000
0010
0000
0100
0000
,
1001
0000
0000
0101
0000
0000
0011
0000
,
1010
0000
1001
0000
,
0001
1000
0010
0000
1000
0001
0010
0100
,
1000
0001
0100
0010
0000
0010
1000
0100
,
0000
0010
0001
0000
1100
0000
1001
0000
,
0101
0000
0100
0010
0000
1000
0001
0010
,
0100
0000
1000
0001
0010
0000
0100
0010
,
0001
0100
0010
1000
0000
0001
0100
0010
,
0100
0000
0010
1000
0000
0100
1000
0000
,
0001
0010
1000
0000
1000
0010
0001
0000
,
1000
0001
0100
0000
0001
1000
0100
0010
,
0001
1000
0010
0100
0000
0100
0001
0010
,
0000
0100
1000
0000
0011
0000
1001
0000
,
1010
0000
0010
0100
0000
0001
1000
0100
,
1000
0000
0000
0010
0000
0000
0100
0000
,
1001
0000
0000
0010
0000
0000
0100
0000
,
1001
0000
0000
0010
0000
0000
0100
0000
,
1001
0000
0000
0010
0000
0000
0100
1000
,
1001
0000
0000
0010
0000
0000
0100
0000
,
1001
0000
0000
0010
0000
0000
0100
0000
,
0001
0100
0001
0100
0010
1000
0010
1000
0100
0010
0001
1000
0100
1000
0010
0100
,
0001
0000
0100
0000
0001
0000
1000
0100
0010
0001
1000
0000
0100
0000
0010
0000
,
2002
0000
0000
0000
,
0000
0000
3003
0000
,
0000
0000
0000
0000
,
0000
0000
0000
0000
,
0000
0000
0000
0000
;
