#VERSION:0.81;
#TITLE:Swamp Thing;
#SUBTITLE:;
#ARTIST:Pegboard Nerds;
#TITLETRANSLIT:;
#SUBTITLETRANSLIT:;
#ARTISTTRANSLIT:;
#GENRE:;
#ORIGIN:;
#CREDIT:;
#BANNER:Swamp Thing - Pegboard Nerdsbn.png;
#BACKGROUND:Swamp Thing - Pegboard Nerdsbg.png;
#PREVIEWVID:;
#JACKET:Swamp Thing - Pegboard Nerdsjacket.png;
#CDIMAGE:;
#DISCIMAGE:;
#LYRICSPATH:;
#CDTITLE:encorerebirth.png;
#MUSIC:Swamp Thing - Pegboard Nerds.ogg;
#OFFSET:0.000;
#SAMPLESTART:35.591;
#SAMPLELENGTH:14.162;
#SELECTABLE:YES;
#BPMS:0.000=135.000,
112.000=67.500,
120.000=101.250,
132.000=135.000;
#STOPS:;
#DELAYS:;
#WARPS:;
#TIMESIGNATURES:0.000=4=4;
#TICKCOUNTS:0.000=4;
#COMBOS:0.000=1;
#SPEEDS:0.000=1.000=0.000=0;
#SCROLLS:0.000=1.000;
#FAKES:;
#LABELS:0.000=Song Start;
#BGCHANGES:;
#KEYSOUNDS:;
#ATTACKS:
;

//---------------dance-single - Spork!----------------
#NOTEDATA:;
#CHARTNAME:;
#STEPSTYPE:dance-single;
#DESCRIPTION:Spork!;
#CHARTSTYLE:;
#DIFFICULTY:Beginner;
#METER:1;
#RADARVALUES:0.085,0.098,0.072,0.041,0.000,47.000,7.000,4.000,0.000,0.000,0.000,0.000,0.000,0.085,0.098,0.072,0.041,0.000,47.000,7.000,4.000,0.000,0.000,0.000,0.000,0.000;
#CREDIT:Spork!;
#OFFSET:0.000;
#BPMS:0.000=135.000
,144.000=67.500
,152.000=101.250
,164.000=135.000
;
#STOPS:;
#DELAYS:;
#WARPS:;
#TIMESIGNATURES:0.000=4=4
;
#TICKCOUNTS:0.000=4
;
#COMBOS:0.000=1
;
#SPEEDS:0.000=1.000=0.000=0
;
#SCROLLS:0.000=1.000
;
#FAKES:;
#LABELS:0.000=Song Start
;
#NOTES:
0000
0000
0000
0000
,
0000
0000
0000
0000
,
0000
0000
0000
0000
,
0000
0000
0000
0000
,
0001
0000
0000
0000
,
0001
0000
0000
0000
,
0001
0000
0000
0000
,
0001
0000
0000
0000
,
1000
0000
1000
0000
,
1000
0000
1000
0000
,
1000
0000
0100
0000
,
0010
0000
0001
0000
,
0200
0000
0000
0000
,
0000
0000
0000
0000
,
0020
0000
0000
0000
,
0330
0000
0000
0000
,
1000
0000
0000
0000
,
0001
0000
0000
0000
,
1000
0000
0000
0000
,
0002
0000
0000
0000
,
0103
0000
0000
0000
,
0010
0000
0000
0000
,
0100
0000
0000
0000
,
0001
0000
1000
0000
,
0000
0000
0000
0000
,
0100
0000
0000
0000
,
0010
0000
0000
0000
,
0100
0000
1000
0000
,
0010
0000
0000
0000
,
0010
0000
0000
0000
,
0100
0000
0000
0000
,
0000
0000
0100
0000
,
0000
0000
0000
0000
,
0010
0000
0000
0000
,
0010
0000
0000
0000
,
0010
0000
0000
0000
,
1000
0000
0000
0000
,
0100
0000
0000
0000
,
0100
0000
0000
0000
,
0100
0000
0000
0000
,
0010
0000
0000
0000
,
1001
0000
0000
0000
,
1001
0000
0000
0000
,
1001
0000
0000
0000
,
0020
0000
0000
0030
,
0110
0000
0000
0000
,
0110
0000
0000
0000
,
1001
0000
0000
0000
,
1001
0000
0000
0000
;

//---------------dance-single - Spork!----------------
#NOTEDATA:;
#CHARTNAME:;
#STEPSTYPE:dance-single;
#DESCRIPTION:Spork!;
#CHARTSTYLE:;
#DIFFICULTY:Easy;
#METER:5;
#RADARVALUES:0.292,0.401,0.420,0.266,0.000,133.000,41.000,26.000,0.000,0.000,0.000,0.000,0.000,0.292,0.401,0.420,0.266,0.000,133.000,41.000,26.000,0.000,0.000,0.000,0.000,0.000;
#CREDIT:Spork!;
#NOTES:
// measure 0
0000
0000
0000
0000
,  // measure 1
0000
0000
0000
0000
,  // measure 2
0000
0000
0000
0000
,  // measure 3
0000
0000
0000
0000
,  // measure 4
1000
0000
0000
1000
0000
0000
1000
0000
,  // measure 5
0001
0000
0000
0001
0000
0000
0001
0000
,  // measure 6
0100
0000
0000
0100
0000
0000
0100
0000
,  // measure 7
0010
0000
0000
1000
0000
0000
0001
0000
,  // measure 8
0011
0001
0101
0100
,  // measure 9
0110
0010
1010
1000
,  // measure 10
1001
1001
1100
1100
,  // measure 11
0110
0110
1001
1001
,  // measure 12
0002
0023
0230
2300
,  // measure 13
3020
0230
0302
2003
,  // measure 14
3200
0000
0000
0000
,  // measure 15
0310
0000
0000
0000
,  // measure 16
0011
0001
0100
1000
,  // measure 17
1100
0100
0001
1000
,  // measure 18
1010
1000
0100
0001
,  // measure 19
0201
0000
0000
0300
,  // measure 20
0120
0001
0000
0031
,  // measure 21
0210
1000
0000
1300
,  // measure 22
1002
0100
0000
0103
,  // measure 23
0001
0010
0100
1000
,  // measure 24
0000
0000
0000
1001
0000
0001
0100
0000
,  // measure 25
0120
1000
0000
1030
,  // measure 26
1002
0010
0000
0013
,  // measure 27
0001
0100
0010
1000
,  // measure 28
0002
0000
0010
0000
,  // measure 29
0023
0000
0100
0000
,  // measure 30
0230
0000
0000
1000
,  // measure 31
0000
0000
2300
0000
,  // measure 32
0000
0001
0000
0000
,  // measure 33
3001
0000
0000
0010
0000
0000
0001
0000
,  // measure 34
0100
0000
0000
0010
0000
0000
1000
0000
,  // measure 35
0001
0000
0000
1000
0000
0000
0100
0000
,  // measure 36
1000
0010
0001
0100
,  // measure 37
1100
0000
0000
1001
0000
0000
0011
0000
,  // measure 38
0101
0000
0000
0110
0000
0000
1001
0000
,  // measure 39
1010
0000
0000
0110
0000
0000
0110
0000
,  // measure 40
2002
3003
0220
0330
,  // measure 41
0102
1000
0100
1003
,  // measure 42
2010
0001
0010
3001
,  // measure 43
0012
1000
0010
1003
,  // measure 44
0001
0100
0010
1000
,  // measure 45
0110
0000
0000
0010
,  // measure 46
1001
0000
0000
0000
,  // measure 47
1100
0000
0000
0010
,  // measure 48
1001
0000
0000
0110
,  // measure 49
0001
0000
0000
0000
;

//---------------dance-single - Spork!----------------
#NOTEDATA:;
#CHARTNAME:;
#STEPSTYPE:dance-single;
#DESCRIPTION:Spork!;
#CHARTSTYLE:;
#DIFFICULTY:Challenge;
#METER:10;
#RADARVALUES:0.763,0.832,0.368,0.276,0.983,459.000,36.000,27.000,44.000,1.000,3.000,0.000,0.000,0.763,0.832,0.368,0.276,0.983,459.000,36.000,27.000,44.000,1.000,3.000,0.000,0.000;
#CREDIT:Spork!;
#NOTES:
// measure 0
0000
0000
0000
0000
,  // measure 1
0000
0000
0000
0000
,  // measure 2
0000
0000
0000
0000
,  // measure 3
0000
0000
0000
0000
,  // measure 4
2010
0000
3100
1000
0100
0100
2000
0000
3001
1000
0100
1000
0020
0000
0130
0000
,  // measure 5
0102
0000
0013
0001
0010
0010
0002
0000
1003
0001
0010
0001
2000
0000
3001
0000
,  // measure 6
0201
0000
0301
0010
0001
0001
0200
0000
0310
1000
0001
1000
0200
0000
1300
0000
,  // measure 7
1100
0000
0000
0100
0000
0000
1001
0000
0000
0010
0000
0010
0100
0010
0001
0000
,  // measure 8
1002
0000
0000
0013
0M00
0010
1000
0000
2100
0000
0000
3010
0M00
0010
0001
0000
,  // measure 9
1002
0000
0000
0103
00M0
0100
1000
0000
0010
1000
0001
0010
M000
0010
0100
0000
,  // measure 10
0001
0011
0001
1001
1000
1010
0010
1001
,  // measure 11
1000
1100
1000
1010
0010
0110
0010
1001
,  // measure 12
1000
0100
1000
0100
1000
0100
1000
0100
0010
0001
0010
0001
0010
0001
0010
0001
,  // measure 13
0100
0010
0100
0010
0100
0010
0100
0010
1000
0001
1000
0001
1000
0001
1000
0001
,  // measure 14
0040
0000
0000
0000
,  // measure 15
0130
1000
0010
1000
0100
0010
0001
0100
0010
1000
0010
0100
0001
1000
0100
1000
,  // measure 16
11M0
0000
0000
0000
1000
0010
0000
0100
0000
1000
0100
0000
0010
0000
0100
0000
,  // measure 17
01M1
0000
0000
0000
0001
0010
0000
0100
0000
0001
0100
0000
0010
0000
0010
0000
,  // measure 18
1M01
0000
0000
0000
0001
0100
0000
1000
0000
0001
0010
0000
1000
0010
1000
0100
,  // measure 19
0010
0001
0100
0001
0010
0100
1000
0010
0100
0001
0100
0010
1000
0100
0010
0100
,  // measure 20
0120
0000
0000
0000
0031
0100
0010
0000
0000
0000
0100
0000
0001
0010
0100
1000
,  // measure 21
000M
0000
0000
0000
0010
0100
0001
0000
0000
0000
0001
0000
1000
0010
1000
0001
,  // measure 22
0040
0000
0000
0000
0130
1000
0010
0000
0000
0000
0010
0000
1000
0100
0010
0001
,  // measure 23
1000
0000
0000
0010
0000
0000
1000
0000
0000
0001
0000
0000
0100
0000
0000
0001
0000
0000
1000
0000
0000
0100
0000
0000
0010
0000
0000
0001
0000
0000
0100
0000
0001
0000
0100
0000
0001
0000
0000
1000
0000
0000
0001
0000
0000
0010
0000
0000
,  // measure 24
0000
0M00
0000
0M00
00M0
0000
1001
0000
0000
0000
0100
0000
1000
0010
0100
0001
,  // measure 25
M000
0000
0000
0000
0010
0100
1000
0000
0000
0000
1000
0000
0010
0100
0010
1000
,  // measure 26
0400
0000
0000
0000
1300
0001
0010
0000
0000
0000
0010
0000
0100
0010
0100
1000
,  // measure 27
0001
0010
0001
0100
0010
1000
0010
0100
0001
1000
0100
0010
0001
1000
0010
0100
,  // measure 28
000M
0000
M000
0000
00M0
0000
M000
0000
0M00
0000
000M
0010
1M00
0001
M010
0000
,  // measure 29
010M
0000
00M0
0100
100M
0010
M100
0002
00M0
0000
0M00
2003
00M0
0000
01M0
3100
,  // measure 30
000M
0000
0000
0000
0000
0000
00M0
0000
0000
1000
0000
0000
001M
0000
0000
0100
0000
0000
M001
0000
0000
0010
0000
0000
0M00
0000
0000
0000
0000
0000
000M
0000
,  // measure 31
0000
0100
0000
0000
M010
0000
0000
0001
0000
0000
01M0
0000
0000
0000
0000
0000
1M01
0000
0000
0000
0000
0000
000M
0000
0000
0010
0000
0000
100M
0000
0000
0100
,  // measure 32
0000
0000
M010
0000
0000
0002
0000
0000
0M00
0000
0000
0000
0000
0000
00M0
0000
0000
0000
0000
0000
2M00
0000
0000
0000
0000
0000
0M10
0000
0000
3003
0000
0000
,  // measure 33
1000
0001
0010
0001
0100
0001
1000
0001
0100
0001
0010
0001
0100
0001
1000
0000
,  // measure 34
0010
1000
0100
1000
0010
1000
0001
1000
0010
1000
0100
1000
0010
1000
0001
0000
,  // measure 35
0100
0010
1000
0010
0100
0010
0001
0010
0100
0010
1000
0010
0100
0001
1000
0000
,  // measure 36
0100
0010
0001
0010
0100
0010
1000
0010
0100
0010
0001
0010
0100
1000
0001
0000
,  // measure 37
0010
0100
1000
0010
1000
0100
0010
0001
0100
0001
0010
0100
0010
0001
0100
0001
,  // measure 38
1000
0000
0010
0000
0100
0000
0010
0000
1000
0000
0100
0000
0010
0000
0001
0000
0100
0000
0010
0000
1000
0000
0010
0000
0100
0000
0001
0000
0010
0000
0001
1000
,  // measure 39
0001
0100
0010
0100
0001
0010
0100
1000
0010
0100
0010
1000
0001
1000
0100
0010
,  // measure 40
0001
0010
0001
0100
0001
1000
0001
1000
0100
1000
0010
1000
0001
0100
0001
0010
,  // measure 41
0011
0001
1000
1010
0010
0100
1002
1003
,  // measure 42
1100
0000
1000
0000
0001
0000
0101
0000
0100
0000
0010
0000
1020
0030
1001
0000
,  // measure 43
1100
1000
0001
0101
0001
0010
0210
0010
,  // measure 44
1000
0000
0000
0010
0000
0000
0001
0000
0000
0010
0300
0010
0100
0010
0001
0000
,  // measure 45
1001
0000
0000
1000
0010
0100
0020
1030
,  // measure 46
0001
0000
0000
0000
0011
0000
0002
0103
,  // measure 47
1001
0000
0000
0002
0103
0010
2000
3001
,  // measure 48
0010
0000
0000
0200
0310
0000
1002
0000
,  // measure 49
0023
0030
0000
0000
;

//---------------dance-single - Spork!----------------
#NOTEDATA:;
#CHARTNAME:;
#STEPSTYPE:dance-single;
#DESCRIPTION:Spork!;
#CHARTSTYLE:;
#DIFFICULTY:Medium;
#METER:6;
#RADARVALUES:0.363,0.403,0.389,0.276,0.000,183.000,38.000,27.000,0.000,0.000,0.000,0.000,0.000,0.363,0.403,0.389,0.276,0.000,183.000,38.000,27.000,0.000,0.000,0.000,0.000,0.000;
#CREDIT:Spork!;
#NOTES:
// measure 0
0000
0000
0000
0000
,  // measure 1
0000
0000
0000
0000
,  // measure 2
0000
0000
0000
0000
,  // measure 3
0000
0000
0000
0000
,  // measure 4
1001
0000
0001
0010
0000
0001
1000
0000
,  // measure 5
1001
0000
1000
0010
0000
1000
0001
0000
,  // measure 6
1001
0000
1000
0100
0000
1000
0001
0000
,  // measure 7
0101
0000
0000
0110
0000
0000
1001
0000
,  // measure 8
0110
1000
0110
0001
,  // measure 9
1100
0010
0101
1000
,  // measure 10
1001
0011
0110
1010
,  // measure 11
1001
1100
0110
0101
,  // measure 12
0001
1000
0001
1000
0001
1000
0001
1000
,  // measure 13
0100
0010
0100
0010
0100
0010
0100
0010
,  // measure 14
2002
0000
0000
0000
,  // measure 15
3003
0000
0000
0000
,  // measure 16
0101
0000
0001
0000
0010
0010
0100
0000
,  // measure 17
1100
0000
1000
0000
0010
0010
1000
0000
,  // measure 18
1001
0000
1000
0000
0100
0100
0010
0000
,  // measure 19
2001
0100
0000
3100
,  // measure 20
1001
0000
0001
0010
0000
0010
0100
0000
,  // measure 21
1001
0000
1000
0010
0000
0010
1000
1000
,  // measure 22
0001
0000
0001
0100
0000
0100
0010
0000
,  // measure 23
2000
3200
0320
0032
,  // measure 24
0003
0000
0000
1001
0000
1000
0010
0000
,  // measure 25
0100
0000
0001
0010
0000
0001
0100
0000
,  // measure 26
0010
0000
1000
0001
0000
0001
0010
0000
,  // measure 27
0002
0023
0230
2300
,  // measure 28
3002
0000
0010
0000
,  // measure 29
0203
0000
1000
0000
,  // measure 30
0320
0000
0000
0001
,  // measure 31
0000
0000
2030
0000
,  // measure 32
0000
0000
0001
0000
0000
0001
0000
0000
,  // measure 33
3001
0000
0100
0000
0100
0010
0100
0000
,  // measure 34
0001
0000
0010
0000
0010
0100
0010
0000
,  // measure 35
0001
0000
1000
0000
1000
0001
1000
0000
,  // measure 36
0010
1000
0100
0100
,  // measure 37
1000
0000
0010
0100
0010
0100
0010
0000
,  // measure 38
1000
0000
0100
0010
0100
0010
0100
0000
,  // measure 39
1000
0000
0001
1000
0001
1000
0001
0000
,  // measure 40
2002
3003
0220
0330
,  // measure 41
1010
0000
0000
1001
0000
0000
1010
0000
,  // measure 42
0110
0000
0000
0101
0000
0000
1001
0000
,  // measure 43
0011
0000
0000
0110
0000
0000
0011
0000
,  // measure 44
0002
0203
0320
2030
,  // measure 45
3001
0000
0000
0001
1000
0000
0200
0000
,  // measure 46
0310
0000
0010
0200
,  // measure 47
1300
0000
0000
1000
0001
0000
2000
0000
,  // measure 48
3010
0000
0000
0010
0100
0000
1001
0000
,  // measure 49
0200
0300
0000
0000
;

//---------------dance-single - Spork!----------------
#NOTEDATA:;
#CHARTNAME:;
#STEPSTYPE:dance-single;
#DESCRIPTION:Spork!;
#CHARTSTYLE:;
#DIFFICULTY:Hard;
#METER:9;
#RADARVALUES:0.551,0.554,0.389,0.235,0.328,316.000,38.000,23.000,0.000,0.000,0.000,0.000,0.000,0.551,0.554,0.389,0.235,0.328,316.000,38.000,23.000,0.000,0.000,0.000,0.000,0.000;
#CREDIT:Spork!;
#NOTES:
// measure 0
0000
0000
0000
0000
,  // measure 1
0000
0000
0000
0000
,  // measure 2
0000
0000
0000
0000
,  // measure 3
0000
0000
0000
0000
,  // measure 4
0100
0000
0001
1000
0001
0000
0100
0000
0001
1000
0001
0000
0010
0000
0010
0000
,  // measure 5
0100
0000
1000
0001
1000
0000
0100
0000
1000
0001
1000
0000
0010
0000
0100
0000
,  // measure 6
0001
0000
0010
0100
0010
0000
0001
0000
0100
0010
0100
0000
0001
0000
1000
0000
,  // measure 7
0010
0000
0000
0010
0000
0000
0010
0000
0000
1000
0000
1000
0100
0010
0001
0000
,  // measure 8
1001
0000
0000
1000
0000
1000
0010
0000
0100
0000
0000
0001
0000
0001
1000
0000
,  // measure 9
0010
0000
0000
0100
0000
0100
0001
0000
0000
0001
1000
0001
0000
0001
0010
0000
,  // measure 10
0100
1100
0000
0101
0000
1100
0000
1001
,  // measure 11
0001
0011
0000
1010
0000
0011
0000
1001
,  // measure 12
1000
0010
0001
0010
1000
0100
0001
0100
,  // measure 13
1000
0001
0100
1000
0100
0001
0010
1000
,  // measure 14
0010
0000
0100
0000
1000
0000
0010
0000
0100
0000
0001
0000
1000
0001
1000
0000
,  // measure 15
2002
0000
0000
3003
,  // measure 16
0110
0000
0000
0000
0100
0001
0000
1000
0000
0001
0010
0000
0100
0000
0010
0000
,  // measure 17
1001
0000
0000
0000
0010
1000
0000
0001
0000
1000
0100
0000
0010
0000
0010
0000
,  // measure 18
0110
0000
0000
0000
0100
1000
0000
0010
0000
1000
0001
0000
0100
0000
0010
0000
,  // measure 19
0100
0000
0000
0100
0000
0000
0100
0000
0000
0001
0000
0001
0010
0100
1000
0000
,  // measure 20
2001
0000
3010
0110
0000
0100
0001
0010
,  // measure 21
0110
0000
0001
1001
0000
0100
1100
1010
,  // measure 22
0200
0000
0301
0011
0000
0001
1000
0100
,  // measure 23
1000
0000
0010
1000
0000
0100
1000
0000
0001
0010
0000
0001
0100
0000
0010
0000
,  // measure 24
0000
0000
0000
0000
0000
0000
1001
0000
0000
0000
0001
0000
0010
0001
0020
0000
,  // measure 25
0000
0000
0030
0000
0100
1000
0001
0000
0000
0000
0010
0000
0011
0000
0101
0000
,  // measure 26
0020
0000
0000
0000
1030
0100
1000
0000
0000
0000
1000
0000
0010
0000
0100
0000
,  // measure 27
0001
0000
0010
0001
0000
0100
0001
0000
1000
0010
0000
1000
0100
0000
0010
0000
,  // measure 28
0020
0001
0100
1000
,  // measure 29
0230
1000
0010
0001
,  // measure 30
2300
0000
0000
0010
0000
0000
0001
0000
,  // measure 31
0000
0100
0000
0000
3002
0000
0000
0010
,  // measure 32
0000
0000
0000
0000
1000
0000
0000
0000
0000
0000
0103
0000
0000
0110
0000
0000
,  // measure 33
0010
0000
1000
0100
1000
0000
0010
0000
0100
0001
0100
0000
0001
1000
0001
0000
,  // measure 34
1000
0000
0001
0010
0001
0000
0100
0000
0010
1000
0010
0000
0100
0010
0100
0000
,  // measure 35
0001
0000
0010
0100
0010
0000
0001
0000
1000
0010
1000
0000
0001
1000
0001
0000
,  // measure 36
0010
0000
0100
1000
0100
0000
0010
0000
0001
0100
0001
0000
0100
0010
0100
0000
,  // measure 37
0002
0000
0100
0000
1003
0000
0020
0000
0100
0000
1030
0000
0001
1000
0001
0000
,  // measure 38
2000
0000
0010
0000
3001
0000
0200
0000
0010
0000
0301
0000
0010
0100
0010
0000
,  // measure 39
0002
0000
0010
0000
1003
0000
0200
0000
0010
0000
1300
0000
0010
1000
0001
0000
,  // measure 40
2002
3003
0220
0330
,  // measure 41
0101
0100
0001
1001
0000
0100
1100
0100
,  // measure 42
0110
0010
0001
0101
0000
0010
1001
1001
,  // measure 43
1100
0100
1000
1001
0000
0100
0101
0100
,  // measure 44
0010
0000
0000
0010
0000
0000
0010
0000
0000
1000
0000
1000
0100
0010
0001
0000
,  // measure 45
1001
0000
0000
1000
0001
0100
0000
0100
,  // measure 46
0010
0000
0000
0000
0100
0000
0020
1030
,  // measure 47
0001
0000
0000
0001
1000
0000
0002
0000
,  // measure 48
0013
0000
0000
0010
0100
0000
1001
0000
,  // measure 49
0200
0300
0000
0000
;
