#TITLE:Strelitzia;
#SUBTITLE:;
#ARTIST:NIKITA;
#TITLETRANSLIT:;
#SUBTITLETRANSLIT:;
#ARTISTTRANSLIT:;
#GENRE:;
#CREDIT:Telperion;
#BANNER:[Mother Nature] - Strelitzia.png;
#BACKGROUND:[Mother Nature] - Strelitzia-bg.png;
#JACKET:[Mother Nature] - Strelitzia-jacket.png
#LYRICSPATH:;
#CDTITLE:cdtitle.png;
#MUSIC:[Mother Nature] - Strelitzia.ogg;
#OFFSET:-0.772000;
#SAMPLESTART:22.694000;
#SAMPLELENGTH:12.502000;
#SELECTABLE:YES;
#BPMS:0.000000=230.000000
;
#STOPS:
;
#BGCHANGES:;
#KEYSOUNDS:;
#ATTACKS:;

//---------------dance-single - Telperion----------------
#NOTES:
     dance-single:
     Telperion:
     Hard:
     10:
     0.905676,1.000000,0.564607,0.540410,0.629134,649.000000,70.000000,67.000000,0.000000,0.000000,0.000000,0.905676,1.000000,0.564607,0.540410,0.629134,649.000000,70.000000,67.000000,0.000000,0.000000,0.000000:
0000
0000
0000
0000
,
0000
0000
0000
0000
,
0000
0000
0000
0000
,
0000
0000
0000
0000
,
0000
0000
0000
0000
,
0000
0000
0000
0010
,
0102
0000
0000
1003
0001
0000
0010
0000
,
0100
0000
1000
0010
1010
0000
0010
0100
,
0001
0000
0000
0100
0000
0000
0110
0000
0000
0000
0000
0000
0010
0000
0000
1000
0000
0000
0001
0000
0000
0100
0001
0100
,
0001
0000
1000
0100
1000
0000
1001
0000
,
0001
0100
0001
0000
1001
0000
0000
0000
,
0000
0000
0000
0000
0110
0000
0000
0000
0000
0000
1000
0001
1000
0100
1000
0001
,
0010
0000
0000
0001
0100
0001
0100
0000
0000
0000
0000
0000
,
0010
0100
0010
0100
0000
0000
0000
0000
0000
0010
1000
0010
,
1000
0001
1010
0011
,
1001
0000
0000
1000
0100
1000
0100
0000
0000
0000
0000
0000
,
0010
0000
0100
0000
0010
0000
0100
0000
0000
1000
0001
1000
0010
0000
0000
0000
0000
0000
0100
0000
0001
0000
0100
0000
,
0001
0000
0000
1000
0001
1000
0100
0000
0000
0000
0000
0000
0110
0000
0000
0000
0000
0000
1100
0000
0000
0000
0000
0000
,
1000
0001
1000
0100
0010
0001
0010
0100
1000
0001
0100
0001
,
1000
0010
0100
0001
0100
0010
1000
0100
1000
0001
0100
0010
,
1000
0001
0010
0100
0000
0000
0000
0000
0000
0000
0000
0000
,
2000
0000
0000
0000
3001
1000
0010
0000
,
0100
0001
2000
0000
,
3100
0020
0000
0031
,
0002
0000
0000
0000
0103
0010
0001
0000
,
0020
0000
0000
1030
0010
0000
0000
0000
,
0100
0001
2000
0000
0000
0000
3000
0000
,
1200
0000
0000
0000
1300
0100
0001
0000
,
0100
0010
0002
0000
,
0000
0000
0000
0013
0100
1000
0001
0000
0000
0000
0000
0000
0100
0000
0000
0000
0000
0000
0010
0000
0000
0000
0000
0000
,
1010
0000
0001
0010
0001
0010
0110
0000
,
1000
0001
1000
0001
0101
0000
0100
0010
,
0100
0010
1010
0000
0011
0000
1100
0000
,
1002
0000
0100
0000
1003
0100
0001
0000
,
0100
1000
2001
0100
,
3001
0000
0000
0000
1020
0000
0000
0000
0100
0000
0000
0000
0130
0000
0010
1000
,
0002
0000
0100
0000
1003
0100
0010
0000
,
1000
0000
0010
0100
2000
0000
0010
0000
,
3001
0000
0000
0000
0102
0000
0000
0000
1000
0000
0000
0000
0013
0000
0001
0010
,
0200
0000
1000
0000
0310
0100
0001
0000
,
0100
0000
1000
0001
0200
0000
0010
0000
,
0301
0000
0000
0000
0100
0000
0000
0000
0001
0000
0000
0000
2000
0000
0000
0000
0000
0000
0000
0000
0000
0000
0000
0000
0100
0000
0000
0000
0000
0000
3000
0000
0000
1000
0000
0000
0001
0000
0000
0000
0000
0000
0000
0000
0000
0000
0000
0000
,
0011
0000
0000
0000
0000
0000
0010
0000
0100
0000
1000
0001
2000
0000
0000
0000
,
0100
0000
0000
0000
0001
0000
0000
0000
3010
0000
1000
0001
1000
0000
0001
0100
,
0001
0000
0010
0001
0020
0000
0000
0000
0130
0000
1000
0100
1000
0000
0000
0000
,
0002
0000
0000
0000
0103
0001
0020
0000
,
0000
0000
0030
0010
0100
0000
0000
0000
2000
0000
0000
0000
0000
0000
0000
0000
,
0001
0000
0020
0000
3000
0000
1030
0010
,
0200
0000
0000
0000
0000
0000
0301
0100
0010
0000
0000
0000
2000
0000
0000
0000
,
0000
3100
0001
0100
0020
0000
0000
0031
,
0010
0000
0200
0000
0000
0000
1300
0001
,
0100
0001
0100
0000
1000
0000
0000
0000
0100
0000
0000
0000
0001
1000
0001
0000
,
0010
0000
0000
0000
0001
0000
1000
0000
0100
1000
0100
0000
0001
0000
0000
0000
,
0100
0000
0000
0000
1000
0001
1000
0000
0010
0000
0100
0000
0010
0000
1000
0000
,
0002
0000
0000
0000
0000
0000
0103
0000
0001
0000
0010
0000
0100
1000
0200
0000
,
0000
0000
0000
0000
1300
0000
0000
0000
0010
1000
0020
0000
0000
0000
0000
0000
,
0130
0000
0101
0000
1100
0000
0011
0001
,
1000
0010
1000
0000
0001
0000
0010
0000
0100
0000
1000
0000
0001
0100
0001
0000
,
1000
0000
0010
0000
0100
0000
0001
0000
1000
0010
1000
0000
0001
0000
0010
0000
,
0100
0000
1000
0000
0001
0010
0001
0000
1000
0000
0010
0000
0100
0000
0001
0000
,
0010
0100
0010
0001
1000
0010
0100
0001
,
1000
0100
0010
0100
0001
0100
1000
0001
,
0100
0000
0010
0000
0001
0000
0010
0000
0100
0000
0001
1000
0001
0000
0000
0000
,
0020
0000
0000
0100
0000
0000
0130
1000
,
0001
0100
0001
0010
0200
0000
0000
0010
,
0000
0000
0310
0001
1000
0010
0100
0001
,
0100
0010
1000
0001
0010
0001
1000
0010
0100
0001
1000
0100
,
0010
0001
0010
0100
1000
0001
0100
0010
1000
0010
0100
0010
,
1000
0000
0001
1000
0001
0000
0000
0000
0011
0000
0000
0000
0110
0000
0000
0000
,
1200
0000
0000
1300
0001
0000
0011
0000
,
1010
0000
1100
0000
0102
0000
0000
1003
,
0001
0011
1100
0101
,
1000
0010
1000
0001
0010
0001
0010
0100
1000
0001
0010
0001
,
1000
0010
1000
0010
0100
0001
1000
0100
0010
0001
1000
0010
,
0100
0000
0001
0000
1000
0000
0200
0000
0000
0000
0000
0000
0001
0000
0000
0000
0000
0000
1300
0000
0000
0100
0000
0000
,
0120
0031
0011
1020
,
0130
0000
0000
0000
0001
0000
1000
0000
1200
0000
0000
0000
0310
0000
0100
0010
,
0001
0000
1002
0000
0103
0000
0010
1000
,
1020
0000
0000
0000
0130
0000
0001
0100
0001
0000
1000
0000
0200
0000
0000
0000
,
0310
0000
0000
0000
0001
0000
1000
0000
2001
0000
0000
0000
3100
0000
0010
0100
,
0010
0000
0001
1000
0002
0000
0000
0000
0203
0000
0000
0000
0310
0000
1000
0000
,
2001
3010
0110
0102
,
1003
0000
0001
0010
0210
0000
1300
0000
,
1010
0000
1002
0000
0010
0000
1003
0010
,
0200
0000
0000
0000
0301
0000
0100
0010
1000
0000
0001
0000
0010
0000
0000
0000
,
0110
0000
1000
0100
0020
0000
0000
0130
,
0001
0100
2000
0000
0001
0000
3010
0000
,
2001
0000
0100
0000
3001
0100
1000
0000
,
0100
0000
0001
1000
0002
0000
0100
0000
,
1003
0021
0100
0031
,
2000
0000
0100
0000
3001
0100
0010
0000
,
0001
0000
0010
0100
0002
0000
0010
0000
,
1003
0000
0000
0000
2100
0000
0000
0000
0001
0000
0000
0000
3010
0000
1000
0010
,
0200
0000
0001
0000
0310
0100
1000
0000
,
0100
0000
0001
1000
0200
0000
0010
0000
,
1300
0000
0000
0000
0100
0000
0000
0000
1000
0000
0000
0000
0002
0000
0000
0000
0000
0000
0000
0000
0000
0000
0000
0000
0103
0000
0000
0000
0000
0000
0001
0000
0000
0000
0000
0000
1000
0000
0000
0000
0000
0000
0100
0000
0000
0010
0000
0000
,
0002
0000
0003
1100
,
1001
1100
2010
0000
,
3000
0101
1001
0101
,
0011
0000
0000
1000
0001
1000
0100
0000
0000
0110
0000
0000
,
0001
1000
0001
0100
0000
0000
0110
0000
0000
0000
0000
0000
,
0000
0000
0000
2002
0000
0000
0000
0000
3000
1003
0100
0010
,
0001
0000
0000
1000
0100
1000
0100
0000
0000
0000
0000
0000
,
0010
0100
0010
0100
0000
0000
0000
0000
0000
0010
0001
0010
,
0001
1000
0011
1010
,
1001
0000
0000
0001
0100
0001
0100
0000
0000
0000
0000
0000
,
0010
0000
0100
0000
0010
0000
0100
0000
0000
0001
1000
0001
0010
0000
0000
0000
0000
0000
0100
0000
1000
0000
0100
0000
,
1000
0000
0000
0001
1000
0001
0100
0000
0000
0000
0000
0000
0110
0000
0000
0000
0000
0000
0101
0000
0000
0000
0000
0000
,
0001
1000
0001
0100
0010
1000
0010
0100
0001
1000
0100
1000
,
0001
0010
0100
1000
0100
0010
0001
0100
0001
1000
0100
0010
,
0001
1000
0010
0100
0001
0010
0100
1000
0010
0100
0001
0010
,
0000
2200
0000
0000
,
0000
0000
0000
0000
,
0000
0000
0000
0000
0000
0000
0000
0000
3000
0301
0100
1000
,
0010
0000
0000
0000
;

//---------------dance-single - Telperion----------------
#NOTES:
     dance-single:
     Telperion:
     Medium:
     8:
     0.586500,0.643652,0.596870,0.080658,0.104856,425.000000,74.000000,10.000000,0.000000,0.000000,0.000000,0.586500,0.643652,0.596870,0.080658,0.104856,425.000000,74.000000,10.000000,0.000000,0.000000,0.000000:
0000
0000
0000
0000
,
0000
0000
0000
0000
,
0000
0000
0000
0000
,
0000
0000
0000
0000
,
0000
0000
0000
0000
,
0000
0000
0000
0100
,
1001
0000
0000
1000
0100
0000
0100
0000
,
0010
0000
0001
0010
0001
0000
1000
0010
,
1000
0001
0010
0000
0001
0100
0001
1000
,
0100
0000
1000
0100
1000
0000
0001
0100
,
0001
1000
0100
0000
0010
0000
0000
0000
,
0000
1002
0000
0103
,
0020
1000
1000
0000
,
0100
0100
0000
0001
,
0100
1030
1010
1001
,
0021
0100
0100
0000
,
0100
0031
1001
1000
,
0010
0110
0101
1001
,
1100
0000
0000
0011
,
0000
0000
0000
0000
0000
0000
1000
0001
1000
0001
1000
0001
,
1000
0001
1000
0010
0000
0000
0000
0000
0000
0000
0000
0000
,
0100
0000
0100
0001
,
1000
0100
0010
0000
,
0100
0001
0000
0100
,
0010
0000
0000
0000
0001
1000
0001
0000
,
0010
0000
0000
0100
1000
0000
0000
0000
,
0001
0100
0010
0000
0000
0000
0000
0000
,
1000
0000
0010
0100
,
0001
1000
0100
0000
,
0000
0010
0000
0010
,
0011
0000
1000
0010
1000
0000
1010
0000
,
0001
0100
0001
1000
0100
0000
1000
0000
,
0001
1001
1100
0110
,
0011
0001
0001
1000
,
0001
0101
0010
1000
,
1000
0001
1000
1100
,
0100
0100
0010
0001
,
0010
0110
1000
1000
,
0001
0100
0100
0110
,
1000
0001
0001
0100
,
0001
0011
0010
0100
,
1000
0001
1000
0010
,
0110
0000
0000
0100
0001
1000
0001
0000
,
0010
0100
2000
0000
,
0001
0020
0000
3030
,
0100
0000
0000
0000
0001
0100
0001
0000
,
0000
1000
0010
0000
,
0100
0100
0000
0001
,
1000
0000
1000
0100
,
0000
0100
0010
0000
0001
0000
0000
0000
,
1000
0000
1000
0000
0000
0000
0010
0100
,
0010
1000
0001
0000
,
0000
0001
0010
0100
1000
0000
0001
0000
,
1000
0000
0000
0000
0000
1000
0010
0100
,
0010
0000
0100
0001
,
0000
0001
1000
0000
,
1000
1010
0110
0101
,
1001
1000
1000
0100
,
1000
1100
0001
0001
,
0001
0010
0001
0101
,
1000
0010
0100
0001
,
1000
1100
0001
0010
,
0001
1000
0010
0110
,
0001
0000
0000
0001
0000
0000
0001
0000
,
0010
0000
0100
0000
1000
0000
0000
1000
,
0000
1000
0010
0100
,
0101
0000
0000
0001
0000
0000
0001
0000
,
0100
0000
0001
0000
1000
0000
0000
1000
,
0000
0001
1000
0000
0100
0000
1000
0000
,
0010
0000
0000
0100
0001
0000
0011
0000
,
0110
0000
1100
0000
1010
0000
0000
0010
,
0100
0101
1001
1100
,
0110
0000
0000
1001
,
0000
0000
0000
0000
0000
0000
0001
1000
0001
1000
0001
1000
,
0001
0000
1000
0000
0001
0000
0020
0000
0000
0000
0000
0000
0030
0000
0000
0000
0000
0000
0100
0000
0000
1000
0000
0000
,
0001
0010
0011
1100
,
1000
0000
0001
0100
0010
0000
1000
0000
,
1010
0000
0101
0000
0001
0000
1000
0100
,
0010
0000
0001
0010
0001
1000
0001
0000
,
0010
0000
0100
1000
0001
0000
0100
0010
,
1000
0010
0100
0000
0001
0000
0001
0100
,
0010
1000
1010
0101
,
0001
0000
1000
0100
0010
0000
0001
0000
,
0011
0000
1100
0000
0001
0000
1000
0100
,
0010
1000
0010
0001
,
1000
0000
0001
0100
0010
0000
0001
0000
,
0010
1000
0010
0000
0100
0000
0001
1000
,
0100
0000
0010
0000
0001
1000
0010
0000
,
0001
0000
0010
0100
0001
0000
1000
0000
,
1010
0101
0001
1000
,
1100
0000
1000
0100
0010
0001
0010
0000
,
1000
0010
0001
1000
,
0010
0110
0001
0100
,
0101
0000
0001
0000
1000
0001
0010
0000
,
1000
0000
0010
0100
1000
0000
0001
0000
,
0100
0000
0010
0000
1000
0000
0001
0010
,
0100
0000
0000
0110
,
1100
0101
0110
0000
,
0000
0110
0101
1100
,
0110
0000
0000
1001
,
0000
0000
0110
0000
,
0000
2001
0000
3100
,
0020
0001
0001
0000
,
0100
0100
0000
1000
,
0100
0031
0011
1001
,
1020
0100
0100
0000
,
0100
1030
1001
0001
,
0010
0110
1100
1001
,
0101
0000
0000
1010
,
0000
0000
0000
0000
0000
0000
0001
1000
0001
1000
0001
1000
,
0001
1000
0001
0010
0100
1000
0100
0010
0001
1000
0010
0100
,
0000
0020
0000
0000
,
0000
0000
0000
0000
,
0000
0000
0000
0000
0000
0000
0000
0000
0000
1030
0010
1000
,
0001
0000
0000
0000
;

//---------------dance-single - Telperion----------------
#NOTES:
     dance-single:
     Telperion:
     Challenge:
     10:
     1.000000,1.000000,0.314567,0.153251,1.000000,1224.000000,39.000000,19.000000,0.000000,0.000000,0.000000,1.000000,1.000000,0.314567,0.153251,1.000000,1224.000000,39.000000,19.000000,0.000000,0.000000,0.000000:
0000
0000
0000
0000
,
0000
0000
0000
0000
,
0000
0000
0000
0000
,
0000
0000
0000
0000
,
0000
0000
0000
0000
,
0000
0000
0000
0010
,
2100
0000
0000
3001
1000
0000
0010
0000
,
0100
0000
0001
0010
0011
0000
0010
0100
,
1000
0000
0000
0100
0000
0000
0110
0000
0000
0000
0000
0000
0010
0000
0000
0001
0000
0000
1000
0000
0000
0010
1000
0010
,
0100
0000
0001
0100
0001
0000
1001
0001
,
1000
0100
1000
0000
1001
0000
0000
0000
,
0000
0000
0000
0000
0110
0000
0000
0000
0000
0000
0001
1000
0001
0100
0001
1000
,
0010
0000
0000
1000
0100
1000
0100
0000
0000
0000
0000
0000
,
0010
0100
0010
0100
0000
0000
0000
0000
0000
0010
0001
0010
,
0001
1000
0011
1010
,
1001
0000
0000
0001
0100
0001
0100
0000
0000
0000
0000
0000
,
0010
0000
0100
0000
0010
0000
0100
0000
0000
0001
1000
0001
0010
0000
0000
0000
0000
0000
0100
0000
1000
0000
0100
0000
,
1000
0000
0000
0001
1000
0001
0100
0000
0000
0000
0000
0000
0110
0000
0000
0000
0000
0000
0101
0000
0000
0000
0000
0000
,
0001
1000
0001
0100
0010
1000
0010
0100
0001
1000
0100
1000
,
0001
0010
0100
1000
0100
0010
0001
0100
0001
1000
0100
0010
,
0001
1000
0010
0100
0000
0000
0000
0000
0000
0000
0000
0000
,
0002
0000
0000
0000
1003
0001
0010
0000
,
0100
1000
0002
0000
,
0103
0020
0000
1030
,
2000
0000
0000
0000
3100
0010
1000
0000
,
0020
0000
0000
0031
0010
0000
0000
0000
,
0100
1000
0002
0000
0000
0000
0003
0000
,
0201
0000
0000
0000
0301
0100
1000
0000
,
0100
0010
2000
0000
,
0000
0000
0000
3010
0100
0001
1000
0000
0000
0000
0000
0000
0100
0000
0000
0000
0000
0000
0010
0000
0000
0000
0000
0000
,
0011
0000
1000
0010
1000
0010
0110
0000
,
0001
1000
0001
1000
1100
0000
0100
0010
,
0100
0000
0010
0000
0011
0000
0000
0000
1010
0000
0000
0000
0001
0000
0100
0001
,
1000
0100
1000
0001
1000
0100
0010
0001
1000
0001
0010
0100
1000
0001
1000
0100
,
0010
0001
1000
0100
1000
0001
0010
0001
1000
0010
0100
0001
0100
0010
1000
0001
,
0100
0010
1000
0001
0100
0001
1000
0010
1000
0001
0100
0010
1000
0010
0100
0001
,
1000
0100
0010
0001
0010
0100
1000
0001
0010
0001
1000
0100
0010
0001
0010
0100
,
1000
0001
0010
0100
0010
0001
1000
0001
0100
0010
1000
0001
1000
0010
0100
0001
,
1000
0010
0100
0001
1000
0001
0100
0010
0100
0001
1000
0010
0100
0010
1000
0001
,
0100
0001
1000
0100
1000
0001
0010
0100
1000
0100
0010
0001
1000
0100
1000
0001
,
0010
0100
1000
0001
1000
0100
0010
0100
1000
0001
0100
0010
0100
0001
1000
0010
,
0100
0001
1000
0010
0100
0010
1000
0001
1000
0010
0100
0001
1000
0001
0100
0010
,
1000
0000
0000
0000
0000
0000
0001
0000
1000
0000
0100
1000
0002
0000
0000
0000
,
1000
0000
0000
0000
0103
0000
0001
0000
1000
0010
1000
0001
1000
0010
1000
0001
,
1000
0010
1000
0001
0010
0100
0010
0001
0010
0100
0010
0001
0010
0100
1000
0001
,
0100
0010
1000
0001
1000
0010
0100
0001
1000
0001
0100
0010
1000
0001
1000
0010
,
0100
0001
1000
0010
1000
0001
0100
0001
1000
0100
0010
0001
0010
0100
1000
0001
,
0010
0100
1000
0001
0010
0001
1000
0100
1000
0001
0010
0100
1000
0100
0010
0001
,
1000
0010
0100
0001
0100
0010
1000
0001
0100
0001
1000
0010
0100
0001
0100
0010
,
1000
0001
0100
0010
0100
0001
1000
0001
0010
0100
1000
0001
1000
0100
0010
0001
,
1000
0100
0010
0001
1000
0001
0010
0100
0010
0001
1000
0100
0010
0100
1000
0001
,
0100
0001
1000
0010
1000
0001
0100
0010
1000
0010
0100
0001
1000
0010
1000
0001
,
0100
0010
1000
0001
1000
0010
0100
0010
1000
0001
0010
0100
0010
0001
1000
0100
,
0010
0001
1000
0100
0010
0100
1000
0001
1000
0100
0010
0001
1000
0001
0010
0100
,
1000
0001
0100
0010
0100
0001
1000
0010
0100
0010
1000
0001
0100
0010
0100
0001
,
1000
0010
0100
0001
0100
0010
1000
0010
0100
0001
1000
0100
1000
0001
0010
0100
,
1000
0000
1010
0000
0011
0000
1100
1000
,
0100
0010
0001
1000
0001
0010
0100
1000
0001
1000
0100
0010
0001
1000
0001
0010
,
0100
1000
0001
0010
0001
1000
0100
1000
0001
0100
0010
1000
0010
0100
0001
1000
,
0010
0100
0001
1000
0010
1000
0001
0100
0001
1000
0010
0100
0001
0100
0010
1000
,
0001
0010
0100
1000
0100
0010
0001
1000
0100
1000
0001
0010
0100
1000
0100
0010
,
0001
1000
0100
0010
0100
1000
0001
1000
0010
0100
0001
1000
0001
0100
0010
1000
,
0001
0100
0010
1000
0001
1000
0010
0100
0010
1000
0001
0100
0010
0100
0001
1000
,
0100
1000
0001
0010
0001
1000
0100
0010
0001
0010
0100
1000
0001
0010
0001
1000
,
0100
0010
0001
1000
0001
0010
0100
0010
0001
1000
0010
0100
0010
1000
0001
0100
,
0010
1000
0001
0100
0010
0100
0001
1000
0001
0100
0010
1000
0001
1000
0010
0100
,
0001
1000
0100
0010
0100
1000
0001
0010
0100
0010
0001
1000
0100
0010
0100
1000
,
0001
0010
0100
1000
0100
0010
0001
0010
0100
1000
0001
0100
0001
1000
0010
0100
,
0001
1000
0010
0100
0001
0100
0010
1000
0010
0100
0001
1000
0010
1000
0001
0100
,
0010
0000
0000
0000
0000
0000
0101
0000
0101
0000
0000
0000
1000
0100
0010
0001
,
1000
0010
0100
0001
1000
0100
1000
0001
0010
0000
0000
0000
0000
0000
1100
0000
,
1100
0000
0000
0000
0001
0100
0010
1000
0001
0010
0100
1000
0001
1000
0010
1000
,
0001
0010
0001
1000
0010
1000
0010
0100
0001
1000
0010
1000
,
0001
0010
0001
0010
0100
1000
0001
0100
0010
1000
0001
0010
,
0100
0000
1000
0000
0001
0000
0200
0000
0000
0000
0000
0000
1000
0000
0000
0000
0000
0000
0301
0000
0000
0100
0000
0000
,
0001
0010
0100
1000
0001
0010
0100
1000
0001
1000
0100
0010
0001
1000
0001
0010
,
0100
1000
0001
0010
0001
1000
0100
1000
0001
0100
0010
1000
0010
0100
0001
1000
,
0010
0100
0001
1000
0010
1000
0001
0100
0001
1000
0010
0100
0001
0100
0010
1000
,
0001
0010
0100
1000
0100
0010
0001
1000
0100
1000
0001
0010
0100
1000
0100
0010
,
0001
1000
0100
0010
0100
1000
0001
1000
0010
0100
0001
1000
0001
0100
0010
1000
,
0001
0000
0000
0100
0000
0000
0010
0000
1000
0000
0001
0000
1000
0000
0000
0010
0000
0000
0100
0000
0000
0010
0000
0000
1000
0000
0000
0001
0000
0000
0010
0000
0100
0000
1000
0000
0100
0000
0000
0010
0000
0000
0001
0000
1000
0000
0001
0000
,
0100
0001
1000
0010
1000
0001
0100
0010
1000
0010
0100
0001
1000
0010
1000
0001
,
0100
0010
1000
0001
1000
0010
0100
0010
1000
0001
0010
0100
0010
0001
1000
0100
,
0010
0001
1000
0100
0010
0100
1000
0001
1000
0100
0010
0001
1000
0001
0010
0100
,
1000
0001
0100
0010
0100
0001
1000
0010
0100
0010
1000
0001
0100
0010
0100
0001
,
1000
0010
0100
0001
0100
0010
1000
0010
0100
0001
1000
0100
1000
0001
0010
0100
,
1000
0000
0000
0010
0000
0000
0100
0000
0001
0000
0100
0000
0010
0000
0000
1000
0000
0000
0001
0000
0000
0010
0000
0000
0001
0000
0000
1000
0000
0000
0100
0000
0010
0000
0001
0000
1000
0000
0000
0010
0000
0000
0100
0000
0001
0000
0100
0000
,
0010
0100
0001
1000
0001
0100
0010
1000
0001
1000
0010
0100
0001
1000
0001
0100
,
0010
1000
0001
0100
0001
1000
0010
1000
0001
0010
0100
1000
0100
0010
0001
1000
,
0100
0010
0001
1000
0100
1000
0001
0010
0001
1000
0100
0010
0001
0010
0100
1000
,
0001
0100
0010
1000
0010
0100
0001
1000
0010
1000
0001
0100
0010
1000
0010
0100
,
0001
1000
0010
0100
0010
1000
0001
1000
0100
0010
0001
1000
0001
0010
0100
1000
,
0001
0000
0000
0010
0000
0000
0100
0000
1000
0000
0001
0000
0100
0000
0000
0010
0000
0000
1000
0000
0000
0010
0000
0000
0100
0000
0000
0001
0000
0000
1000
0000
0100
0000
0010
0000
0001
0000
0000
1000
0000
0000
0100
0000
1000
0000
0001
0000
,
0100
0001
1000
0100
1000
0001
0010
0100
1000
0100
0010
0001
1000
0100
1000
0001
,
0010
0100
1000
0001
1000
0100
0010
0100
1000
0001
0100
0010
0100
0001
1000
0010
,
0100
0001
1000
0010
0100
0010
1000
0001
1000
0010
0100
0001
1000
0001
0100
0010
,
2000
0000
3000
1100
,
0110
0101
1002
0000
,
0003
0101
0110
1100
,
1000
0001
0100
0010
1000
0100
1000
0001
0100
0000
0000
0000
0001
0010
0001
1000
,
0010
0100
0001
0010
0100
0000
0000
0000
0220
0000
0000
0000
0000
0000
0000
0000
,
0330
0000
0000
2002
0000
0000
0000
0000
0003
3001
0100
0010
,
1000
0000
0000
0001
0100
0001
0100
0000
0000
0000
0000
0000
,
0010
0100
0010
0100
0000
0000
0000
0000
0000
0010
1000
0010
,
1000
0001
1010
0011
,
1001
0000
0000
1000
0100
1000
0100
0000
0000
0000
0000
0000
,
0010
0000
0100
0000
0010
0000
0100
0000
0000
1000
0001
1000
0010
0000
0000
0000
0000
0000
0100
0000
0001
0000
0100
0000
,
0001
0000
0000
1000
0001
1000
0100
0000
0000
0000
0000
0000
0110
0000
0000
0000
0000
0000
1100
0000
0000
0000
0000
0000
,
1000
0001
1000
0100
0010
0001
0010
0100
1000
0001
0100
0001
,
1000
0010
0100
0001
0100
0010
1000
0100
1000
0001
0100
0010
,
1000
0001
0010
0100
1000
0010
0100
0001
0010
0100
1000
0010
,
0000
0202
0000
0000
,
0000
0000
0000
0000
,
0000
0000
0000
0000
0000
0000
0000
0000
0003
1300
0100
0001
,
0010
0000
0000
0000
;

//---------------dance-single - Telperion----------------
#NOTES:
     dance-single:
     Telperion:
     Easy:
     4:
     0.284608,0.367801,0.282304,0.072592,0.000000,203.000000,35.000000,9.000000,0.000000,0.000000,0.000000,0.284608,0.367801,0.282304,0.072592,0.000000,203.000000,35.000000,9.000000,0.000000,0.000000,0.000000:
0000
0000
0000
0000
,
0000
0000
0000
0000
,
0000
0000
0000
0000
,
0000
0000
0000
0000
,
0000
0000
0000
0000
,
0000
0000
0000
0000
,
0110
0000
0000
0000
,
0000
0000
1001
0000
,
0000
0110
0000
0000
,
1001
0000
0000
0110
,
0000
0000
1001
0000
,
0000
0110
0000
0000
,
2002
0000
0000
0000
,
0000
0000
0000
0000
,
0000
3003
0000
0000
,
1001
0000
0000
0000
,
0000
0000
1001
0000
,
0000
0001
0001
0001
,
1001
0000
0000
0110
,
0000
0000
2001
0000
,
0000
3010
0000
0000
,
0001
0000
0001
0100
,
0000
0100
1000
0000
,
1000
0010
0000
0001
,
1000
0000
1000
0100
,
0000
0100
0001
0000
,
0010
1000
0000
0000
,
0001
0000
0001
0100
,
0000
0100
1000
0000
,
0010
0001
0000
1000
,
0010
0000
0000
0100
,
0000
0001
0010
0000
,
0000
0100
0100
0100
,
0100
0000
1000
0001
,
0000
0001
0100
0000
,
0100
0010
0000
0000
,
1000
0000
1000
0001
,
0000
0001
0010
0000
,
0100
1000
0000
0000
,
0001
0000
0001
0100
,
0000
0010
1000
0000
,
1000
0001
0000
0010
,
0110
0000
0000
1001
,
0000
0000
0210
0000
,
0000
0002
0000
0000
,
0303
0000
0000
0000
,
0000
0000
0000
0000
,
0000
0000
0000
0000
,
0000
0000
0000
0000
,
0000
0000
0000
0000
,
0000
0000
0000
0000
,
0000
0000
0000
0000
,
0000
0000
0000
0000
,
0000
0000
0000
0000
,
0000
0000
0000
0000
,
0000
0000
0000
0000
,
0000
0100
0100
0100
,
0010
0000
1000
0001
,
0000
0001
0010
0000
,
0001
1000
0000
1000
,
0100
0000
1000
0001
,
0000
0001
0100
0000
,
0100
0010
0000
1000
,
0001
0000
0000
0001
,
0000
0000
0001
0000
,
0000
0001
0000
0000
,
1001
0000
0000
1000
,
0000
0000
1000
0000
,
0000
0010
0010
0010
,
0110
0000
0000
0001
,
0001
0001
1001
0000
,
0000
1000
1000
1000
,
1001
0000
0000
0110
,
0000
0000
2002
0000
,
0000
3003
0000
0000
,
0001
1000
0001
0010
,
0000
0100
1000
0001
,
1000
0010
0000
0100
,
0001
0010
0100
1000
,
0000
0100
1000
0010
,
0100
0001
0000
1000
,
0010
0001
0100
1000
,
0000
0001
0010
1000
,
0100
0001
0000
1000
,
0010
0100
0001
0010
,
0000
0001
0010
0100
,
1000
0010
0000
0100
,
0001
0000
0001
1000
,
0000
1000
0100
0000
,
0010
0001
0000
1000
,
0010
0000
0010
0100
,
0000
0100
0001
0000
,
1000
0100
0000
0010
,
0110
0000
0001
1000
,
0000
1000
0010
0000
,
0100
0001
0000
1000
,
0100
0000
0000
0010
,
0010
0010
0110
0000
,
0000
1000
1000
1000
,
1001
0000
0000
0110
,
0000
0000
1001
0000
,
0000
0110
0000
0000
,
1001
0000
0000
0000
,
0000
0000
0000
0000
,
0000
0000
0100
0100
,
0100
0000
0000
0000
,
0000
0000
1001
0000
,
0000
0010
0010
0010
,
0110
0000
0000
1001
,
0000
0000
0110
0000
,
0000
1001
0000
0000
,
0000
0202
0000
0000
,
0000
0000
0000
0000
,
0000
0000
0000
0303
,
1000
0000
0000
0000
;

//---------------dance-single - Telperion----------------
#NOTES:
     dance-single:
     Telperion:
     Beginner:
     1:
     0.091029,0.137925,0.008066,0.000000,0.000000,78.000000,1.000000,0.000000,0.000000,0.000000,0.000000,0.091029,0.137925,0.008066,0.000000,0.000000,78.000000,1.000000,0.000000,0.000000,0.000000,0.000000:
// measure 0
0000
0000
0000
0000
,  // measure 1
0000
0000
0000
0000
,  // measure 2
0000
0000
0000
0000
,  // measure 3
0000
0000
0000
0000
,  // measure 4
0000
0000
0000
0000
,  // measure 5
0000
0000
0000
0000
,  // measure 6
1000
0000
0000
0000
,  // measure 7
0000
0000
0001
0000
,  // measure 8
0000
0000
0000
0000
,  // measure 9
1000
0000
0000
0000
,  // measure 10
0000
0000
0001
0000
,  // measure 11
0000
0000
0000
0000
,  // measure 12
0010
0000
0000
0000
,  // measure 13
0000
0000
0000
0000
,  // measure 14
0000
0000
0000
0000
,  // measure 15
0010
0000
0000
0000
,  // measure 16
0000
0000
0000
0000
,  // measure 17
0000
0000
0000
0000
,  // measure 18
0100
0000
0000
0100
,  // measure 19
0000
0000
0100
0000
,  // measure 20
0000
0100
0000
0000
,  // measure 21
1000
0000
0000
0000
,  // measure 22
0000
0000
0001
0000
,  // measure 23
0000
0000
0000
0000
,  // measure 24
0100
0000
0000
0000
,  // measure 25
0000
0000
0010
0000
,  // measure 26
0000
0000
0000
0000
,  // measure 27
0001
0000
0000
0000
,  // measure 28
0000
0000
1000
0000
,  // measure 29
0000
0000
0000
0000
,  // measure 30
0100
0000
0000
0000
,  // measure 31
0000
0000
0010
0000
,  // measure 32
0000
0000
0000
0000
,  // measure 33
0001
0000
0000
0001
,  // measure 34
0000
0000
0001
0000
,  // measure 35
0000
0000
0000
0000
,  // measure 36
1000
0000
0000
1000
,  // measure 37
0000
0000
1000
0000
,  // measure 38
0000
0000
0000
0000
,  // measure 39
0010
0000
0000
0010
,  // measure 40
0000
0000
0010
0000
,  // measure 41
0000
0000
0000
0000
,  // measure 42
0100
0000
0000
0000
,  // measure 43
0000
0000
0001
0000
,  // measure 44
0000
0000
0000
0000
,  // measure 45
1000
0000
0000
0000
,  // measure 46
0000
0000
0000
0000
,  // measure 47
0000
0000
0000
0000
,  // measure 48
0000
0000
0000
0000
,  // measure 49
0000
0000
0000
0000
,  // measure 50
0000
0000
0000
0000
,  // measure 51
0001
0000
0000
0000
,  // measure 52
0000
0000
1000
0000
,  // measure 53
0000
0000
0000
0000
,  // measure 54
0100
0000
0000
0000
,  // measure 55
0000
0000
0010
0000
,  // measure 56
0000
0000
0000
0000
,  // measure 57
0001
0000
0000
0000
,  // measure 58
0000
0000
1000
0000
,  // measure 59
0000
0000
0000
0000
,  // measure 60
0010
0000
0000
0000
,  // measure 61
0000
0000
0100
0000
,  // measure 62
0000
0000
0000
0000
,  // measure 63
0001
0000
0000
0000
,  // measure 64
0000
0000
1000
0000
,  // measure 65
0000
0000
0000
0000
,  // measure 66
1000
0000
0000
0000
,  // measure 67
0000
0000
0001
0000
,  // measure 68
0000
0000
0000
0000
,  // measure 69
0001
0000
0000
0000
,  // measure 70
0000
0000
1000
0000
,  // measure 71
0000
0000
0000
0000
,  // measure 72
0010
0000
0000
0010
,  // measure 73
0000
0000
0010
0000
,  // measure 74
0000
0010
0000
0000
,  // measure 75
0100
0000
0000
0000
,  // measure 76
0000
0000
0001
0000
,  // measure 77
0000
0000
0000
0000
,  // measure 78
0010
0000
0000
0000
,  // measure 79
0000
0000
1000
0000
,  // measure 80
0000
0000
0000
0000
,  // measure 81
0100
0000
0000
0000
,  // measure 82
0000
0000
1000
0000
,  // measure 83
0000
0000
0000
0000
,  // measure 84
0010
0000
0000
0000
,  // measure 85
0000
0000
0001
0000
,  // measure 86
0000
0000
0000
0000
,  // measure 87
0100
0000
0000
0000
,  // measure 88
0000
0000
0001
0000
,  // measure 89
0000
0001
0000
0000
,  // measure 90
0001
0000
0000
0000
,  // measure 91
0000
0000
1000
0000
,  // measure 92
0000
1000
0000
0000
,  // measure 93
1000
0000
0000
0000
,  // measure 94
0000
0000
0100
0000
,  // measure 95
0000
0100
0000
0000
,  // measure 96
0100
0000
0000
0000
,  // measure 97
0000
0000
0010
0000
,  // measure 98
0000
0000
0000
0000
,  // measure 99
0100
0000
0000
0000
,  // measure 100
0000
0000
0010
0000
,  // measure 101
0000
0000
0000
0000
,  // measure 102
0001
0000
0000
0000
,  // measure 103
0000
0000
1000
0000
,  // measure 104
0000
0000
0000
0000
,  // measure 105
1000
0000
0000
0000
,  // measure 106
0000
0000
0001
0000
,  // measure 107
0000
0000
0000
0000
,  // measure 108
0001
0000
0000
1000
,  // measure 109
0000
0000
0001
0000
,  // measure 110
0000
1000
0000
0000
,  // measure 111
0000
0000
0000
0000
,  // measure 112
0000
0000
0000
0000
,  // measure 113
0000
0000
0000
0000
,  // measure 114
0110
0000
0000
0000
;
