#VERSION:0.83;
#TITLE:春菊;
#SUBTITLE:;
#ARTIST:SUWAKI;
#TITLETRANSLIT:Shungiku;
#SUBTITLETRANSLIT:;
#ARTISTTRANSLIT:;
#GENRE:DANCECORE;
#ORIGIN:;
#CREDIT:;
#BANNER:[Mother Nature] - Shungiku.png;
#BACKGROUND:[Mother Nature] - Shungiku-bg.png;
#PREVIEWVID:;
#JACKET:[Mother Nature] - Shungiku-jacket.png;
#CDIMAGE:;
#DISCIMAGE:;
#LYRICSPATH:;
#CDTITLE:cdtitle.png;
#MUSIC:[Mother Nature] - Shungiku.ogg;
#OFFSET:0.000000;
#SAMPLESTART:23.858000;
#SAMPLELENGTH:11.228069;
#SELECTABLE:YES;
#BPMS:0.000=171.000;
#STOPS:;
#DELAYS:;
#WARPS:;
#TIMESIGNATURES:0.000=4=4;
#TICKCOUNTS:0.000=4;
#COMBOS:0.000=1;
#SPEEDS:0.000=1.000=0.000=0;
#SCROLLS:0.000=1.000;
#FAKES:;
#LABELS:0.000=Song Start;
#BGCHANGES:;
#KEYSOUNDS:;
#ATTACKS:
;

//---------------dance-single - ----------------
#NOTEDATA:;
#CHARTNAME:9646_BEG;
#STEPSTYPE:dance-single;
#DESCRIPTION:;
#CHARTSTYLE:Dance;
#DIFFICULTY:Beginner;
#METER:2;
#RADARVALUES:0.144531,0.230037,0.073848,0.000000,0.000000,137.000000,127.000000,10.000000,0.000000,0.000000,0.000000,0.000000,0.000000,0.000000,0.144531,0.230037,0.073848,0.000000,0.000000,137.000000,127.000000,10.000000,0.000000,0.000000,0.000000,0.000000,0.000000,0.000000;
#CREDIT:9646;
#NOTES:
0000
0000
0000
0000
,
0000
0000
0000
0000
,
0000
0000
0000
0000
,
0000
0000
0000
0000
,
0000
0000
0000
0000
,
0000
0000
0000
0000
,
0000
0000
0000
0000
,
0000
0000
0000
0000
,
0000
0000
0000
0000
,
0100
0000
0000
0000
,
0100
0000
0000
0000
,
0100
0000
0000
0000
,
0100
0000
0000
0000
,
0010
0000
0010
0000
,
1000
0000
1000
0000
,
0010
0000
0010
0000
,
0001
0001
0001
0001
,
0001
0000
0001
0000
,
0001
0000
0000
0000
,
1000
0000
1000
0000
,
1000
0000
0000
0000
,
0100
0000
0100
0000
,
0100
0000
0000
0000
,
0010
0000
0010
0000
,
0010
0000
0001
0000
,
1000
0000
1000
0000
,
1000
0000
0000
0000
,
0001
0000
0001
0000
,
0001
0000
0000
0000
,
0100
0000
0000
0000
,
0010
0000
0000
0000
,
0100
0000
0100
0000
,
0010
0000
0000
0000
,
1000
0000
0000
0000
,
1000
0000
0000
0000
,
0001
0000
0000
0000
,
0001
0000
0000
0000
,
1000
0000
1000
0000
,
0100
0000
0100
0000
,
0010
0000
0010
0000
,
0001
0000
0001
0000
,
1001
0000
0000
0000
,
0110
0000
0000
0000
,
1001
0000
0000
0000
,
0110
0000
0000
0000
,
1001
0000
0000
0000
,
0110
0000
0000
0000
,
1001
0000
0000
0000
,
0110
0000
0000
0000
,
1000
0000
0001
0000
,
1000
0000
0001
0000
,
0010
0000
0001
0000
,
0010
0000
0001
0000
,
1000
0000
0100
0000
,
1000
0000
0100
0000
,
1000
0000
0001
0000
,
1000
0000
0001
0000
,
1001
0000
0000
0000
,
0000
0000
0000
0000
,
0000
0000
0000
0000
,
0000
0000
0000
0000
,
0000
0000
0000
0000
,
0000
0000
0000
0000
,
0000
0000
0000
0000
,
0000
0000
0000
0000
,
0100
0000
0000
0000
,
0100
0000
0000
0000
,
0100
0000
0000
0000
,
0100
0000
0000
0000
,
0010
0000
0010
0000
,
1000
0000
1000
0000
,
0010
0010
0010
0000
,
0001
0001
0001
0000
,
1000
0000
0001
0000
,
1000
0000
0001
0000
,
0100
0000
0010
0000
,
1000
0000
1000
0000
,
0001
0000
1000
0000
,
0001
0000
1000
0000
,
0100
0000
0010
0000
,
0001
0000
1000
0000
,
0001
0001
0001
0000
,
1000
1000
1000
0000
,
0010
0000
0010
0000
,
0100
0000
0100
0000
,
0001
0001
0001
0000
,
1000
1000
1000
0000
,
0100
0000
0010
0000
,
0001
0001
0001
0000
,
1001
0000
0000
0000
;

//---------------dance-single - ----------------
#NOTEDATA:;
#CHARTNAME:9646_CSP;
#STEPSTYPE:dance-single;
#DESCRIPTION:;
#CHARTSTYLE:Dance;
#DIFFICULTY:Challenge;
#METER:11;
#RADARVALUES:0.766966,1.018735,0.162466,0.073848,0.631402,727.000000,705.000000,22.000000,10.000000,0.000000,0.000000,0.000000,0.000000,0.000000,0.766966,1.018735,0.162466,0.073848,0.631402,727.000000,705.000000,22.000000,10.000000,0.000000,0.000000,0.000000,0.000000,0.000000;
#CREDIT:9646;
#NOTES:
0000
0000
0000
0000
,
0000
0000
0000
0000
,
0000
0000
0000
0000
,
0000
0000
0000
0000
,
0000
0000
0000
0000
,
0000
0000
0000
0000
,
0000
0000
0000
0000
,
0000
0000
0000
0000
,
0000
0000
0000
0000
,
0010
0000
0000
0010
0000
0000
0001
0000
1000
0000
0100
0000
0010
0000
0100
0000
,
1000
0000
0000
1000
0000
0000
0001
0000
0100
0000
1000
0000
0100
0000
0100
0000
,
0010
0000
0000
0010
0000
0000
1000
0000
0001
0000
0100
0000
0010
0000
0100
0000
,
0001
0000
0000
0001
0000
0000
1000
0000
0100
0000
1000
0000
0001
0000
0001
0000
,
0100
0001
0100
0010
0100
0001
0100
0010
,
1000
0100
0010
0100
1000
0100
0010
0100
,
1000
1000
0001
0001
0100
0100
0010
0010
,
1000
0001
1000
0001
1000
0100
1000
0100
0010
0001
0010
0001
1000
0010
0100
0001
,
1000
0000
0100
0000
0010
0100
0010
0000
0001
0000
0100
0000
0010
0100
0010
0000
,
1000
0000
0100
0000
0010
0100
0010
0000
0001
0000
0010
0000
0100
0000
1000
0000
,
0001
0000
0100
0000
0010
0100
0010
0000
1000
0000
0100
0000
0010
0100
0010
0000
,
1000
0000
0010
0000
0001
0000
0100
0000
0010
1000
0001
0100
0010
0000
0100
0000
,
0001
0000
0100
0000
0010
0100
0010
0000
1000
0000
0100
0000
0010
0100
0010
0000
,
0001
0000
0100
0000
0010
0100
0010
0000
1000
0000
0010
0000
0100
0000
0001
0000
,
1000
0000
0100
0000
0010
0100
0010
0000
0001
0000
0100
0000
0010
0100
0010
0000
,
0001
0010
1000
0100
0010
0010
0001
0001
,
1000
0000
0100
0000
0010
0100
0010
0000
0001
0000
0100
0000
0010
0100
0010
0000
,
1000
0000
0100
0000
0010
0100
0010
0000
0001
0000
0010
0000
0100
0000
1000
0000
,
0001
0000
0100
0000
0010
0100
0010
0000
1000
0000
0100
0000
0010
0100
0010
0000
,
1000
0000
0010
0000
0001
0000
0100
0000
0010
1000
0001
0100
0010
0000
0100
0000
,
0001
0000
0100
0000
0010
0100
0010
0000
1000
0001
1000
0001
1000
0001
1000
0001
,
1000
0000
0100
0000
0010
0100
0010
0000
0002
0000
0000
0000
2003
0000
0000
0000
,
3001
0000
0100
0000
0010
0100
0010
0000
1000
0100
0010
0001
0010
0000
0100
0000
,
1000
0100
0010
0001
0100
0010
1000
0100
0020
0000
0001
0000
0001
0000
0031
0000
,
1000
0000
0001
0010
0000
0001
0000
1000
0100
0000
1000
0000
0010
0000
1000
0000
,
0001
0000
0010
0001
0000
0010
0000
0100
0010
0000
0001
0000
1000
0000
0100
0000
,
1000
0000
0001
0100
0000
0001
0000
1000
0010
0000
1000
0000
0100
0000
1000
0000
,
0001
0000
0100
0001
0000
0100
0000
0010
0100
0000
0001
0000
1000
0000
0010
0000
,
1000
0000
1000
0100
0010
0001
0000
0001
1000
0000
0001
0000
0100
0000
0010
0000
,
1000
0000
1000
0010
0100
0001
0000
0001
1000
0000
0100
0000
0010
0000
0010
0000
,
0001
0000
0001
0010
0100
1000
0000
1000
0001
0000
1000
0000
0010
0000
0100
0000
,
0001
0000
0001
0100
0010
1000
0000
1000
0001
0000
0001
0000
1000
0000
1000
0000
,
0100
0010
0100
0010
0000
0001
1000
0001
0010
0001
1000
0010
0100
0001
1000
0001
,
1000
0100
1000
0100
0000
1000
0001
0100
0010
1000
0001
1000
0010
0100
0001
1000
,
0001
0010
0001
0010
0000
0100
1000
0001
0200
0000
0000
0000
0310
0000
0010
0000
,
0010
1000
0010
1000
0000
0001
0100
0001
1000
0100
0010
0001
0010
0100
1000
0001
,
0100
0010
0100
0010
0000
1000
0001
1000
0010
1000
0001
0010
0100
1000
0001
1000
,
0001
0100
0001
0100
0000
0001
1000
0100
0010
0001
1000
0001
0010
0100
1000
0001
,
1000
0010
1000
0010
0000
0100
0001
1000
0200
0000
0000
0000
0310
0000
0010
0000
,
0010
0001
0010
0001
0000
1000
0100
1000
0001
0100
0010
1000
0010
0100
0001
1000
,
0100
0000
0010
0001
0000
0010
0000
1000
0010
0000
0001
0000
0100
0000
0001
0000
,
0010
0000
0100
1000
0000
0100
0000
0001
0100
0000
1000
0000
0010
0000
1000
0000
,
0001
0000
0100
1000
0000
0100
0000
0001
0100
0000
0010
0000
1000
0000
0100
0000
,
1000
0000
0010
0001
0000
0010
0000
1000
0010
0000
0100
0000
0001
0000
0010
0000
,
0100
0000
0010
0001
0000
1000
0000
0010
0100
0010
0100
0000
0001
1000
0100
0000
,
0010
0000
0100
1000
0000
0001
0000
0100
0010
0100
0010
0000
1000
0001
0010
0001
,
1000
0100
1000
0000
0001
0100
0001
0000
1000
0010
1000
0000
0001
0010
0001
0000
,
1000
0010
0100
0001
0100
0010
1000
0001
1000
0100
0010
0001
0100
0010
1000
0001
,
0020
0100
0000
0100
,
0000
0001
0000
0001
,
0000
1000
0000
1000
,
0000
0100
0000
0100
,
0000
0001
0000
0001
,
0000
1000
0000
1000
,
0000
0001
0000
0001
,
0000
0100
0000
0130
,
1001
0000
0110
0000
2000
0100
3001
0000
,
0011
0000
1010
0000
0200
1000
0310
0000
,
0110
0000
1001
0000
0200
0001
0310
0000
,
1010
0000
1100
0000
0002
0100
1003
0000
,
1010
0010
1000
0100
1100
0100
0010
0001
,
0011
0001
0100
0010
0110
0010
1000
0001
,
1001
1100
0011
1010
,
0110
0000
0100
0000
0110
0000
0010
0000
1000
0100
1000
0100
0010
0001
0010
0001
,
1000
0100
0001
0100
1000
0100
0010
0001
,
1000
0001
0100
0010
1000
0001
0100
0010
,
1000
0100
0010
0010
0001
0001
0100
0100
,
0010
0100
1000
0100
0010
0010
1000
1000
,
0001
0100
1000
0100
0001
0100
0010
1000
,
0001
1000
0100
0010
0001
1000
0100
0010
,
0001
0100
0010
0010
1000
1000
0100
0100
,
0010
0100
0001
0100
0010
0010
0001
0001
,
1000
0001
0100
0010
1000
0001
1000
0100
,
0010
0001
0010
0100
1000
0000
0001
0000
0100
0000
0010
0000
0001
0000
0010
0000
,
1000
0001
0100
1000
0100
0100
0010
0010
,
1000
0010
0001
0010
0100
1000
0100
0001
,
1000
1000
0100
0100
0001
0001
0010
0010
,
1000
0100
1000
0000
0001
0000
0001
0000
0100
0000
0010
0000
1000
0000
0100
0000
,
1100
1000
0001
0100
0101
0001
1000
0100
,
0010
0100
1000
0100
0010
0001
1000
0010
0100
0010
0100
0000
0110
0000
0100
0000
,
1001
0000
0000
0000
;

//---------------dance-single - ----------------
#NOTEDATA:;
#CHARTNAME:9646_ESP;
#STEPSTYPE:dance-single;
#DESCRIPTION:;
#CHARTSTYLE:Dance;
#DIFFICULTY:Hard;
#METER:8;
#RADARVALUES:0.548586,0.624386,0.273238,0.088618,0.073848,520.000000,483.000000,37.000000,12.000000,0.000000,0.000000,0.000000,0.000000,0.000000,0.548586,0.624386,0.273238,0.088618,0.073848,520.000000,483.000000,37.000000,12.000000,0.000000,0.000000,0.000000,0.000000,0.000000;
#CREDIT:9646;
#NOTES:
0000
0000
0000
0000
,
0000
0000
0000
0000
,
0000
0000
0000
0000
,
0000
0000
0000
0000
,
0000
0000
0000
0000
,
0000
0000
0000
0000
,
0000
0000
0000
0000
,
0000
0000
0000
0000
,
0000
0000
0000
0000
,
0010
0010
0010
0010
,
0001
0001
0001
0001
,
0010
0010
0010
0010
,
1000
1000
1000
1000
,
0001
0010
0001
0010
0100
1000
0100
1000
,
0001
0100
0001
0100
0010
1000
0010
1000
,
0001
0100
0010
0100
0001
0010
0100
0010
,
0001
0100
0010
1000
0100
0010
0001
0100
,
1000
0100
0001
0000
1000
0100
0001
0000
,
0001
0100
1000
0000
0001
0100
0010
0100
,
1000
0100
0001
0000
1000
0100
0001
0000
,
0100
0010
0001
0100
0010
1000
0100
0100
,
0001
0100
1000
0000
0001
0100
1000
0000
,
1000
0100
0001
0000
1000
0100
0010
0100
,
0001
0100
1000
0000
0001
0100
1000
0000
,
0100
0010
1000
0100
0010
0001
0010
0100
,
0001
0100
1000
0000
0001
0100
1000
0000
,
1000
0100
0001
0000
1000
0100
0010
0100
,
0001
0100
1000
0000
0001
0100
1000
0000
,
0100
0010
1000
0100
0010
0001
0100
0100
,
1000
0100
0001
0100
0010
0010
0010
0010
,
1000
0100
0001
0100
0020
0000
0100
0000
,
0031
0010
1000
0010
0001
1000
0010
0100
,
0001
1000
0100
0010
0001
1000
0001
1000
,
0001
0000
0100
0010
0000
1000
0100
1000
,
0100
0000
0010
0001
0000
0100
0010
0100
,
0010
0000
1000
0001
0000
0010
0001
0010
,
0001
0000
1000
0100
0000
1000
0001
1000
,
0001
0101
1000
1100
,
0001
0011
1000
1010
,
0100
0011
0100
1010
,
0100
0000
1001
0000
0100
0010
0100
0010
,
0001
0100
0010
1000
0001
0001
0010
0010
,
0100
1000
0001
1000
0010
0010
0100
0100
,
1000
0100
0001
1000
0020
0000
0130
0100
,
0001
1000
0100
0001
0100
0100
0010
0001
,
1000
0100
0010
0001
1000
1000
0010
0010
,
0100
0001
1000
0001
0010
0010
0100
0100
,
0001
0100
1000
0001
0020
0000
0130
0100
,
1000
0001
0100
1000
0100
0100
0010
1000
,
0001
0000
1000
0100
0000
1000
0100
0000
0010
0000
0001
0000
1000
0000
0100
0000
,
1000
0000
0001
0100
0000
0001
0100
0000
0010
0000
1000
0000
0001
0000
0010
0000
,
0100
0000
0010
0001
0000
0010
0100
0000
1000
0000
0001
0000
1000
0000
0010
0000
,
0100
0000
0010
1000
0000
0010
0100
0000
0001
0000
1000
0000
0001
0000
0010
0000
,
0100
0000
1000
0001
0000
0100
0000
1000
0010
0000
0100
0000
0001
0000
1000
0000
,
0100
0000
1000
0001
0000
0100
0000
1000
0100
0000
0010
0000
0100
0000
0001
0000
,
0010
0000
0001
1000
0000
0010
0000
0001
0100
0000
0010
0000
1000
0000
0001
0000
,
0010
0000
0001
1000
0000
0010
0000
0001
0010
0000
0100
0000
0010
0000
1000
0000
,
0200
0000
0000
0000
,
0000
0000
0000
0000
,
0000
0000
0000
0000
,
0000
0000
0000
0000
,
0000
0000
0000
0000
,
0000
0000
0000
0000
,
0300
0000
0000
0000
,
0000
0000
0000
0000
,
1001
0110
2010
3100
,
1001
0110
0012
0103
,
1010
1100
0102
0013
,
0011
0101
2100
3010
,
0110
1200
0301
0102
,
0013
0021
1030
2010
,
3100
1001
0010
1001
,
1000
0100
1000
0100
0010
0001
0100
0001
,
0100
0010
1000
0001
0100
1000
0100
0001
,
0010
1100
0010
0101
,
1001
0000
1000
0100
0010
0100
1000
0100
,
0001
0100
1000
0001
0100
0010
0100
0010
,
1000
0001
1000
0100
1000
0001
0100
1000
,
0010
0000
0011
0000
0100
1000
0001
0000
,
0101
0000
0010
0100
0010
0000
1001
0000
,
0100
0000
0110
0000
1000
0001
1000
0001
,
0010
0100
1000
0001
0100
0000
0010
1000
,
0001
0010
1000
0001
0100
1000
0010
0001
,
0100
0000
0010
1000
0001
0001
0100
1000
,
0100
0100
0010
0010
1000
0001
1000
0100
,
0010
0100
0010
0001
0010
0100
0010
0001
,
0100
0010
1000
0010
0100
0010
1000
0100
,
0110
0000
0001
0100
0110
0000
0100
0010
,
1000
0100
0010
0001
0100
0010
0110
0000
,
1001
0000
0000
0000
;

//---------------dance-single - ----------------
#NOTEDATA:;
#CHARTNAME:9646_BSP;
#STEPSTYPE:dance-single;
#DESCRIPTION:;
#CHARTSTYLE:Dance;
#DIFFICULTY:Easy;
#METER:5;
#RADARVALUES:0.289063,0.394349,0.096003,0.118157,0.000000,274.000000,261.000000,13.000000,16.000000,0.000000,0.000000,0.000000,0.000000,0.000000,0.289063,0.394349,0.096003,0.118157,0.000000,274.000000,261.000000,13.000000,16.000000,0.000000,0.000000,0.000000,0.000000,0.000000;
#CREDIT:9646;
#NOTES:
0000
0000
0000
0000
,
0000
0000
0000
0000
,
0000
0000
0000
0000
,
0000
0000
0000
0000
,
0000
0000
0000
0000
,
0000
0000
0000
0000
,
0000
0000
0000
0000
,
0000
0000
0000
0000
,
0000
0000
0000
0000
,
0100
0000
0010
0000
,
0100
0000
0010
0000
,
0001
0000
1000
0000
,
0001
0000
1000
0000
,
0001
0001
0100
0100
,
0010
0010
1000
1000
,
0100
0100
0100
0100
,
0010
0010
0010
0010
,
0001
0100
1000
0100
,
0001
0100
0010
0010
,
1000
0100
0001
0100
,
1000
0010
0100
0100
,
0001
0100
1000
0100
,
0001
0100
0010
0010
,
1000
0100
0001
0100
,
0010
0001
0100
0010
,
1000
0010
0001
0010
,
1000
0010
0100
0100
,
0001
0010
1000
0010
,
0001
0100
0010
0010
,
1000
0100
0002
0003
,
0001
0100
2000
3000
,
0001
0010
1000
0010
,
0001
0001
0002
0003
,
1000
0000
0000
0001
0000
0001
1000
0000
,
0010
0000
0000
0100
0000
0100
0001
0000
,
1000
0000
0000
0100
0000
0100
0010
0000
,
0001
0000
0000
1000
0000
0001
0100
0001
,
0100
0100
0010
0010
,
1000
1000
0001
0001
,
0010
0010
0100
0100
,
1000
0010
0001
0100
,
2000
3000
0100
0001
,
0020
0030
0100
1000
,
0002
0003
0100
1000
,
0002
0003
0100
0010
,
2000
3000
0010
0001
,
0200
0300
0010
1000
,
0002
0003
0010
1000
,
0002
0003
0010
0100
,
1000
1000
0001
0001
,
1000
1000
0001
0001
,
0010
0010
0100
0100
,
0010
0010
0100
0100
,
0001
0100
1000
0010
,
0001
0100
1000
0010
,
0001
0010
1000
0100
,
0001
0010
1000
0100
,
0020
0000
0000
0000
,
0000
0000
0000
0000
,
0030
0000
0000
0000
,
0000
0000
0000
0000
,
0000
0000
0000
0000
,
0000
0000
0000
0000
,
0000
0000
0000
0000
,
0000
0000
0000
0000
,
1001
0000
0200
1300
,
1100
0000
0200
0301
,
0101
0000
0020
1030
,
1010
0000
0020
0031
,
0011
0000
1100
0000
,
0101
0000
1010
0000
,
0110
0001
0110
1000
,
0001
0000
0100
0000
1000
0010
0001
0000
,
1000
0100
0001
0100
,
1000
1000
0001
0001
,
0100
0010
0001
0010
,
1000
0100
1000
0010
,
0100
0100
0010
0010
,
1000
0100
0001
0010
,
1000
0000
0001
0000
,
0100
0010
1000
1000
,
0001
0010
1000
0010
,
0001
0001
1000
1000
,
0010
0100
1000
0100
,
0001
0010
0001
0100
,
0010
0010
1000
1000
,
0100
0001
0010
1000
,
1001
0000
0110
0000
,
0100
1000
0010
0001
,
1001
0000
0000
0000
;

//---------------dance-single - ----------------
#NOTEDATA:;
#CHARTNAME:9646_DSP;
#STEPSTYPE:dance-single;
#DESCRIPTION:;
#CHARTSTYLE:Dance;
#DIFFICULTY:Medium;
#METER:7;
#RADARVALUES:0.407220,0.558661,0.369241,0.214160,0.000000,386.000000,336.000000,50.000000,29.000000,0.000000,0.000000,0.000000,0.000000,0.000000,0.407220,0.558661,0.369241,0.214160,0.000000,386.000000,336.000000,50.000000,29.000000,0.000000,0.000000,0.000000,0.000000,0.000000;
#CREDIT:9646;
#NOTES:
0000
0000
0000
0000
,
0000
0000
0000
0000
,
0000
0000
0000
0000
,
0000
0000
0000
0000
,
0000
0000
0000
0000
,
0000
0000
0000
0000
,
0000
0000
0000
0000
,
0000
0000
0000
0000
,
0000
0000
0000
0000
,
1000
0100
0001
0100
,
1000
0100
0001
0100
,
1000
0010
0001
0010
,
1000
0010
0001
0010
,
1000
0100
1000
0000
0100
0010
0100
0000
,
0010
0001
0010
0000
0001
0100
0001
0000
,
0100
0010
1000
0000
0100
0010
0001
0000
,
0010
0100
0010
0100
0010
0100
0010
0100
,
1000
1100
0001
0011
,
1000
0000
1100
0000
0100
0001
0010
0000
,
1000
1010
0001
0101
,
0010
0000
1001
0000
0100
0001
0010
0001
,
1000
1100
0001
0011
,
1000
0000
1100
0000
0100
0001
0010
0000
,
1000
1010
0001
0101
,
0010
0000
1001
0000
0100
0100
0010
0010
,
0001
0101
1000
1010
,
0001
0000
0101
0000
0100
1000
0010
0000
,
0001
0011
1000
1100
,
0010
0000
1001
0000
0100
1000
0010
1000
,
0001
0011
2002
3003
,
1000
1100
2002
3003
,
0001
0101
1000
1100
,
0110
0011
2002
3003
,
0001
0000
0100
0010
0000
1000
0100
0000
,
0010
0000
0100
1000
0000
0010
0100
0000
,
0001
0000
1000
0100
0000
0001
0100
0000
,
0010
0000
1000
0010
0000
0001
0010
0001
,
0010
1000
0100
0001
,
0010
1000
0100
0001
,
0100
1000
0010
0001
,
0100
1000
0010
0001
,
2000
0100
3020
0001
,
2030
0100
3002
0010
,
0203
0310
2000
3100
,
0020
0032
2003
0100
,
3002
0010
0203
1000
,
0302
0010
2003
0100
,
3020
0130
0002
0013
,
0200
2300
3002
0100
,
1003
0000
0100
0000
0001
0100
1000
0000
,
0001
0000
0100
0000
1000
0100
0001
0000
,
1000
0000
0001
0000
0100
0010
1000
0000
,
0001
0000
1000
0000
0100
0010
0001
0000
,
0100
1000
0000
0010
0000
0001
0000
0100
,
0000
1000
0000
0010
0000
0001
0000
0100
,
0000
1010
0000
0011
0000
0101
0000
1100
,
0000
0110
0000
1001
0000
0110
0000
1000
,
0002
0000
0000
0000
,
0000
0000
0000
0000
,
0000
0000
0000
0000
,
0000
0000
0000
0000
,
0003
0000
0000
0000
,
0000
0000
0000
0000
,
0000
0000
0000
0000
,
0000
0000
0000
0000
,
0100
1001
0200
0310
,
0001
0110
2000
3001
,
0010
1001
0020
0130
,
1000
0110
0002
1003
,
0100
0010
0100
0000
1000
0100
1000
0000
,
0001
0100
0001
0000
0100
0010
0100
0000
,
1010
0110
1010
1100
,
0110
0000
0011
0000
1000
0001
1000
0001
,
0100
0010
1000
1010
,
0001
0100
1000
0010
,
0001
0000
1000
0100
0010
0000
0100
0000
,
1000
0000
0001
0000
1000
0010
0100
0000
,
0010
0100
0001
0101
,
1000
0000
0100
0000
0001
0010
1000
0000
,
0001
0000
0010
0100
1000
0000
0001
0000
,
1000
0000
0010
0000
1000
0001
1000
0001
,
0100
0010
1000
1010
,
0001
0000
0010
0000
1000
0100
0001
0000
,
1000
0000
0100
0010
0001
0000
1000
0000
,
0001
0000
0100
0000
0010
1000
0001
0000
,
1000
0100
1000
0000
0001
0100
0001
0000
,
0010
0100
1000
0000
0010
0100
0001
0000
,
1001
0010
1001
0100
,
0010
0000
0001
0000
0100
1000
0010
0000
,
1001
0000
0000
0000
;
