#VERSION:0.82;
#TITLE:Playing With Fire;
#SUBTITLE:;
#ARTIST:kors k;
#TITLETRANSLIT:;
#SUBTITLETRANSLIT:;
#ARTISTTRANSLIT:;
#GENRE:;
#ORIGIN:;
#CREDIT:;
#BANNER:[Mother Nature] - Playing With Fire.png;
#BACKGROUND:[Mother Nature] - Playing With Fire-bg.png;
#PREVIEWVID:;
#JACKET:[Mother Nature] - Playing With Fire-jacket.png;
#CDIMAGE:;
#DISCIMAGE:;
#LYRICSPATH:;
#CDTITLE:cdtitle.png;
#MUSIC:[Mother Nature] - Playing With Fire.ogg;
#OFFSET:0.000000;
#SAMPLESTART:73.499702;
#SAMPLELENGTH:12.000000;
#SELECTABLE:YES;
#BPMS:0.000=160.000;
#STOPS:;
#DELAYS:;
#WARPS:;
#TIMESIGNATURES:0.000=4=4;
#TICKCOUNTS:0.000=4;
#COMBOS:0.000=1;
#SPEEDS:0.000=1.000=0.000=0;
#SCROLLS:0.000=1.000;
#FAKES:;
#LABELS:0.000=Song Start;
#BGCHANGES:;
#KEYSOUNDS:;
#ATTACKS:
;

//---------------dance-single - S-CHALLENGE----------------
#NOTEDATA:;
#CHARTNAME:xRGTMx-CHA;
#STEPSTYPE:dance-single;
#DESCRIPTION:S-CHALLENGE;
#CHARTSTYLE:;
#DIFFICULTY:Challenge;
#METER:11;
#RADARVALUES:0.882938,1.000000,0.267474,0.372553,0.931383,580.000000,28.000000,39.000000,0.000000,0.000000,0.000000,0.000000,0.000000,0.882938,1.000000,0.267474,0.372553,0.931383,580.000000,28.000000,39.000000,0.000000,0.000000,0.000000,0.000000,0.000000;
#CREDIT:xRGTMx;
#NOTES:
0000
0000
0000
0000
,
1001
0000
0000
1000
0000
0000
0010
0000
0000
0100
0000
0000
0001
0000
1000
0000
,
0001
0000
0000
0010
0000
0000
0100
0000
0000
0100
1000
0000
0001
0000
1000
0000
,
0100
0000
0000
0100
0000
0000
0010
0000
0000
0001
0000
0000
0100
0000
0001
0000
,
1000
0000
0000
0010
0000
0000
0100
0000
0000
0001
0000
0000
0010
0000
0100
0000
,
1001
0000
0000
0000
1000
0000
0100
0000
1000
0000
0000
1000
0010
0000
1000
0000
,
0001
0000
0001
0100
0001
0000
0010
0000
0100
1000
0001
1000
0100
0000
0010
0001
,
1000
0000
1000
0000
0010
0000
0100
0001
1000
0100
1000
0100
0010
0001
0010
0001
,
0200
0000
0000
0000
0000
0000
0010
0010
0000
0000
0301
1000
0001
1000
0001
1000
,
0010
0000
0100
0000
0001
0000
0100
0000
0010
0000
1000
0010
0000
1000
0001
0000
,
0010
0100
1000
0100
0010
0001
0101
0000
,
0100
0000
0010
0000
1000
0000
0010
0000
0100
0000
0001
0100
0000
0001
1000
0000
,
1010
0100
0011
0100
1001
0001
0010
0100
,
1000
0000
0010
0000
0001
0000
0010
0000
0100
0000
0010
1000
0000
0010
0100
0000
,
0001
0000
0010
0000
1000
0000
0010
0000
0100
0000
1100
0000
0000
0101
0000
0000
,
1001
0000
0000
0000
0000
0000
0001
0000
1000
0000
0001
0000
0100
0000
0000
0000
0000
0000
0010
0000
0000
1000
0000
0000
0001
0000
0000
0000
0000
0000
0010
0000
0000
0100
0000
0000
0000
0000
0000
0100
0000
0000
1000
0000
0000
0000
0000
0000
,
1010
0000
0000
0000
0000
0000
0000
0000
0000
0011
0000
0000
0000
0000
0000
0000
0000
0000
0001
0000
1000
0000
0001
0000
1000
0000
0000
0000
0000
0000
1100
0000
0000
0000
0000
0000
0000
0000
0000
0101
0000
0000
0000
0000
0000
0000
0000
0000
,
0001
0100
0010
0100
0001
0000
1000
0100
0010
0100
1000
0000
0010
0000
1000
0001
,
0010
0001
0100
0001
0010
0000
0100
1000
0010
1000
0100
0000
0010
0000
0001
1000
,
0010
0000
1000
0100
1000
0000
0001
0000
0100
0000
0010
1000
0100
0000
1000
0000
,
0001
0000
0010
0100
0000
0000
1000
0000
1010
0000
0010
0100
0000
0000
0001
0000
,
1000
0100
0001
0100
1000
0000
0001
0100
1000
0100
0001
0000
0010
0000
0001
1000
,
0001
0010
1000
0010
0001
0000
1000
0010
0001
0010
1000
0000
0001
0000
0010
0000
,
0110
0000
0100
1000
0001
0000
0100
0001
0010
0001
1000
0010
0100
0000
0001
1000
,
0100
0000
0000
0000
0000
0000
0010
0000
0000
0001
0000
0000
0010
0000
0000
0100
0000
0000
1000
0000
0000
0001
0000
0000
0100
0000
0000
0010
0000
0000
0100
0000
0000
0010
0000
0000
1000
0000
0001
0000
1000
0000
0001
0000
0000
0100
0000
0000
,
0001
0010
1000
0001
0100
1000
1000
0010
,
0001
1000
0100
0001
0001
0010
1000
0001
,
0100
1000
1000
0010
0001
1000
0100
0001
,
0001
0010
1000
0001
0100
1000
0010
1000
,
0200
0000
0000
0320
0000
0000
0032
0000
,
0000
2003
0000
0000
3020
0000
0000
2030
,
0000
0000
0002
0000
0000
0000
0000
3003
,
1000
0000
0001
0000
1000
0000
0001
0000
0000
0010
0000
0000
0100
0000
0000
0000
0000
0000
0010
0000
0000
0000
0000
0000
0000
0000
0001
0000
0100
0000
0001
0000
1000
0000
0100
0000
1000
0000
0000
0000
0000
0000
0000
0000
0000
0000
0000
0000
,
2020
0000
3000
0200
0000
0000
0000
0030
,
2000
0000
0300
0002
3000
0020
0003
2030
,
3002
0023
0230
2000
0000
0000
0300
3002
,
0203
0302
0000
0023
2030
3002
0203
0320
,
0002
0000
0030
0200
0000
0000
0000
0003
,
0020
0000
0300
0002
0030
2000
0003
3200
,
0302
0020
0003
0200
0000
0000
0030
0000
,
1300
0000
0000
0100
0000
0000
0010
0001
0100
0001
1000
0100
1000
0010
0100
0001
,
0010
0000
0000
0001
0000
0000
0100
0000
0000
0001
0000
0000
0010
0000
0100
0000
,
1000
0000
0000
0010
0000
0000
0100
0000
0000
1000
0100
0000
0001
0000
1000
0000
,
0100
0000
0000
0010
0000
0000
0001
0000
0000
0010
0000
0000
0100
0000
1000
0000
,
0001
0000
0000
0100
0000
0000
0010
0000
0000
0001
0000
0000
0010
0000
1000
0000
,
1100
0000
0000
0100
0000
0000
0010
0000
0001
0000
0000
1000
0000
0000
0010
0000
,
0101
0000
0000
0100
0000
0000
0010
0000
1000
0000
0000
0001
0000
0000
0010
0001
,
0100
0000
0010
0100
0000
1000
0100
0000
0010
0100
0000
0001
0100
1000
0100
0010
,
0100
0000
0001
1000
0010
0000
2001
0000
0000
0000
0000
0000
3020
0000
0000
0000
,
1030
0100
1000
0100
0010
0001
0010
0001
1000
0010
1000
0010
0100
0001
0100
0001
,
1000
0100
0010
0001
0100
0001
1000
0010
0100
0000
0001
0100
0000
0001
1000
0000
,
0010
0000
0100
0100
0000
0001
0001
0000
1000
1000
0000
0100
0100
0000
0010
0000
,
0000
0001
0010
0100
0000
1000
0100
1000
0001
0000
0100
0010
0000
1000
0001
0000
,
0001
0010
0001
0010
0100
1000
0100
1000
0001
0100
0001
0100
0010
1000
0010
1000
,
0001
0010
0100
1000
0010
0100
0010
1000
0001
0000
0010
0100
0000
1000
0001
0000
,
1000
0000
0010
0010
0000
0100
0100
0000
0001
0001
0000
1000
1000
0000
0100
0000
,
0000
0010
0001
0010
0000
0100
1000
0001
0100
0000
0010
0100
0001
1000
0001
1000
,
0010
0100
1000
0100
0010
1000
0100
0010
1000
0010
0100
1000
0010
0100
0001
0010
,
0100
0001
0100
0010
0001
0100
0010
0001
0010
0000
1000
0001
0000
0001
1000
0000
,
0001
0000
0010
0010
0000
0100
0100
0000
1000
1000
0000
0001
0001
0000
0100
0000
,
1100
0000
0010
0000
0101
0000
0010
0000
1001
0000
0001
1000
0000
0001
0100
0000
,
0010
0100
0001
0010
0100
0001
0100
0010
0001
0100
0010
1000
0100
0010
1000
0010
,
0100
1000
0010
0100
1000
0100
0010
1000
0001
0000
0010
0100
0000
1000
0001
0000
,
1000
0011
0001
1010
1000
0101
0001
1100
,
1000
0010
0100
0001
1000
0100
1000
0100
0010
0000
0000
0001
0000
0000
0110
0000
,
1001
0020
0000
0000
,
0000
0000
0000
0000
,
0000
0000
0000
0000
,
0030
0000
0000
0000
;

//---------------dance-single - S-EXPERT----------------
#NOTEDATA:;
#CHARTNAME:xRGTMx-ESP;
#STEPSTYPE:dance-single;
#DESCRIPTION:S-EXPERT;
#CHARTSTYLE:;
#DIFFICULTY:Hard;
#METER:9;
#RADARVALUES:0.697343,0.747017,0.305685,0.372553,0.415540,440.000000,32.000000,39.000000,0.000000,0.000000,0.000000,0.000000,0.000000,0.697343,0.747017,0.305685,0.372553,0.415540,440.000000,32.000000,39.000000,0.000000,0.000000,0.000000,0.000000,0.000000;
#CREDIT:xRGTMx;
#NOTES:
0000
0000
0000
0000
,
1001
0000
0000
0001
0000
0000
0010
0000
0000
0010
0000
0000
0100
0000
0100
0000
,
0010
0000
0000
0010
0000
0000
0001
0000
0000
0001
1000
0000
0010
0000
0010
0000
,
0100
0000
0000
0100
0000
0000
0010
0000
0000
0010
0000
0000
1000
0000
0001
0000
,
1000
0000
0000
1000
0000
0000
0100
0000
0000
0100
0000
0000
0010
0000
0001
0000
,
1001
0000
0000
0000
1000
0000
0010
0000
1000
0000
0000
0100
1000
0000
1000
0000
,
0001
0000
0010
0000
0010
0000
0001
0000
0100
0010
0000
0100
0010
0000
1000
0000
,
0001
0000
0010
0000
0100
0000
1000
0000
0001
0000
0100
0001
0100
0001
0100
0001
,
2000
0000
0000
0000
0000
0010
3010
0000
,
1001
0000
1000
0000
0001
0000
0010
0000
0100
0000
0100
1000
0000
0000
0001
0000
,
0100
0010
1000
0001
0010
0000
0110
0000
,
1001
0000
0001
0000
1000
0000
0100
0000
0010
0000
0010
0001
0000
0000
1000
0000
,
1010
0000
0011
0001
0200
0000
0310
1000
,
1001
0000
0001
0000
0010
0000
0001
0000
0100
0000
0100
0010
0000
0000
1000
0000
,
0001
0000
1000
0000
0100
0000
0010
0000
0100
0000
1000
0000
0000
0001
0000
0000
,
0202
0000
0000
0000
0000
0000
0000
0000
0303
0000
0000
0000
0000
0000
0000
0000
0000
0000
0010
0000
0000
1000
0000
0000
0001
0000
0000
0000
0000
0000
0001
0000
0000
0010
0000
0000
0000
0000
0000
0010
0000
0000
0100
0000
0000
0000
0000
0000
,
1100
0000
0000
1001
0000
0000
0001
0000
0101
0000
1001
0000
0000
1000
0000
0000
,
0010
1000
0001
0010
0100
0001
1000
0010
,
0001
0100
0010
0001
1000
0100
0001
1000
,
0001
0010
0010
0100
0100
0010
0001
1000
,
0100
0000
1000
0000
0010
0000
0100
0000
0101
0000
0001
0010
0000
0000
0100
0000
,
1000
0000
0010
0000
0001
0000
1000
0000
0100
0000
0001
0000
1000
0000
0001
1000
,
0001
0010
1000
0001
0100
1000
0010
0100
,
0001
0000
0000
0001
0010
0000
0000
0010
0100
0000
0000
0100
1000
0000
0001
0100
,
0001
0000
0010
0000
0100
0000
2000
0000
0000
0000
3010
0000
0010
1000
0001
0000
,
2000
0001
3000
2010
0000
3100
2000
0001
,
3000
2100
0000
3001
0002
1000
0003
0012
,
0000
0103
0002
1000
0003
0102
0000
1003
,
2000
0010
3000
1002
0000
1003
0010
1000
,
2000
0000
0000
3020
0000
0000
0032
0000
,
0000
0203
0000
0000
2300
0000
0000
3020
,
0000
0000
0200
0000
0000
0000
0000
0330
,
0110
0000
0000
1000
0001
0000
0010
0000
0000
0100
1000
0000
0001
0000
0000
0000
,
0201
0000
0000
0320
0000
0000
0000
0000
,
2030
0000
0000
3002
0000
0023
0000
0130
,
1000
0010
0100
0020
0000
0000
0000
1030
,
0001
2000
0000
3001
0010
0100
1000
0001
,
0020
0000
0000
0230
0000
0000
0000
0000
,
2300
0000
0000
3020
0000
0230
0000
0301
,
0010
0001
0000
0200
0000
0000
0000
0000
,
0310
0000
0000
0010
0000
0000
0100
0000
0000
0001
0000
0000
1000
0000
0100
0000
,
0110
0000
0000
0010
0000
0000
0001
0000
0000
0001
0000
0000
1000
0000
1000
0000
,
0010
0000
0000
0010
0000
0000
0100
0000
0000
0100
0001
0000
1000
0000
0100
0000
,
1000
0000
0000
1000
0000
0000
0010
0000
0000
0010
0000
0000
0100
0000
0100
0000
,
0001
0000
0000
0001
0000
0000
1000
0000
0000
1000
0000
0000
0010
0000
1000
0000
,
1001
0000
0000
0001
0000
0000
0010
0000
0100
0000
0000
1000
0000
0000
0010
0000
,
1001
0000
0000
1000
0000
0000
0010
0000
0100
0000
0000
0001
0000
0000
0010
0000
,
0001
0000
0001
1000
0000
1000
0001
0000
0001
1000
0000
1000
0001
0000
1000
0000
,
0020
0000
0000
0000
0000
0100
0130
0000
,
1001
1000
0100
0010
0001
1000
0010
0100
,
0001
0000
0010
0000
0100
0000
1000
0000
0001
0000
0001
0100
0000
0100
0010
0000
,
1000
0000
1000
0100
0000
0100
1000
0000
1000
0001
0000
0001
0100
0000
0010
0000
,
0000
1000
0010
1000
0000
0001
0010
0001
0010
0000
0100
1000
0000
1000
0001
0000
,
0001
0010
0100
1000
0001
0100
0010
1000
,
0100
0000
0010
0000
0001
0000
1000
0000
0010
0000
0010
0100
0000
0100
0001
0000
,
0010
0000
0010
0001
0000
0001
0100
0000
0100
0010
0000
0010
1000
0000
0001
0000
,
0000
0000
0011
0000
0000
0000
1010
0000
2000
0000
0000
0000
3100
0010
0100
0010
,
0001
0010
1000
0100
1000
0010
0001
0100
,
1000
0000
0010
0000
1000
0000
0100
0000
0001
0000
0001
0010
0000
0001
1000
0000
,
0010
0000
0100
0010
0000
1000
0001
0000
0010
0100
0000
1000
0001
0000
0100
0000
,
0101
0000
1100
2000
0010
0000
3100
1000
,
1000
0010
0001
0100
0001
0010
1000
0100
,
0001
0000
0010
0000
0001
0000
0100
0000
1000
0000
1000
0010
0000
1000
0001
0000
,
0010
0000
0100
0010
0000
0001
1000
0000
0010
0100
0000
0001
1000
0000
0100
0000
,
0000
0010
0001
0010
0000
0100
1000
0100
1000
0000
0000
0101
0000
0000
1100
0000
,
1001
0020
0000
0000
,
0000
0000
0000
0000
,
0000
0000
0000
0000
,
0030
0000
0000
0000
;

//---------------dance-single - S-DIFFICULT----------------
#NOTEDATA:;
#CHARTNAME:xRGTMx-DSP;
#STEPSTYPE:dance-single;
#DESCRIPTION:S-DIFFICULT;
#CHARTSTYLE:;
#DIFFICULTY:Medium;
#METER:7;
#RADARVALUES:0.458527,0.519664,0.200606,0.191053,0.081198,295.000000,21.000000,20.000000,0.000000,0.000000,0.000000,0.000000,0.000000,0.458527,0.519664,0.200606,0.191053,0.081198,295.000000,21.000000,20.000000,0.000000,0.000000,0.000000,0.000000,0.000000;
#CREDIT:xRGTMx;
#NOTES:
0000
0000
0000
0000
,
1001
0000
0000
1000
0000
0000
0010
0000
,
0100
0000
0000
0001
0000
0000
0010
0001
,
1000
0000
0000
0001
0000
0000
0010
0000
,
0100
0000
0000
0100
0000
0000
1000
0000
,
1001
0001
0100
0100
,
0010
0010
1000
1000
,
0001
0010
0100
1000
0001
0200
0010
0300
,
2002
0000
0000
3003
,
1000
0000
0010
0000
1000
0000
0000
0000
0100
0000
0000
0100
0000
0000
0010
0000
,
0001
0100
0001
0000
0010
0000
1001
0000
,
1000
0000
0100
0000
1000
0000
0000
0000
0010
0000
0000
0100
0000
0000
0001
0000
,
0011
1010
1002
0103
,
0001
0000
0010
0000
0001
0000
0000
0000
0100
0000
0000
0100
0000
0000
0010
0000
,
1000
0000
0100
0000
1000
0000
0000
0000
0010
0000
0010
0000
0000
0010
0000
0000
,
1001
0000
0000
0001
1000
0000
0100
0010
,
0001
0000
0000
0100
0000
0000
0100
0000
0010
0000
0010
0000
0000
1000
0000
0000
,
0001
0000
0010
0100
1000
0000
0001
0000
,
0100
0000
0010
1000
0001
0010
0100
0000
,
0010
0000
0001
1000
0001
0000
0100
0000
,
0010
1000
2100
3001
,
1000
0000
0010
0100
0001
0000
1000
0000
,
0100
0000
0010
0001
1000
0010
0100
0000
,
0010
0000
0000
0010
1000
0000
0000
1000
0001
0000
0000
0001
0010
0000
0000
0000
,
0100
0010
0100
1000
0000
1000
0010
0000
,
1001
0001
0000
0010
0000
0001
0000
0100
,
0000
0010
0000
1000
0000
0100
0000
1000
,
0000
0001
0000
0010
0000
0100
0000
1000
,
0000
0010
0000
0100
0000
0001
0000
1000
,
2000
0000
0000
3020
0000
0000
0230
0000
,
0000
0302
0000
0000
0023
0000
0000
0032
,
0000
0000
2000
0000
0000
0000
0000
3003
,
1001
0000
0010
0100
0000
0010
1001
0000
,
1000
0000
0000
0020
0000
0000
0000
0000
,
0130
0000
0000
0010
0000
1000
0000
0001
,
0010
0001
1000
0020
0000
0000
0000
0130
,
0010
0100
0000
0001
0010
0001
0100
0001
,
1000
0000
0000
0200
0000
0000
0000
0000
,
0310
0000
0000
0100
0000
1000
0000
0001
,
0100
0001
0000
0020
0000
0000
0000
0000
,
0130
0000
0000
1000
0000
0000
0010
0000
,
1001
0000
0000
1000
0000
0000
0001
0000
,
0010
0000
0000
0100
0000
0100
1000
0000
,
0001
0000
0000
0100
0000
0000
0010
0000
,
1000
0000
0000
0001
0000
0000
0001
0010
,
0100
1000
0001
0100
,
0100
0001
1000
0100
,
0010
0000
0000
0010
0000
0000
1001
0000
0000
1001
0000
0000
0010
0000
0010
0000
,
0200
0000
0000
0000
0000
0010
0310
0000
,
1001
0001
0010
0000
0100
1000
0001
0000
,
0100
0000
0010
0000
1000
0000
0000
0000
0001
0000
0000
0001
0000
0000
0010
0000
,
0100
0010
0001
1000
,
0000
0010
0000
0100
0000
0000
0010
0000
1000
0000
0000
0001
0000
0000
0010
0000
,
0001
0100
0010
0000
1000
0001
0010
0000
,
0100
1000
0001
0000
0100
0001
0010
0000
,
0100
0000
1000
0000
0010
0000
0100
0001
,
0000
0101
0000
1100
2000
0000
3001
0000
,
0001
0010
1000
0000
1000
0010
0001
0000
,
0001
0000
0100
0000
0010
0000
0000
0000
1000
0000
0000
0001
0000
0000
0001
0000
,
1000
0000
0010
0000
0100
0001
1000
0000
,
1100
0000
0101
0002
0010
0000
1003
0000
,
1000
0010
0001
0000
0001
0010
1000
0000
,
1000
0000
0100
0000
0010
0000
0000
0000
0001
0000
0000
1000
0000
0000
1000
0000
,
0001
0010
0100
1000
,
0000
0001
0010
0100
1000
0000
0010
0000
,
1001
0020
0000
0000
,
0000
0000
0000
0000
,
0000
0000
0000
0000
,
0030
0000
0000
0000
;

//---------------dance-single - S-BASIC----------------
#NOTEDATA:;
#CHARTNAME:xRGTMx-BSP;
#STEPSTYPE:dance-single;
#DESCRIPTION:S-BASIC;
#CHARTSTYLE:;
#DIFFICULTY:Easy;
#METER:4;
#RADARVALUES:0.312508,0.422227,0.238816,0.133737,0.000000,190.000000,25.000000,14.000000,0.000000,0.000000,0.000000,0.000000,0.000000,0.312508,0.422227,0.238816,0.133737,0.000000,190.000000,25.000000,14.000000,0.000000,0.000000,0.000000,0.000000,0.000000;
#CREDIT:xRGTMx;
#NOTES:
0000
0000
0000
0000
,
1001
0000
0000
0000
,
0010
0000
0000
0000
,
1000
0000
0000
0000
,
0001
0000
0000
0000
,
0010
0010
0010
0010
,
0100
0100
0100
0100
,
1000
0001
1000
0001
,
0220
0000
0330
0000
,
1000
1000
0001
0001
,
0010
0100
0010
1001
,
0001
0001
1000
1000
,
1001
0110
1001
0100
,
0001
0001
1000
1000
,
0100
0100
0010
0010
,
1001
0000
0001
1000
,
0010
0000
0100
0000
,
0001
0010
0100
1000
,
0001
0100
0010
1000
,
0001
0001
0010
0010
,
0100
0010
0001
1001
,
1000
0010
0100
0001
,
1000
0100
0010
0001
,
0100
0100
0010
0010
,
1000
0001
0000
1001
,
0000
1000
0000
1000
0000
1000
0000
1000
,
0000
0001
0000
0001
0000
0001
0000
0001
,
0000
0100
0000
0100
0000
0100
0000
0100
,
0000
0010
0000
0010
0000
0010
0000
0010
,
0000
0000
0000
0000
,
0100
0000
0000
0000
,
0000
0020
0000
0000
,
0130
0010
0000
0110
,
2001
0000
0000
3000
0000
0000
0000
0000
,
0200
0000
0000
0300
0000
0000
0000
0000
,
0010
0000
0000
0010
0000
0000
0000
0000
,
0002
0000
1003
0000
,
0002
0000
0000
0003
0000
0000
0000
0000
,
0200
0000
0000
0300
0000
0000
0000
0000
,
0010
0000
0000
0020
0000
0000
0030
0000
,
1000
0000
0001
0000
,
0110
0000
1000
0000
,
0001
0000
0100
0000
,
0110
0000
0001
0000
,
1000
0000
0010
0000
,
1000
0000
1000
0000
,
0001
0000
0001
0000
,
1010
0011
0101
1100
,
2001
0000
0000
3010
,
1000
0010
0010
0001
,
0100
0100
1000
0001
,
0010
0010
0100
0100
,
0010
0001
1000
1001
,
0001
0010
0010
1000
,
0100
0100
0001
1000
,
0001
0010
0100
1000
,
0000
0110
2002
3003
,
1000
0010
0001
0100
,
1000
0100
0001
0010
,
1000
0100
0010
0001
,
1001
0110
1002
0103
,
0001
0010
1000
0100
,
0001
0100
1000
0010
,
0001
0001
1000
1000
,
0010
0000
0010
0000
,
1001
0020
0000
0000
,
0000
0000
0000
0000
,
0000
0000
0000
0000
,
0030
0000
0000
0000
;

//---------------dance-single - BEGINNER----------------
#NOTEDATA:;
#CHARTNAME:xRGTMx-BEG;
#STEPSTYPE:dance-single;
#DESCRIPTION:BEGINNER;
#CHARTSTYLE:;
#DIFFICULTY:Beginner;
#METER:1;
#RADARVALUES:0.100985,0.249324,0.038211,0.038211,0.000000,66.000000,4.000000,4.000000,0.000000,0.000000,0.000000,0.000000,0.000000,0.100985,0.249324,0.038211,0.038211,0.000000,66.000000,4.000000,4.000000,0.000000,0.000000,0.000000,0.000000,0.000000;
#CREDIT:xRGTMx;
#NOTES:
// measure 0
0000
0000
0000
0000
,  // measure 1
1001
0000
0000
0000
,  // measure 2
0000
0000
0000
0000
,  // measure 3
0000
0000
0000
0000
,  // measure 4
0000
0000
0000
0000
,  // measure 5
1000
0000
0000
0000
,  // measure 6
0000
0000
0000
0000
,  // measure 7
0001
0000
0000
0000
,  // measure 8
0100
0000
0000
0000
,  // measure 9
0001
0000
0000
0000
,  // measure 10
0000
0000
0000
0000
,  // measure 11
1000
0000
0000
0000
,  // measure 12
0010
0000
0010
0000
,  // measure 13
1000
0000
0000
0000
,  // measure 14
0000
0000
0000
0000
,  // measure 15
0001
0000
0000
0000
,  // measure 16
0010
0000
0100
0000
,  // measure 17
0010
0000
0000
0000
,  // measure 18
0001
0000
0000
0000
,  // measure 19
1000
0000
0000
0000
,  // measure 20
0010
0000
0000
0000
,  // measure 21
0100
0000
0000
0000
,  // measure 22
0010
0000
0000
0000
,  // measure 23
1000
0000
0000
0000
,  // measure 24
0001
0000
0000
0000
,  // measure 25
1001
0000
0000
0000
,  // measure 26
0000
0000
0000
0000
,  // measure 27
0000
0000
0000
0000
,  // measure 28
0000
0000
0000
0000
,  // measure 29
0000
0000
0000
0000
,  // measure 30
0000
0000
0000
0000
,  // measure 31
0000
0000
0000
0000
,  // measure 32
0010
0000
0000
2002
,  // measure 33
3003
0000
0000
0000
,  // measure 34
0000
0000
0000
0000
,  // measure 35
1000
0000
0000
0000
,  // measure 36
0001
0000
0000
0000
,  // measure 37
0010
0000
0000
0000
,  // measure 38
0000
0000
0000
0000
,  // measure 39
0001
0000
0000
0000
,  // measure 40
1000
0000
0000
0000
,  // measure 41
0010
0000
0010
0000
,  // measure 42
0010
0000
0000
0000
,  // measure 43
0100
0000
0100
0000
,  // measure 44
0100
0000
0000
0000
,  // measure 45
0001
0000
0000
0000
,  // measure 46
1000
0000
0000
0000
,  // measure 47
0001
0000
1000
0000
,  // measure 48
0001
0000
0000
0000
,  // measure 49
1000
0000
0100
0000
,  // measure 50
0010
0000
0001
0000
,  // measure 51
1000
0000
0000
0000
,  // measure 52
0001
0000
0000
0000
,  // measure 53
0001
0000
0100
0000
,  // measure 54
0010
0000
1000
0000
,  // measure 55
0001
0000
0000
0000
,  // measure 56
1000
0000
0000
0000
,  // measure 57
1000
0000
0010
0000
,  // measure 58
0100
0000
0001
0000
,  // measure 59
1000
0000
0000
0000
,  // measure 60
0001
0000
0000
0000
,  // measure 61
0001
0000
0010
0000
,  // measure 62
0100
0000
1000
0000
,  // measure 63
0001
0000
1000
0000
,  // measure 64
0010
0000
0100
0000
,  // measure 65
2002
3003
0000
0000
;
