#TITLE:Northern Lights;
#SUBTITLE:;
#ARTIST:Hommarju;
#TITLETRANSLIT:;
#SUBTITLETRANSLIT:;
#ARTISTTRANSLIT:;
#GENRE:;
#CREDIT:;
#BANNER:[Mother Nature] - Northern Lights.png;
#BACKGROUND:[Mother Nature] - Northern Lights-bg.png;
#LYRICSPATH:;
#CDTITLE:;
#MUSIC:[Mother Nature] - Northern Lights.mp3;
#OFFSET:-0.560000;
#SAMPLESTART:78.699745;
#SAMPLELENGTH:15.000003;
#SELECTABLE:YES;
#BPMS:0.000000=175.000000
,100.000000=87.500000
,100.500000=175.000000
,131.500000=87.500000
,147.000000=175.000000
,163.000000=87.500000
,163.500000=175.000000
,170.500000=87.500000
,171.000000=175.000000
,208.500000=87.500000
,209.000000=175.000000
;
#STOPS:139.250000=0.343000,
177.000000=0.171000
;
#BGCHANGES:;
#KEYSOUNDS:;
#ATTACKS:;

//---------------dance-single - ----------------
#NOTES:
     dance-single:
     :
     Hard:
     8:
     0.590499,0.977290,0.019092,0.343662,0.176604,395.000000,2.000000,36.000000,0.000000,0.000000,0.000000,0.590499,0.977290,0.019092,0.343662,0.176604,395.000000,2.000000,36.000000,0.000000,0.000000,0.000000:
// measure 0
0000
0000
0000
0000
,  // measure 1
0000
0000
0000
0000
,  // measure 2
0000
0000
0000
0000
,  // measure 3
0000
0000
0000
0000
,  // measure 4
0000
0000
0000
0000
,  // measure 5
0000
0000
0000
0000
,  // measure 6
0000
0000
0000
0000
,  // measure 7
0000
0000
0000
0000
,  // measure 8
0000
0000
0000
0000
,  // measure 9
1000
1000
0001
0001
,  // measure 10
1000
1000
0010
0010
,  // measure 11
0100
0100
0001
0001
,  // measure 12
1000
1000
0001
0001
,  // measure 13
1000
0100
1000
0000
0001
0100
0001
0000
,  // measure 14
1000
0010
1000
0000
0001
0010
0001
0000
,  // measure 15
1000
0100
1000
0100
0010
0001
0010
0001
,  // measure 16
2000
3000
2000
3000
2000
3000
0002
0000
,  // measure 17
1003
0100
1000
0010
1000
0100
0010
0010
,  // measure 18
0001
0100
0001
0010
0001
0100
0010
0010
,  // measure 19
1000
0100
0001
0100
1000
0010
0100
0100
,  // measure 20
0002
0023
2030
3020
0032
0000
2003
0000
,  // measure 21
3001
1000
0010
1000
0001
0100
0010
0010
,  // measure 22
1000
0001
0010
0001
1000
0020
0230
0000
,  // measure 23
0301
0010
0001
1000
0010
0100
0001
0001
,  // measure 24
2000
3000
1010
0020
0130
0010
0200
0000
,  // measure 25
0302
1003
0100
0010
0100
1000
1000
0001
,  // measure 26
0010
0100
0010
0001
1000
0020
0000
1030
,  // measure 27
0100
0001
0100
1000
0010
0100
0100
0001
,  // measure 28
0000
1000
0000
0000
0010
0000
0000
1000
0000
0000
0002
0000
0000
0000
1003
0000
,  // measure 29
0010
1000
0000
0001
0100
0001
0000
1000
,  // measure 30
0100
1000
0000
0001
0010
0001
0000
1000
,  // measure 31
0010
0100
0001
1000
0100
0010
0001
2000
,  // measure 32
0000
0000
0000
0000
0000
3001
0000
2000
,  // measure 33
0000
0000
3100
0000
1000
0002
0000
2003
0000
0000
3010
0100
0010
0000
0002
0000
,  // measure 34
0000
0000
1003
0000
0001
2000
0000
3002
0000
1003
0100
0010
0001
1000
0002
0000
,  // measure 35
1003
0000
0010
0200
0000
0320
0000
1030
0001
0010
0100
1000
0002
0000
0000
0000
,  // measure 36
1003
0000
0001
0200
0000
0302
0000
0013
0100
1000
0010
0100
0001
0000
0100
0000
,  // measure 37
0001
0100
0010
1000
0010
0010
0000
1000
,  // measure 38
0100
1000
0001
0010
0001
0001
1000
0010
,  // measure 39
1000
0010
0100
0010
0100
0100
0000
0001
,  // measure 40
0010
0000
0001
0000
0010
0000
0000
0100
0000
0000
1000
0000
0002
0000
1003
0000
,  // measure 41
0010
1000
0100
0010
0100
0000
1000
0001
,  // measure 42
1000
0000
0010
0000
0000
0100
0000
0000
0010
0000
2000
0000
3001
0000
1000
0000
,  // measure 43
0010
0000
0100
0000
0010
0000
0100
0000
0000
0000
0001
0000
0000
0010
0000
0000
,  // measure 44
0001
0000
0000
1000
0000
0000
0010
0000
1000
0000
0010
0000
1000
0000
0001
0000
,  // measure 45
0100
0001
0001
0000
1000
0100
1000
0001
,  // measure 46
0100
0010
0010
1000
0001
1000
0001
0100
,  // measure 47
0010
0100
0100
0000
0001
0010
0001
1000
,  // measure 48
0010
1000
1000
0001
0010
0001
0000
1000
,  // measure 49
0010
1000
0000
0001
0100
0001
0000
1000
,  // measure 50
0100
1000
0000
0001
0010
0100
1000
0001
,  // measure 51
0100
0010
1000
0002
0000
0000
0000
0000
,  // measure 52
0000
0000
2003
0000
3001
0000
1000
0000
0010
0000
1000
0000
0001
0000
0000
1000
,  // measure 53
0000
0000
0001
0000
0000
0000
0010
0000
0100
0000
1000
0000
0010
0000
0000
0100
,  // measure 54
0000
0000
0010
0000
1000
0000
0001
0000
0010
0000
0001
0000
1000
0000
0000
0001
,  // measure 55
0000
0000
1000
0000
0000
0000
0001
0000
0010
0000
0100
0000
1000
0000
0000
0010
,  // measure 56
0000
0000
1000
0000
0001
0000
0100
0000
0010
0000
0100
0000
0001
0000
0000
0010
,  // measure 57
0000
0000
0001
0000
0000
0000
1000
0000
0010
0000
0100
0000
0001
0000
0000
0010
,  // measure 58
0000
0000
0001
0000
1000
0000
0010
0000
0100
0000
0010
0000
1000
0000
0000
0100
,  // measure 59
0000
0000
1000
0000
0000
0000
0001
0000
1000
0000
0010
0000
0100
0000
0000
0001
,  // measure 60
0000
0000
1000
0000
0100
0000
0010
0000
0001
0000
0100
0000
0010
0000
0000
1000
,  // measure 61
0000
0000
0010
0000
0000
0000
1000
0000
0001
0000
0100
0000
0001
0000
0000
0010
,  // measure 62
0000
0000
0001
0000
1000
0000
0000
0010
0000
0000
1000
0000
0001
0000
0000
0010
,  // measure 63
0000
0000
0001
0000
0000
0000
1000
0000
1000
0000
0001
0000
0010
0000
0000
0100
,  // measure 64
0000
0010
0001
1000
0010
1000
0001
0100
,  // measure 65
0010
0100
0001
1000
0100
1000
0001
0010
,  // measure 66
0100
0010
0001
1000
0010
0001
0010
1000
,  // measure 67
0001
0100
0020
0000
0000
0000
0000
0000
,  // measure 68
0130
1001
0000
0000
;

//---------------dance-single - ----------------
#NOTES:
     dance-single:
     :
     Challenge:
     10:
     0.900068,1.000000,0.305478,0.505947,0.878248,575.000000,32.000000,53.000000,0.000000,0.000000,0.000000,0.900068,1.000000,0.305478,0.505947,0.878248,575.000000,32.000000,53.000000,0.000000,0.000000,0.000000:
0000
0000
0000
0000
,
0000
0000
0000
0000
,
0000
0000
0000
0000
,
0000
0000
0000
0000
,
0000
0000
0000
0000
,
0000
0000
0000
0000
,
0000
0000
0000
0000
,
0000
0000
0000
0000
,
0000
0000
0000
0000
,
2000
0000
3000
0000
2000
0000
3000
0000
0001
0010
0001
0010
0002
0000
0000
0000
,
1003
0000
0100
0000
1000
0000
0100
1000
0010
1000
0010
0000
1000
0000
0100
0000
,
0020
0000
0030
0000
0020
0000
0030
0000
0001
1000
0001
1000
0002
0000
0000
0000
,
1003
0000
0100
0000
1000
0000
0010
0100
0001
0100
0001
0000
1000
0000
0010
0000
,
1000
0000
0001
0000
0100
0010
0000
0010
1000
0000
0001
0000
0010
0100
0000
0100
,
1000
0000
0001
0000
0100
0010
0000
0010
1000
0100
1000
0000
0001
0010
0000
0001
,
1000
0100
1000
0100
0010
0001
0010
0001
0010
0100
0010
0100
1000
0001
1000
0001
,
0200
0310
0200
0310
0200
0310
0020
0000
,
1030
0000
0100
1000
0010
0000
0100
0000
0010
0000
1000
0100
0010
0000
0010
0000
,
0001
0000
0010
0001
0100
0000
0010
0000
0100
0000
0001
0000
0010
0000
0100
0000
,
1000
0000
0001
0100
0010
0000
0100
0000
1000
0000
0100
0010
1000
0000
1000
0000
,
0002
0203
2300
3200
0302
0000
2003
0000
,
3001
0000
0100
0010
1000
0000
0100
0000
0001
0000
0100
1000
0010
0000
0010
0000
,
1000
0000
0010
0100
0001
0000
0010
0000
1000
0000
0020
0000
0032
0000
0000
0000
,
1003
0000
0010
1000
0100
0000
0010
0000
1000
0000
0010
0100
1000
0000
0001
0000
,
1001
0000
0000
1000
0010
0000
0110
0000
0001
0010
0100
1000
0002
0000
0000
0000
,
2003
3000
1001
0000
1000
0000
0100
1000
0000
0000
0010
0000
0100
0000
0001
0000
,
0000
0001
0010
0000
0100
0000
1000
0010
0000
0000
0220
0000
0030
0000
0302
0000
,
0000
1003
0100
0000
0010
0000
0001
0100
0000
0000
0010
0000
0100
0000
0001
0000
,
0000
0001
1000
0000
1010
0000
0000
0101
0000
0000
2002
0000
3003
0000
1000
0000
,
0010
0000
0100
0001
0000
0001
0010
0000
0100
0000
1000
0010
0000
0010
0100
0000
,
0010
0000
1000
0100
0000
0100
0010
0001
0010
0000
0001
1000
0000
1000
0010
0100
,
0010
0100
0001
0010
0001
0010
0100
1000
0100
1000
0100
0010
0100
0010
0002
0000
,
0000
0100
0000
0000
0100
0000
0000
0103
0000
0000
0110
0000
0000
0000
2002
0000
,
0003
0000
3010
0000
1010
0202
0303
2020
3030
0100
0010
0100
0010
0000
2002
0000
,
3000
0000
0013
0000
0011
2200
3300
0022
0033
0001
0010
1000
0010
0001
2001
0000
,
3010
0000
1010
0202
0303
2020
3030
0001
0100
0010
1000
0001
2002
0000
3000
0000
,
0013
0000
0011
2200
3300
0022
0033
1000
0010
0001
0010
1000
0001
0000
0010
0000
,
0100
0000
1000
0000
0001
0000
0010
0000
0100
0010
0100
0010
0000
0000
0100
0000
,
0010
0000
0001
0000
1000
0000
0100
0010
0001
1000
0001
1000
0001
0000
0100
0000
,
0010
0000
1000
0000
0001
0000
0100
0000
0010
0100
0010
0100
0000
0000
0001
0010
,
0001
0000
0010
0000
0100
0000
0100
1000
0000
1000
0010
0000
2000
3100
0010
0000
,
0001
1000
0001
0000
0100
0000
0010
0000
1000
0000
0000
0000
1000
0001
1000
0000
,
0010
0000
0100
0000
0100
0001
0000
0001
0010
0000
0002
0103
0010
0000
1000
0001
,
1000
0000
0100
0000
0010
0000
0001
0000
0000
0000
0001
0000
0001
0010
0000
0010
,
0100
0000
0000
0000
0000
0000
0000
0000
0000
0000
0000
0000
0000
0000
0000
0000
0000
0000
0000
0000
0000
0000
0000
0000
0100
0000
0000
0000
0000
0000
0000
0000
0000
0000
0000
0000
2000
0000
0000
0000
0000
0000
0000
0000
0000
0000
0000
0000
0000
3000
0000
0000
0000
0000
0000
0000
0000
0000
0000
0000
0000
0000
0000
0000
0000
0000
0000
0000
0000
0000
0000
0000
0001
0000
0000
0000
0000
0000
0000
0000
0000
0000
0000
0000
0000
0000
0000
0000
0000
0000
0000
0000
0000
0000
0000
0000
0100
0000
0000
0000
0000
0000
0000
0000
0000
0000
0000
0000
0000
0000
0000
0000
0000
0000
0000
0000
0000
0000
0000
0000
1000
0000
0000
0000
0000
0000
0000
0000
0000
0000
0000
0000
0000
0000
0000
0000
0000
0000
0000
0000
0000
0000
0000
0000
0100
0000
0000
0000
0000
0000
0000
0000
0000
0000
0000
0000
0000
0000
0000
0000
0000
0000
0000
0000
0000
0000
0000
0000
0001
0000
0000
0000
0000
0000
0000
0000
0000
0000
0000
0000
0000
0000
0000
0000
0000
0000
0000
0000
0000
0000
0000
0000
,
0010
0000
0100
0010
0100
0010
0000
0000
0001
0000
0010
0000
1000
0000
0010
0000
,
0001
0010
0100
1000
0100
1000
0001
0000
0100
0000
0010
0000
0100
0000
0001
0000
,
0010
0000
0100
0010
0100
0010
0000
0000
0001
0000
0010
0000
0100
0000
0010
0000
,
0001
1000
0010
0100
0010
0100
0001
0000
0010
0000
0001
0100
0000
0010
1000
0000
,
0100
0000
1000
0010
0000
0100
0001
0000
0010
0000
0100
1000
0000
1000
0001
0000
,
0100
0000
0010
1000
0000
1000
0001
0010
0001
0010
0100
0010
0100
0010
0100
1000
,
0100
1000
0001
0100
0001
0100
0010
0000
0100
0010
0100
0000
0001
0010
0100
1000
,
0001
0000
2000
0000
3001
0000
0100
0000
0010
0000
0100
0000
0001
0000
0001
1000
,
0000
1000
0010
0000
0000
0000
1000
0100
1000
0000
0001
0000
0010
0000
0010
0100
,
0000
0100
0010
0001
1000
0000
0010
0000
0001
0000
0010
0000
1000
0000
1000
0001
,
0000
0001
0100
0000
0000
0000
0001
0010
0001
0000
0100
0000
0010
0000
0010
0100
,
0000
0100
0001
0000
1000
0000
0100
0000
0010
0000
0100
0010
0001
0000
0010
0001
,
0000
0010
0100
0000
0000
0000
1000
0010
1000
0000
0100
0000
0010
0000
0010
0001
,
0000
0001
1000
0000
0001
0000
0010
0000
1000
0000
0010
0100
1000
0000
0100
1000
,
0000
0100
0010
0000
0000
0000
0001
1000
0001
0000
0010
0000
1001
0000
0000
0110
,
0000
0000
1001
0000
0001
0000
0010
0000
1000
0000
0010
0000
0100
0000
0100
0010
,
0000
0010
0001
0000
0000
0000
1000
0001
1000
0000
0100
0000
0010
0000
0010
0001
,
0000
0001
0100
0010
1000
0000
0100
1000
0100
0000
0010
0000
0001
0000
0010
0001
,
0010
0000
0001
0000
0000
0000
1000
0001
1000
0000
0001
0000
0110
0000
0000
1001
,
0000
0000
0110
0000
0001
0000
1000
0000
0010
0100
0000
0100
0001
0000
1000
0000
,
0100
0010
0000
0010
0001
0000
1000
0000
0010
0100
0000
0100
0001
0010
0001
0000
,
1000
0001
0000
0001
1000
0100
0010
0100
0010
0001
0100
0010
1000
0001
0010
0001
,
0100
0010
1000
0100
0010
0000
0100
0010
0100
0000
0001
0100
0010
1000
0001
0000
,
0110
1001
0000
0000
;

//---------------dance-single - ----------------
#NOTES:
     dance-single:
     :
     Beginner:
     2:
     0.205925,0.293187,0.047731,0.114554,0.000000,134.000000,5.000000,12.000000,0.000000,0.000000,0.000000,0.205925,0.293187,0.047731,0.114554,0.000000,134.000000,5.000000,12.000000,0.000000,0.000000,0.000000:
// measure 0
0000
0000
0000
0000
,  // measure 1
0000
0000
0000
0000
,  // measure 2
0000
0000
0000
0000
,  // measure 3
0000
0000
0000
0000
,  // measure 4
0000
0000
0000
0000
,  // measure 5
0000
0000
0000
0000
,  // measure 6
0000
0000
0000
0000
,  // measure 7
0000
0000
0000
0000
,  // measure 8
0000
0000
0000
0000
,  // measure 9
1000
0000
0001
0000
,  // measure 10
0100
0000
0010
0000
,  // measure 11
0100
0000
0010
0000
,  // measure 12
1000
0000
0001
0000
,  // measure 13
1000
0000
1000
0000
,  // measure 14
0100
0000
0100
0000
,  // measure 15
0010
0000
0010
0000
,  // measure 16
0002
0000
0000
0003
,  // measure 17
0001
0001
0001
0000
,  // measure 18
1000
1000
1000
0000
,  // measure 19
0010
0010
0010
0000
,  // measure 20
0200
0300
0200
0300
,  // measure 21
0100
0100
0100
0000
,  // measure 22
0001
0001
0002
0003
,  // measure 23
1000
1000
1000
0000
,  // measure 24
0020
0030
0020
0000
,  // measure 25
0030
0010
0000
0010
0000
0000
0000
1000
,  // measure 26
0000
1000
0000
2000
0000
3000
0000
0001
,  // measure 27
0000
0001
0000
0001
0000
0000
0000
0100
,  // measure 28
0000
0000
0000
0100
0000
0000
0000
0010
,  // measure 29
0000
0000
0000
0001
0000
0000
0000
0010
,  // measure 30
0000
0000
0000
0100
0000
0000
0000
1000
,  // measure 31
0000
0000
0000
0010
0000
0000
0000
0200
,  // measure 32
0000
0000
0000
0000
0000
0300
0000
0110
,  // measure 33
0000
0000
0000
0010
0000
0000
0000
1001
,  // measure 34
0000
0000
0000
0001
0000
0000
0000
0110
,  // measure 35
0000
0010
0000
1001
,  // measure 36
0000
1000
0000
0001
,  // measure 37
0000
0001
0000
0000
,  // measure 38
1000
1000
0000
0010
,  // measure 39
0000
0010
0000
0000
,  // measure 40
0100
0000
0100
0000
0200
0000
0300
0100
,  // measure 41
0000
0100
0000
0000
0000
0000
0000
0001
,  // measure 42
0000
0001
0000
0002
0000
0003
0001
0000
,  // measure 43
0001
0000
0000
1000
,  // measure 44
1000
0000
0000
1000
0000
0000
0000
1000
,  // measure 45
0000
0000
0000
0001
0000
0000
0000
0001
,  // measure 46
0000
0000
0000
0100
0000
0000
0000
0100
,  // measure 47
0000
0000
0000
0010
0000
0000
0000
0010
,  // measure 48
0000
0000
0000
1000
0000
0000
0000
0100
,  // measure 49
0000
0000
0000
0010
0000
0000
0000
0001
,  // measure 50
0000
0000
0000
1000
0000
0000
0000
0010
,  // measure 51
0000
0000
0000
0200
0000
0000
0000
0000
,  // measure 52
0000
0300
0100
0000
0100
0000
0100
0000
,  // measure 53
0000
0001
0000
1000
,  // measure 54
0000
0010
0010
0010
,  // measure 55
0000
1000
0000
0001
,  // measure 56
0000
0100
0100
0100
,  // measure 57
0000
0010
0000
1000
,  // measure 58
0000
0001
0001
0001
,  // measure 59
0000
0100
0000
0010
,  // measure 60
0000
0100
0100
0100
,  // measure 61
0000
0001
0000
1000
,  // measure 62
0000
0010
0010
0010
,  // measure 63
0010
0000
0001
0001
,  // measure 64
0000
1000
0000
0100
,  // measure 65
0000
0010
0000
0001
,  // measure 66
0000
1000
0000
0001
,  // measure 67
0000
2000
0000
0000
,  // measure 68
3000
1001
0000
0000
;

//---------------dance-single - ----------------
#NOTES:
     dance-single:
     :
     Easy:
     4:
     0.325934,0.390916,0.066823,0.114554,0.000000,220.000000,7.000000,12.000000,0.000000,0.000000,0.000000,0.325934,0.390916,0.066823,0.114554,0.000000,220.000000,7.000000,12.000000,0.000000,0.000000,0.000000:
// measure 0
0000
0000
0000
0000
,  // measure 1
0000
0000
0000
0000
,  // measure 2
0000
0000
0000
0000
,  // measure 3
0000
0000
0000
0000
,  // measure 4
0000
0000
0000
0000
,  // measure 5
0000
0000
0000
0000
,  // measure 6
0000
0000
0000
0000
,  // measure 7
0000
0000
0000
0000
,  // measure 8
0000
0000
0000
0000
,  // measure 9
1000
1000
0100
0100
,  // measure 10
0010
0010
0001
0001
,  // measure 11
1000
1000
0010
0010
,  // measure 12
0100
0100
0001
0001
,  // measure 13
1000
1000
0010
0010
,  // measure 14
1000
1000
0100
0100
,  // measure 15
1000
1000
0001
0001
,  // measure 16
2000
0000
0000
3001
,  // measure 17
1001
0010
0001
0001
,  // measure 18
1000
0010
1000
1000
,  // measure 19
0100
0010
0001
0001
,  // measure 20
2000
3020
0230
0310
,  // measure 21
1000
0100
0010
0010
,  // measure 22
0001
0100
0010
0020
,  // measure 23
0130
0001
0100
0100
,  // measure 24
0010
1000
0100
0100
,  // measure 25
0020
0031
0000
1000
0000
1000
0000
0100
,  // measure 26
0000
0010
0000
0100
0000
0200
0000
1300
,  // measure 27
0000
0010
0000
1000
0000
1000
0000
0001
,  // measure 28
0000
0010
0000
0100
0000
0100
0000
0001
,  // measure 29
0000
0001
0000
0010
0000
0010
0000
0100
,  // measure 30
0000
0100
0000
1000
0000
1000
0000
0001
,  // measure 31
0000
0010
0000
0100
0000
1000
0000
0002
,  // measure 32
0000
0000
0000
0000
0000
1003
0000
1001
,  // measure 33
0000
1000
0000
0001
0000
1000
0000
0110
,  // measure 34
0000
0010
0000
0100
0000
0010
0000
1001
,  // measure 35
1000
0001
1000
0110
,  // measure 36
0010
0100
0010
1000
,  // measure 37
1000
0010
0010
0000
,  // measure 38
1000
0010
0010
0100
,  // measure 39
0100
0001
0001
0000
,  // measure 40
0100
0000
0001
0000
0001
0000
2000
3010
,  // measure 41
0000
1000
0000
1000
0000
0000
0000
0010
,  // measure 42
0000
1000
0000
1000
0000
0002
0103
0000
,  // measure 43
0001
0001
0000
0100
,  // measure 44
0001
0000
0000
1000
0000
0100
0000
1000
,  // measure 45
0000
0010
0000
0000
0000
0010
0000
1000
,  // measure 46
0000
1000
0000
0001
0000
0010
0000
0001
,  // measure 47
0000
0100
0000
0000
0000
0100
0000
0001
,  // measure 48
0000
0001
0000
1000
0000
1000
0000
0010
,  // measure 49
0000
0010
0000
0100
0000
0100
0000
0001
,  // measure 50
0000
0001
0000
1000
0000
0010
0000
0100
,  // measure 51
0000
0001
0000
2000
0000
0000
0000
0000
,  // measure 52
0000
3001
1001
0000
0100
0000
1000
0000
,  // measure 53
1000
0000
0010
0100
,  // measure 54
0100
0001
0010
0001
,  // measure 55
0001
0000
0100
0010
,  // measure 56
0010
1000
0100
1000
,  // measure 57
1000
0000
0010
0100
,  // measure 58
0100
0001
0010
0001
,  // measure 59
0001
0000
0100
0010
,  // measure 60
0010
1000
0100
0010
,  // measure 61
0100
0000
1000
0010
,  // measure 62
0100
0001
0100
0010
,  // measure 63
0100
0000
0001
0010
,  // measure 64
0100
1000
1000
0001
,  // measure 65
0001
0100
0100
0010
,  // measure 66
0010
1000
0001
0100
,  // measure 67
0010
0200
0000
0000
,  // measure 68
0310
1001
0000
0000
;

//---------------dance-single - ----------------
#NOTES:
     dance-single:
     :
     Medium:
     7:
     0.475945,0.879561,0.047731,0.267293,0.128873,316.000000,5.000000,28.000000,0.000000,0.000000,0.000000,0.475945,0.879561,0.047731,0.267293,0.128873,316.000000,5.000000,28.000000,0.000000,0.000000,0.000000:
// measure 0
0000
0000
0000
0000
,  // measure 1
0000
0000
0000
0000
,  // measure 2
0000
0000
0000
0000
,  // measure 3
0000
0000
0000
0000
,  // measure 4
0000
0000
0000
0000
,  // measure 5
0000
0000
0000
0000
,  // measure 6
0000
0000
0000
0000
,  // measure 7
0000
0000
0000
0000
,  // measure 8
0000
0000
0000
0000
,  // measure 9
1000
1000
0001
0001
,  // measure 10
0100
0100
0010
0010
,  // measure 11
0100
0100
0001
0001
,  // measure 12
1000
1000
0010
0010
,  // measure 13
1000
0100
1000
0010
,  // measure 14
0100
0001
0010
0001
,  // measure 15
1000
0100
1000
0000
0001
0100
0001
0000
,  // measure 16
2000
3000
2000
3000
2000
3000
0002
0000
,  // measure 17
1003
0100
1000
0000
0001
0000
0001
0000
,  // measure 18
1000
0010
1000
0000
0001
0000
1000
0000
,  // measure 19
0001
0010
0001
0000
1000
0000
1000
0000
,  // measure 20
0001
1000
0001
1000
0002
0000
0103
0000
,  // measure 21
0010
1000
0010
0000
0100
0000
0100
0000
,  // measure 22
0001
0010
0001
0000
1000
0010
2000
0000
,  // measure 23
3001
0100
0001
0000
1000
0000
1000
0000
,  // measure 24
0001
0000
0010
0001
0000
1000
0010
0000
,  // measure 25
0002
1003
0000
0100
1000
0100
0000
1000
,  // measure 26
0000
1000
0000
0001
0010
0002
0000
0103
,  // measure 27
0000
0100
0000
0010
1000
0010
0000
0001
,  // measure 28
0000
0001
0000
0000
1000
0000
0000
1000
0000
0000
2000
0000
0000
0000
3001
0000
,  // measure 29
0000
0100
0000
0010
0000
0100
0000
0001
,  // measure 30
0000
0010
0000
0100
0000
0010
0000
0001
,  // measure 31
1000
0001
0000
0100
0010
0100
0000
0002
,  // measure 32
0000
0000
0000
0000
0000
1003
0000
2001
,  // measure 33
0000
0000
3010
0000
1000
0002
0000
2003
0000
0000
3010
0000
0010
0000
1002
0000
,  // measure 34
0000
0000
0013
0000
0001
2000
0000
3002
0000
0003
0010
0000
0020
0030
2001
0000
,  // measure 35
3100
0000
1000
0002
0000
2003
0000
0000
3100
0000
0100
0000
1002
0000
0000
0000
,  // measure 36
0103
0000
0001
2000
0000
3002
0000
0023
0000
0130
1000
0000
0001
0000
0010
0000
,  // measure 37
0001
0000
1000
0010
1000
0000
0000
0010
,  // measure 38
1000
0000
0001
0010
0001
0000
0001
0100
,  // measure 39
0001
0000
1000
0100
1000
0000
0000
0100
,  // measure 40
1000
0000
0000
0000
0001
0000
0000
0100
0000
0000
0001
0000
0200
0000
0310
0000
,  // measure 41
0000
0100
0010
0100
0000
0000
0001
1000
,  // measure 42
0000
0000
0001
0000
0000
1000
0000
0000
0001
0000
0020
0000
0130
0000
0000
0000
,  // measure 43
0010
0000
0100
0000
0010
0000
0000
0000
0000
0000
0001
0000
0000
0010
0000
0000
,  // measure 44
0100
0000
0000
1000
0000
0000
0001
0000
0010
0000
0100
0000
0000
0000
0100
0000
,  // measure 45
0010
0001
0000
0000
0001
1000
0000
0001
,  // measure 46
1000
0010
0000
1000
0010
0100
0000
0100
,  // measure 47
0010
1000
0000
0000
1000
0001
0000
1000
,  // measure 48
0001
0100
0000
0001
0010
0001
0000
0010
,  // measure 49
0001
0010
0000
0001
0100
0001
0000
0100
,  // measure 50
0001
0100
0000
0010
1000
0010
0000
1000
,  // measure 51
0010
1000
0000
0002
0000
0000
0000
0000
,  // measure 52
0000
0000
1003
0000
0010
0000
0100
0000
0010
0000
0100
0000
0010
0000
0000
0100
,  // measure 53
0000
0010
0000
1000
0001
0000
0001
1000
,  // measure 54
0001
0000
0000
0000
1000
0000
0010
0000
1000
0000
0010
0000
1000
0000
0000
0010
,  // measure 55
0000
0000
1000
0000
0000
0000
0001
0000
0010
0000
0000
0000
0001
0000
0000
1000
,  // measure 56
0000
0000
0001
0000
0100
0000
0010
0000
0100
0000
0010
0000
0100
0000
0000
0010
,  // measure 57
0000
0000
0100
0000
0000
0000
0001
0000
1000
0000
0000
0000
0001
0000
0000
1000
,  // measure 58
0000
0000
0001
0000
1000
0000
0100
0000
1000
0000
0100
0000
1000
0000
0000
0100
,  // measure 59
0000
0000
1000
0000
0000
0000
0001
0000
0010
0000
0000
0000
0100
0000
0000
1000
,  // measure 60
0000
0000
0010
0000
0100
0000
0001
0000
0100
0000
0001
0000
0100
0000
0000
0001
,  // measure 61
0000
0100
0000
0010
1000
0000
0010
1000
,  // measure 62
0010
0000
0000
0000
1000
0000
0000
0100
0000
0000
1000
0000
0001
0000
0000
0100
,  // measure 63
0000
0000
0001
0000
0000
0000
1000
0000
0001
0000
0000
0000
0100
0000
0000
0010
,  // measure 64
0000
0100
0001
0100
0001
0000
0100
0001
,  // measure 65
0100
0000
0010
0100
0010
0000
0100
0010
,  // measure 66
0100
0000
0010
1000
0010
0000
1000
0010
,  // measure 67
1000
0002
0000
0000
,  // measure 68
1003
1001
0000
0000
;
