#TITLE:Lotus flower;
#SUBTITLE:;
#ARTIST:memme;
#TITLETRANSLIT:;
#SUBTITLETRANSLIT:;
#ARTISTTRANSLIT:;
#GENRE:;
#CREDIT:Telperion;
#BANNER:[Mother Nature] - Lotus flower.png;
#BACKGROUND:[Mother Nature] - Lotus flower-bg.png;
#JACKET:[Mother Nature] - Lotus flower-jacket.png;
#LYRICSPATH:;
#CDTITLE:cdtitle.png;
#MUSIC:[Mother Nature] - Lotus flower.ogg;
#OFFSET:-1.895000;
#SAMPLESTART:41.903999;
#SAMPLELENGTH:14.222000;
#SELECTABLE:YES;
#BPMS:0.000000=135.000000
;
#STOPS:
;
#BGCHANGES:;
#KEYSOUNDS:;
#ATTACKS:;

//---------------dance-single - Telperion----------------
#NOTES:
     dance-single:
     Telperion:
     Challenge:
     9:
     0.607134,0.546249,0.264120,0.160073,0.364166,478.000000,33.000000,20.000000,0.000000,0.000000,0.000000,0.607134,0.546249,0.264120,0.160073,0.364166,478.000000,33.000000,20.000000,0.000000,0.000000,0.000000:
0001
0000
0001
0100
0001
0000
0001
1000
,
0001
0000
0001
0100
1000
0100
0010
1000
,
0001
0000
0001
0010
0100
0000
0001
0100
,
1000
0001
0010
0001
0200
0000
0320
0000
,
1030
0000
1000
0100
1000
0000
1000
0001
,
1000
0000
1000
0100
0001
1000
0010
0100
,
1000
0000
0000
0000
1000
0000
0010
0000
0200
0000
0000
0301
0100
0001
1000
0000
,
0010
0000
0100
0100
0000
0001
0001
0000
,
1000
1000
0000
0100
0100
0001
0000
0100
,
0010
0000
0001
0001
0000
1000
1000
0000
,
0010
0010
0000
0100
0100
1000
0100
0001
,
1000
0000
0000
0100
0000
0000
1000
0000
0001
0000
0000
0001
0000
0000
0100
0000
,
0010
0000
0000
1000
0000
0000
0010
0000
0100
0000
0000
0100
0000
0000
0001
0000
,
1000
0000
0000
0001
0000
0000
0010
0000
0100
0000
0000
0100
0000
0000
1000
0000
,
0001
0000
0000
0011
0000
0000
0011
0000
1000
0000
0000
1010
0000
0000
0010
0000
,
0100
0000
0000
0001
0100
0000
0010
0000
0100
0000
0000
0100
0001
0000
1000
0000
,
0100
0000
0000
0010
0001
0000
0010
0000
0100
0000
0000
1000
0100
0000
1000
0000
,
0010
0000
0000
0010
0100
0000
0001
0000
1000
0000
0000
0001
1000
0000
0100
0000
,
0010
0000
0000
0010
0001
0000
1000
0000
0010
0000
0001
0000
0010
0000
0100
0000
,
0001
0000
0000
1100
0000
0000
1000
0000
0001
0000
0000
0101
0000
0000
0100
0000
,
0110
0000
0000
1010
0000
0000
1000
0000
1001
0000
0000
0011
0000
0000
0010
0000
,
0110
0000
0100
1000
0000
0000
0001
0000
1001
0000
1000
0010
0000
0010
0100
0000
,
0101
0000
0000
0000
0000
0000
0001
0000
0000
1000
0000
0000
0001
0000
0000
0000
0000
0000
0100
0000
0000
0010
0000
0000
1000
0000
0000
0000
0000
0000
0001
0000
0010
0000
0001
0000
2000
0000
0000
0000
0000
0000
0000
0000
0000
0000
0000
0000
,
3001
0000
0001
0100
0010
0000
0010
0100
,
1000
0000
0000
0000
0000
0000
0100
0000
0010
0000
0100
0000
0001
0000
0000
0000
0000
0000
1000
0000
0000
0000
0000
0000
0200
0000
0000
0000
0000
0000
0000
0000
0000
0000
0000
0000
0300
0000
0000
0000
0000
0000
0010
0000
0000
0100
0000
0000
,
2000
0000
0000
0000
0000
0000
3001
0010
0001
0000
1000
0000
0010
0000
0100
0000
,
0000
0000
0000
0000
0000
0001
0010
0100
,
0000
1000
0010
0100
0000
0100
0001
0010
,
0100
0000
0001
0000
0100
0000
1000
0000
0020
0000
0000
0000
0030
0000
0100
0001
,
2000
0010
0001
3010
1000
0001
0010
0001
,
1000
0000
0010
1000
0001
0000
0010
0000
0100
0000
0010
0001
0100
0000
0010
0000
,
1000
0000
1000
0100
0010
0000
0010
0100
,
0001
0000
0000
0000
0000
0000
0100
0000
0010
0000
0100
0000
1000
0000
0000
0000
0000
0000
0001
0000
0000
0000
0000
0000
0200
0000
0000
0000
0000
0000
0000
0000
0000
0000
0000
0000
0300
0000
0000
0000
0000
0000
0010
0000
0000
0100
0000
0000
,
0002
0000
0000
0000
0000
0000
1003
0010
1000
0000
0001
0000
0010
0000
0200
0000
,
0000
2300
0000
3002
0000
0203
0000
0310
,
1001
0000
1000
0100
0001
0000
1000
0010
,
0001
0000
0000
0000
0000
0000
1000
0000
0010
0000
1000
0000
0001
0000
0000
0000
0000
0000
0100
0000
0000
0000
0000
0000
0020
0000
0000
0000
0000
0000
0000
0000
0000
0000
0000
0000
0030
0000
0000
0000
0000
0000
1000
0000
0000
0001
0000
0000
,
0010
0000
0000
0000
0000
0000
0100
0000
0000
0000
0000
0000
1000
0000
0000
0000
0000
0000
0001
0000
0000
1000
0000
0000
0010
0000
0000
0000
0000
0000
0100
0000
0000
0000
0000
0000
0001
0000
1000
0000
0001
0000
0100
0000
0000
0000
0000
0000
,
0010
0000
0000
0010
0000
0000
1000
0001
0100
1000
0100
0010
1000
0001
0010
0100
,
1000
0001
0100
0010
1000
0001
0010
2000
,
0000
3010
0001
1000
0010
0100
0001
0000
,
1000
0001
1000
0100
0001
0100
0010
0002
,
0000
0000
0000
0103
0000
0000
0010
0000
0000
0001
0000
0000
1000
0000
0000
0100
0010
0100
0001
0000
0000
1000
0000
0000
,
0001
0010
0100
1000
0001
0100
0010
0002
,
0000
0013
1000
0001
0010
0100
1000
0000
,
0001
1000
0100
0001
0100
1000
0001
0100
,
0010
0000
0000
0010
0000
1000
0001
0000
0010
0100
0010
0100
2000
0000
0000
0000
,
3001
0000
0110
0001
1000
0000
1100
0001
,
0010
0000
0000
0000
0000
0000
0110
0000
0000
1000
0000
0000
0001
0000
0000
0100
0010
0100
0001
0000
0000
1000
0000
0000
,
0100
0000
0000
0000
0000
0000
1100
0000
0000
0010
0000
0000
0001
0000
0000
1000
0010
1000
0001
0000
0000
0010
0000
0000
,
0100
0000
0000
1000
0001
1000
0100
0000
0000
0010
0000
0000
0001
0000
0000
0000
0000
0000
0101
0000
0000
0000
0000
0000
,
1001
0000
0110
1000
0001
0000
0101
1000
,
0010
0000
0000
0000
0000
0000
0000
0000
0000
0000
0000
0000
1100
0000
0000
0000
0000
0000
1000
0000
0000
0100
0000
0000
0001
0000
0000
0000
0000
0000
0100
0000
0010
0000
0100
0000
1000
0000
0000
0000
0000
0000
0001
0000
0000
0000
0000
0000
,
0100
0000
0000
0000
0000
0000
0101
0000
0000
0010
0000
0000
1000
0000
0000
0001
0010
0001
1000
0000
0000
0010
0000
0000
,
0100
0000
0000
0100
0000
0000
0100
0001
1000
0100
0001
0100
0010
0100
1000
0001
,
0100
0000
0101
1000
0100
0000
1100
0010
,
0001
0000
0000
0000
0000
0000
0011
0000
0000
1000
0000
0000
0010
0000
0000
0100
0001
0100
0010
0000
0000
1000
0000
0000
,
0001
0000
0000
0000
0000
0000
0101
0000
0000
0010
0000
0000
0100
0000
0000
0001
1000
0001
0100
0000
0000
0010
0000
0000
,
1000
0000
0000
0001
1000
0001
0010
0000
0000
0100
0000
0000
1000
0000
0000
0000
0000
0000
1001
0000
0000
0000
0000
0000
,
0110
0000
1100
0001
0100
0000
0101
0010
,
1000
0000
0000
0000
0000
0000
0000
0000
0000
0000
0000
0000
1010
0000
0000
0000
0000
0000
0010
0000
0000
0100
0000
0000
1000
0000
0000
0000
0000
0000
0100
0000
0010
0000
0100
0000
0001
0000
0000
0000
0000
0000
1000
0000
0000
0000
0000
0000
,
0100
0000
0000
0000
0000
0000
1100
0000
0000
0010
0000
0000
0100
0000
0000
1000
0001
0010
0001
0000
0000
1000
0000
0000
,
0010
0000
0000
0010
0000
0000
0010
1000
0001
0100
1000
0100
0010
1000
0001
0010
,
0200
0000
0000
0000
,
0000
0000
0000
0000
,
0300
0000
0000
0000
;

//---------------dance-single - Telperion----------------
#NOTES:
     dance-single:
     Telperion:
     Hard:
     7:
     0.437914,0.428595,0.200091,0.112051,0.112051,344.000000,25.000000,14.000000,0.000000,0.000000,0.000000,0.437914,0.428595,0.200091,0.112051,0.112051,344.000000,25.000000,14.000000,0.000000,0.000000,0.000000:
0000
0000
0000
0000
,
0000
0000
0000
0000
,
0000
0000
0000
0000
,
0000
0000
0000
0000
,
0000
0000
0000
0000
,
0000
0000
0000
0000
,
0000
0000
0000
0000
,
1000
0000
0000
1000
0000
0000
0000
0000
0001
0000
0000
0001
0000
0000
0000
0000
,
0100
0000
0000
0100
0000
0000
0000
0000
0010
0000
0000
0010
0000
0000
1000
0000
,
0001
0000
0000
0001
0000
0000
0000
0000
0010
0000
0000
0010
0000
0000
0000
0000
,
0100
0000
0000
0100
0000
0000
0000
0000
1000
0000
0000
0001
0000
0000
1000
0000
,
0010
0000
0000
0100
0000
0000
0000
0000
0100
0000
0000
0001
0000
0000
0000
0000
,
0001
0000
0000
1000
0000
0000
0000
0000
1000
0000
0000
0100
0000
0000
0010
0000
,
0001
0000
0000
1000
0000
0000
0000
0000
1000
0000
0000
0010
0000
0000
0100
0000
,
0001
0000
0000
0001
0000
0000
0001
0000
1000
0000
0000
1000
0000
0000
1000
0000
,
0100
0000
0010
0001
0010
0000
0100
1000
,
0001
0000
0100
0001
0100
0000
0010
1000
,
0001
0000
0010
0100
0010
0000
0001
1000
,
0001
0000
0100
0010
1000
0000
0001
0010
,
0100
0000
0000
0010
0000
0000
0001
0000
1000
0000
0000
0010
0000
0000
0010
0000
,
0100
0000
0000
0001
0000
0000
1000
0000
0001
0000
0000
0010
0000
0000
0010
0000
,
0100
0000
0000
1000
0000
0000
0010
0000
0100
0000
0000
0001
0000
0000
0010
0000
,
0100
0000
0000
1000
0000
0000
0001
0000
0100
0000
0000
0000
0210
0000
0000
0000
,
0301
0000
1000
0100
0010
0000
0001
1000
,
0010
0001
0010
1000
0001
0000
0010
0100
,
1000
0000
0001
1000
0010
0100
0001
1000
,
0000
0100
0000
1000
0000
0001
0010
0001
,
0000
1000
0010
1000
0000
0001
0100
0001
,
1000
0100
0010
0001
1000
0000
0010
0100
,
0001
0010
0001
1000
0010
1000
0100
1000
,
0001
0100
0001
0010
0100
0000
1000
0001
,
0100
0000
0100
0010
1000
0000
1000
0100
,
0010
1000
0010
0001
1000
0000
0001
1000
,
0010
0000
0100
0010
1000
0010
0100
0002
,
0000
2003
0000
3200
0000
0320
0000
0031
,
1000
0000
0100
1000
0010
0000
0100
0001
,
0010
1000
0010
0001
1000
0000
0010
0100
,
0001
0001
1000
0100
1000
0010
0001
0010
,
1000
0000
0000
0001
0000
0000
1000
0000
0100
0000
0000
0000
0210
0000
0000
0000
,
1300
0001
1000
0100
0010
0001
0100
2000
,
0000
3100
0001
0010
0100
0001
0100
0000
,
1000
0001
1000
0100
0001
0100
1000
0020
,
0000
0130
0010
0001
0010
0100
0001
1000
,
0100
1000
0001
0100
0010
1000
0100
0002
,
0000
0103
1000
0010
0100
1000
0100
0000
,
0001
0010
0100
1000
0010
0100
0001
1000
,
0100
0000
0000
0100
0000
1000
0001
0000
0100
0000
0010
0000
0210
0000
0000
0000
,
0301
0000
0101
0001
1000
0000
0101
0100
,
0010
0000
0101
0001
0010
0100
1000
0001
,
1000
0000
1100
0100
0010
0000
1100
1000
,
0001
0100
0010
0100
0002
0000
0010
0000
,
1003
0000
1100
1000
0001
0000
1100
0100
,
0010
0000
1100
0100
0001
0100
1000
0001
,
0100
0000
0101
0100
0010
0000
0101
0001
,
1000
0000
0000
0001
0000
0000
1000
0000
0100
0000
0000
0000
0210
0000
0000
0000
,
1300
0000
1010
1000
0001
0000
1010
0010
,
0100
0000
1010
1000
0001
0010
0100
1000
,
0010
0000
1010
0010
0100
0000
1010
1000
,
0001
0010
1000
0010
0200
0000
1000
0000
,
0310
0000
0011
0010
0100
0000
0011
0001
,
1000
0000
0011
0010
1000
0010
0100
1000
,
0001
0000
1001
0010
0100
0000
0110
1000
,
0001
0000
0000
1000
0000
0000
0001
0000
0010
0000
0000
0000
0210
0000
0000
0000
,
0300
0000
0000
0000
;

//---------------dance-single - Telperion----------------
#NOTES:
     dance-single:
     Telperion:
     Medium:
     4:
     0.170363,0.201692,0.000000,0.032015,0.004002,145.000000,0.000000,4.000000,0.000000,0.000000,0.000000,0.170363,0.201692,0.000000,0.032015,0.004002,145.000000,0.000000,4.000000,0.000000,0.000000,0.000000:
0000
0000
0000
0000
,
0000
0000
0000
0000
,
0000
0000
0000
0000
,
0000
0000
0000
0000
,
0000
0000
0000
0000
,
0000
0000
0000
0000
,
0000
0000
0000
0000
,
1000
0000
0000
0000
,
0000
0000
0010
0000
,
0001
0000
0000
0000
,
0000
0000
0100
0000
,
1000
0000
0000
0000
,
0010
0000
0000
0000
,
0001
0000
0000
0000
,
0100
0000
0001
0000
,
1000
0100
0000
1000
,
0001
0100
0000
0001
,
1000
0010
0000
1000
,
0001
0010
0000
0001
,
1000
0010
0100
0010
,
1000
0001
0010
0001
,
1000
0100
0010
0100
,
1000
0001
0200
0300
,
0001
0001
1000
1000
,
0010
1000
0100
0000
,
0010
0001
0000
1000
,
0000
0010
0000
0100
,
0010
1000
0000
0001
,
0010
0100
0000
1000
,
0001
0010
0001
1000
,
0001
0100
0010
0000
,
1000
1000
0001
0001
,
0010
0001
1000
0000
,
0010
0100
0000
0001
,
1000
0100
0010
0001
,
1000
0000
0010
0000
,
0001
0000
0100
0000
,
1000
0001
0010
0100
,
1000
0000
0020
0030
,
0100
0000
0000
0000
,
0001
0000
0000
0000
,
1000
0000
0000
0000
,
0100
0000
0000
0000
,
0010
0000
0000
0000
,
0001
0000
0000
0000
,
1000
0000
0000
0000
,
0010
0100
0020
0030
,
1000
0000
1000
1000
,
0001
0000
0001
0001
,
0100
0000
0100
0100
,
0010
1000
0001
0000
,
0010
0000
0001
0001
,
1000
0000
1000
1000
,
0100
0000
0010
0100
,
1000
0001
0100
0000
,
0010
0000
1000
1000
,
0010
0000
0010
0010
,
0100
0000
0100
0100
,
0001
1000
0100
0000
,
0010
0000
0001
0001
,
1000
0000
1000
1000
,
0010
0000
0100
0001
,
1000
0000
0000
1000
0000
0000
1000
0000
0002
0000
0000
0000
0003
0000
0000
0000
,
0010
0000
0000
0000
;

//---------------dance-single - Telperion----------------
#NOTES:
     dance-single:
     Telperion:
     Easy:
     2:
     0.101761,0.126057,0.000000,0.000000,0.000000,89.000000,0.000000,0.000000,0.000000,0.000000,0.000000,0.101761,0.126057,0.000000,0.000000,0.000000,89.000000,0.000000,0.000000,0.000000,0.000000,0.000000:
0000
0000
0000
0000
,
0000
0000
0000
0000
,
0000
0000
0000
0000
,
0000
0000
0000
0000
,
0000
0000
0000
0000
,
0000
0000
0000
0000
,
0000
0000
0000
0000
,
0100
0000
0000
0000
,
0000
0000
0000
0000
,
0010
0000
0000
0000
,
0000
0000
1000
0000
,
0100
0000
0000
0000
,
0001
0000
0000
0000
,
0010
0000
0000
0000
,
0100
0000
0000
0000
,
1000
0000
0000
0000
,
0000
0000
0010
0000
,
0001
0000
0000
0000
,
0000
0000
0100
0000
,
1000
0000
0000
0000
,
0001
0000
0000
0000
,
0100
0000
0000
0000
,
0010
0000
0100
0100
,
0100
0000
0001
0000
,
1000
0000
0100
0000
,
0010
0000
0000
0000
,
0010
0000
0000
0000
,
0100
0000
1000
0000
,
0001
0000
0100
0000
,
0010
0000
0000
0000
,
0010
0000
0000
0000
,
1000
0000
0010
0000
,
1000
0000
0001
0000
,
0010
0000
0000
0000
,
0010
0000
0000
0000
,
0001
0000
0010
0000
,
0001
0000
1000
0000
,
0010
0000
0100
0000
,
0001
0000
0000
0000
,
1000
0000
1000
0000
,
0001
0000
0000
0000
,
0001
0000
0001
0000
,
1000
0000
0000
0000
,
0100
0000
0100
0000
,
0010
0000
0000
0000
,
0010
0000
0010
0000
,
0001
0000
0100
0100
,
0100
0000
0010
0000
,
1000
0000
0001
0000
,
0010
0000
0100
0000
,
1000
0000
0000
0000
,
0100
0000
0010
0000
,
0001
0000
1000
0000
,
0010
0000
0100
0000
,
0001
0000
0100
0100
,
0100
0000
0010
0000
,
1000
0000
0001
0000
,
0010
0000
1000
0000
,
0100
0000
0000
0000
,
1000
0000
0001
0000
,
0010
0000
1000
0000
,
0100
0000
0001
0000
,
0010
0000
0100
0100
,
0100
0000
0000
0000
;

//---------------dance-single - Telperion----------------
#NOTES:
     dance-single:
     Telperion:
     Beginner:
     1:
     0.057169,0.050423,0.000000,0.000000,0.000000,50.000000,0.000000,0.000000,0.000000,0.000000,0.000000,0.057169,0.050423,0.000000,0.000000,0.000000,50.000000,0.000000,0.000000,0.000000,0.000000,0.000000:
// measure 0
0000
0000
0000
0000
,  // measure 1
0000
0000
0000
0000
,  // measure 2
0000
0000
0000
0000
,  // measure 3
0000
0000
0000
0000
,  // measure 4
0000
0000
0000
0000
,  // measure 5
0000
0000
0000
0000
,  // measure 6
0000
0000
0000
0000
,  // measure 7
1000
0000
0000
0000
,  // measure 8
0000
0000
0000
0000
,  // measure 9
0001
0000
0000
0000
,  // measure 10
0000
0000
0000
0000
,  // measure 11
0100
0000
0000
0000
,  // measure 12
0000
0000
0000
0000
,  // measure 13
0010
0000
0000
0000
,  // measure 14
0000
0000
0000
0000
,  // measure 15
1000
0000
0000
0000
,  // measure 16
1000
0000
0000
0000
,  // measure 17
0001
0000
0000
0000
,  // measure 18
0001
0000
0000
0000
,  // measure 19
0010
0000
0000
0000
,  // measure 20
0010
0000
0000
0000
,  // measure 21
0100
0000
0000
0000
,  // measure 22
0100
0000
0000
0000
,  // measure 23
1000
0000
0000
0000
,  // measure 24
0001
0000
0000
0000
,  // measure 25
0100
0000
0000
0000
,  // measure 26
0010
0000
0000
0000
,  // measure 27
1000
0000
0000
0000
,  // measure 28
0100
0000
0000
0000
,  // measure 29
0001
0000
0000
0000
,  // measure 30
0010
0000
0000
0000
,  // measure 31
0001
0000
0000
0000
,  // measure 32
0100
0000
0000
0000
,  // measure 33
0010
0000
0000
0000
,  // measure 34
1000
0000
0000
0000
,  // measure 35
0001
0000
0000
0000
,  // measure 36
0010
0000
0000
0000
,  // measure 37
1000
0000
0000
0000
,  // measure 38
0100
0000
0000
0000
,  // measure 39
0010
0000
0000
0000
,  // measure 40
0000
0000
0000
0000
,  // measure 41
0100
0000
0000
0000
,  // measure 42
0000
0000
0000
0000
,  // measure 43
1000
0000
0000
0000
,  // measure 44
0000
0000
0000
0000
,  // measure 45
0001
0000
0000
0000
,  // measure 46
0100
0000
0000
0000
,  // measure 47
0010
0000
0000
0000
,  // measure 48
1000
0000
0000
0000
,  // measure 49
0001
0000
0000
0000
,  // measure 50
0010
0000
0000
0000
,  // measure 51
0100
0000
0000
0000
,  // measure 52
1000
0000
0000
0000
,  // measure 53
0001
0000
0000
0000
,  // measure 54
0100
0000
0000
0000
,  // measure 55
0010
0000
0000
0000
,  // measure 56
1000
0000
0000
0000
,  // measure 57
0001
0000
0000
0000
,  // measure 58
0010
0000
0000
0000
,  // measure 59
0100
0000
0000
0000
,  // measure 60
1000
0000
0000
0000
,  // measure 61
0001
0000
0000
0000
,  // measure 62
0100
0000
0000
0000
,  // measure 63
0010
0000
0000
0000
;
