#TITLE:I Wanna See The Sun;
#SUBTITLE:;
#ARTIST:DRC Project;
#TITLETRANSLIT:;
#SUBTITLETRANSLIT:;
#ARTISTTRANSLIT:;
#CREDIT:;
#BANNER:;
#BACKGROUND:;
#LYRICSPATH:;
#CDTITLE:;
#MUSIC:DRC Project - I Wanna See the Sun.ogg;
#OFFSET:0.018;
#SAMPLESTART:42.967;
#SAMPLELENGTH:12.000;
#SELECTABLE:YES;
#BPMS:0.000=136.000,164.000=68.005,180.000=135.970;
#STOPS:;
#BGCHANGES:;

//---------------dance-single - ----------------
#NOTES:
     dance-single:
     :
     Easy:
     2:
     0.182,0.236,0.059,0.153,0.000:
0000
0000
0000
0000
,
0000
0000
0000
0000
,
0001
0000
0000
0000
,
0110
0000
0000
0000
,
0001
1000
0001
0000
,
0100
0100
0100
0000
,
0010
0010
1000
0000
,
0001
0000
1000
0000
,
1001
0000
1000
0000
,
0001
0000
0000
0100
,
0100
0000
0000
0000
,
1001
0000
1000
0000
,
0001
0000
1000
0000
,
0001
0000
0000
0000
,
0100
0000
0000
0000
,
0010
0000
1000
0000
,
0001
1000
0020
0000
,
1030
0000
0001
0000
,
1000
0000
0002
0000
,
0103
0000
0010
0000
,
1000
0000
0001
0000
,
1001
0000
1000
0000
,
1001
0000
0001
0000
,
0100
0000
0010
0000
,
1000
0001
1000
0001
,
0200
0000
0000
0000
,
0310
0000
0000
0000
,
2000
0000
0000
0000
,
3001
0000
0000
0000
1000
0000
0000
1000
,
0000
0000
0000
0000
0001
0000
0000
0001
,
0000
0000
0000
0000
,
1000
0000
1000
0000
,
0001
1000
0001
1000
,
0002
0000
0000
0000
,
0103
0000
0020
0000
,
2030
0000
3002
0000
,
0203
0000
0310
0000
,
1000
0000
0000
0000
0001
0000
0000
1000
,
0000
0000
0000
0000
,
0010
0000
1000
0000
,
0001
0100
0001
1000
,
0001
1000
1000
0010
,
0000
0001
1000
0001
,
0000
1000
0001
0001
,
1000
0010
0100
0001
,
2002
0000
0000
3003
,
1000
0000
0002
0000
,
0103
0000
0010
0000
,
1000
0000
0000
0000
0001
0000
0000
0001
,
0000
0000
0000
0000
1000
0000
0000
1000
,
0000
0000
0010
0000
,
0100
0000
0001
0000
,
1000
0001
0100
0001
,
2000
0000
0000
0000
,
3010
0000
0100
0000
,
0002
0000
2003
0000
,
3020
0000
0000
0000
0130
0000
0000
0100
,
0000
0000
0000
0000
0001
0000
0000
0001
,
0000
0000
0000
0000
,
1000
0000
0001
0000
,
0100
0100
0001
1000
,
2002
0000
0000
3003
;

//---------------dance-single - ----------------
#NOTES:
     dance-single:
     :
     Hard:
     7:
     0.447,0.445,0.127,0.254,0.153:
0000
0000
0000
0000
,
0000
0000
0000
0000
,
1001
0000
0000
0000
,
0110
0000
0000
0000
0000
0000
0000
0000
1000
0000
0000
0001
0000
0000
0100
0000
,
0010
0000
1000
0000
0100
0000
0000
0010
0000
0010
0000
0000
0001
0000
0100
0000
,
0001
0000
0000
0000
1000
0000
0000
0010
0000
0010
0000
0000
0100
0000
0001
0000
,
0010
0000
0001
0000
0100
0000
0000
0010
0000
0010
0000
0000
1000
0000
0001
0000
,
0100
0000
0001
0000
0010
0000
0000
0100
0000
0100
0000
0000
1000
0000
0001
0000
,
1001
0000
1000
0000
0010
0100
0001
1000
,
0001
0000
0000
0000
0001
0000
1000
0000
0000
0000
0001
0000
0000
0100
0000
0000
,
0001
0000
1000
0100
0000
0010
0001
2000
,
0000
3020
0000
0230
0000
0301
1000
0001
,
1001
0000
0000
0000
1000
0000
0000
0000
0010
0000
0000
1000
0000
0000
0001
0000
,
0010
0000
0100
1000
0000
0001
0100
0001
,
0100
0000
0010
1000
0000
0001
0010
0100
,
0000
0000
1000
0000
0001
0000
0200
0000
0000
0000
0310
0000
0000
1000
0000
0000
,
1001
0000
0001
0000
1000
0020
0000
1030
,
0100
0010
0001
2000
0000
3020
0000
0230
,
0001
0300
1001
0000
1000
0200
0000
0320
,
0000
0031
1000
0010
0000
0010
1000
0001
,
2000
0000
3001
0000
0100
0010
0000
1000
,
0002
0000
0000
0000
1003
0000
0100
0000
0000
0000
0010
0000
0000
0001
0000
0000
,
1001
0000
1000
0100
0000
0010
0001
2000
,
0000
3000
0001
0100
0000
0001
1000
0001
,
1000
1000
0010
0010
0100
0001
1000
0100
,
0020
0000
0000
0000
0000
0000
0130
1000
,
0000
0000
0000
0001
0100
0010
1000
0001
,
0020
0000
0130
2000
0000
0000
3001
0100
,
0010
0000
0000
0000
0000
0000
0000
0000
1000
0000
0001
0000
0000
1000
0000
0000
,
1001
0000
0101
0000
0010
1000
0000
0010
,
1000
0000
0001
0100
0000
0001
0010
0001
,
0100
0000
0010
1000
0000
0001
0000
0010
,
0001
0100
1000
0100
0001
0100
0010
1000
,
0020
0000
0000
0000
0000
0030
1000
0020
,
0000
0000
0030
1000
0001
0100
0000
0020
,
0000
0000
1030
0001
0000
0000
1000
0001
,
0000
0000
1000
0000
0010
0000
0000
0000
0100
0000
0001
0000
0000
1000
0000
0000
,
1100
0000
0011
0000
1000
0001
0000
0100
,
0010
0000
0000
0000
1000
0000
0000
0001
0000
0000
1000
0000
0010
0000
0200
0000
,
0000
0000
0000
0300
0001
0000
0010
0000
0000
0000
0020
0000
0031
0000
1000
0000
,
0001
0100
0010
1000
0010
0100
0001
1000
,
1001
1000
0001
0100
,
0010
0000
1000
0000
0001
0000
0000
0000
1000
0000
0001
1000
0010
0000
0000
0000
,
0100
0001
1000
0010
,
1000
0000
0001
1000
0001
0000
0000
0000
1000
0001
0100
0000
0001
1000
0001
0000
,
2000
0000
0000
0000
0000
0000
3001
0100
,
0020
0000
0000
0030
1000
0001
0000
1000
,
0010
0000
0100
0002
0000
0000
0103
0010
,
1000
0001
0000
0001
1000
0000
0001
0000
0100
0000
0010
0000
0000
0000
1000
0000
,
0010
0000
1010
0000
0001
0100
0000
0001
,
0010
0100
0000
0100
1000
0000
1000
0001
0000
0000
1000
0000
0100
0000
1000
0000
,
0000
0000
2001
0001
0000
0100
0000
0002
,
0000
0000
3003
0000
1000
0100
0001
0100
,
2000
0000
0000
0000
0000
0000
3001
0100
,
0001
1000
0000
1000
0001
0000
0000
0000
0100
0000
0010
0000
0000
0000
2000
0000
,
0000
0000
0000
3001
0000
0000
0100
0010
,
0000
0000
1000
0000
0001
0000
0000
0000
1000
0000
0010
0000
0000
1000
0000
0000
,
0001
0100
0000
0100
0001
0000
0001
1000
0000
1000
0001
0000
0000
0000
0000
0000
,
1000
0100
0000
0100
1000
0000
1000
0001
0000
0001
1000
0000
0001
0000
0100
0000
,
0001
0000
1000
0010
1000
0000
1000
0001
,
1000
0001
0100
0000
0010
1000
0001
0000
,
2020
0000
0000
3030
;

//---------------dance-single - ----------------
#NOTES:
     dance-single:
     :
     Challenge:
     10:
     0.687,0.802,0.161,0.025,0.797:
0000
0000
0000
0000
,
1001
0000
0000
0000
,
0011
0000
0000
0000
,
1100
0000
0000
0000
0000
0000
0000
0000
0001
0000
0000
1000
0000
0000
0001
0000
,
1000
0000
0010
0000
1000
0000
0000
0001
0000
0100
0000
0010
1000
0000
0100
0000
,
0010
0000
0001
0000
1000
0000
0000
0001
0000
0100
0000
0010
1000
0000
0001
0000
,
0100
0000
0010
0000
1000
0000
0000
0001
0000
0100
0000
0001
0100
0000
0010
0000
,
1000
0000
0100
0000
0010
0000
0000
0001
0000
0100
0000
0010
1000
0000
0001
0000
,
1000
0000
0002
0000
0103
0010
1000
0010
,
0100
0000
0000
0000
0001
0000
0010
0000
0000
0000
0100
0000
0000
1000
0000
0000
,
1001
0000
0001
0100
0000
0100
0010
1000
,
0000
0010
0100
0001
0000
0010
0100
1000
,
1001
0000
0000
0000
0001
0000
0000
0000
0100
0000
0000
0010
0000
0000
1000
0000
,
0001
0000
1010
1000
0000
0001
0100
0002
,
0000
0000
0103
1000
0000
0100
0010
0001
,
0000
0000
0010
0000
0100
0000
1000
0000
0000
0000
0010
0000
0100
0001
0000
0001
,
0100
0000
0010
0000
1000
0010
0100
0001
,
0010
0000
0100
0000
1000
0000
0100
0000
0010
0000
0001
0000
0000
1000
0000
0000
,
1010
0000
1001
0000
0001
0100
0010
1000
,
0100
0000
0010
0000
0001
0000
0100
0000
0010
0000
1000
0000
0000
0001
0000
0000
,
1001
0000
1000
0000
0001
0100
0001
0010
,
0011
0000
0000
0000
0001
0000
0100
0000
0010
0000
1000
0000
0000
0010
0000
0000
,
1010
0000
1000
0001
0000
0001
1000
0010
,
0110
0000
0001
1000
0000
0001
0010
0001
,
1000
0000
1000
0000
0001
0000
0100
0000
0010
1000
0010
1000
0001
0100
0001
1000
,
0001
0100
0010
1000
0010
0100
0001
0010
,
0011
0000
0001
0100
0010
1000
0010
0100
,
0011
0000
0001
0100
0000
0100
0010
1000
,
0001
0100
0000
0100
0001
0000
0001
1000
0000
1000
0001
0000
0000
1000
0000
0000
,
0001
0000
1010
0000
1000
0001
0000
0001
,
1000
0010
0000
0010
1000
0000
1000
0001
0000
0001
0100
0000
0010
1000
0001
0000
,
1000
0000
0020
0100
0000
1000
0000
1030
,
0001
1000
0001
1000
0001
0000
1000
0010
0000
1000
0010
0000
0100
0001
0100
0001
,
1000
0010
0000
0010
1000
0000
1000
0100
0000
0100
0010
0000
0001
0100
0001
0000
,
1000
0100
0000
0100
1000
0000
1000
0001
0000
0001
0100
0000
0010
1000
0010
0000
,
1000
0100
0000
0100
0010
0000
0010
0001
0000
1000
0010
0000
0100
0001
0100
0000
,
0010
1000
0000
0100
0010
0000
0001
0010
0000
0100
1000
0000
0001
1000
0001
0000
,
1000
0100
0000
0100
0010
0000
0010
0100
0000
0100
1000
0000
0001
1000
0001
0000
,
0010
0100
0000
0010
0001
0000
0010
0100
0000
0010
0001
0000
1000
0001
1000
0000
,
0010
1000
0000
1000
0010
0000
0010
0100
0000
0100
0001
0000
1000
0010
1000
0000
,
0001
0100
0010
0100
0001
0000
1000
0010
0000
0010
0100
0001
1000
0100
0010
0100
,
1000
0000
0000
0000
0001
0000
0000
0000
0101
0000
0000
0000
0010
0000
1000
0000
0010
0000
0000
0100
0000
0000
0001
0000
1001
0000
0000
0000
1000
0000
0001
0000
,
0101
0000
0000
0000
0010
0000
1000
0000
0010
0000
0100
0000
0000
0000
0000
0000
0001
0000
0000
0100
0000
0000
0010
0000
1000
0000
0001
0000
0100
0000
0010
0000
,
1000
0000
0001
0000
0010
0000
0001
0000
1000
0000
0000
0000
0000
0000
0001
0000
0100
0000
0000
0001
0000
0000
1000
0000
0001
0000
0000
0000
1000
0000
0100
0000
,
1000
0000
0000
0000
0001
0000
0100
0000
0001
0000
0000
0000
1000
0000
0010
0000
1000
0001
1000
0000
0001
0000
0100
0000
0010
0000
0000
0000
1000
0000
0000
0000
,
0001
0010
0000
0010
0100
0000
0100
1000
0000
1000
0100
0000
0010
0001
1000
0000
,
0001
0100
0000
0100
0010
0000
0010
1000
0000
1000
0010
0000
0100
0001
0100
0000
,
0001
0010
0000
0010
0100
0000
0100
1000
0000
1000
0100
0000
0010
0001
0010
0000
,
0001
0100
0000
0100
0010
0000
0010
1000
0000
1000
0001
0000
1000
0010
1000
0000
,
0001
0100
0000
0100
0001
0000
0000
0100
0000
0000
0010
0000
1000
0000
0001
0000
,
1000
0010
0000
0010
1000
0000
0000
0001
0000
0000
1000
0000
0100
0000
0010
0000
,
0100
1000
0000
1000
0001
0000
0000
0100
0000
0000
0010
0000
1000
0000
0001
0000
,
0100
0010
0100
0000
0001
0000
1000
0100
1000
0000
0001
0000
0100
0010
0100
0001
,
1000
0100
1000
0100
1000
0000
0001
0100
0001
0100
0010
1000
0100
0010
0100
1000
,
0001
0100
0001
1000
0010
0000
1000
0100
1000
0001
0100
0001
1000
0100
0010
0100
,
1000
0001
0010
0100
0010
0000
0001
1000
0001
1000
0010
1000
0001
0100
0001
1000
,
0010
0100
0001
1000
0001
0000
1000
0010
1000
0001
0100
0001
1000
0100
0010
0100
,
1000
0001
1000
0010
1000
0000
0001
0100
0010
1000
0100
0010
0100
1000
0001
0100
,
0010
1000
0001
1000
0001
0000
1000
0100
0000
0100
1000
0000
0001
1000
0001
0000
,
1000
0100
1000
0100
1000
0000
0001
0100
0010
1000
0100
0010
0100
1000
0001
1000
,
0010
1000
0010
0000
0100
0000
0001
1000
0010
1000
0001
1000
0010
1000
0001
0000
,
1001
0000
0000
0000
;

//---------------dance-single - ----------------
#NOTES:
     dance-single:
     :
     Medium:
     6:
     0.310,0.342,0.068,0.237,0.004:
0000
0000
0000
0000
,
0000
0000
0000
0000
,
1001
0000
0000
0000
,
0110
0000
0000
0000
,
1001
0000
0000
0000
,
1000
0000
0000
0000
,
0001
0000
0000
0000
,
0100
0000
0000
0000
,
0010
0000
1000
0000
0001
0100
0001
0100
,
0000
0000
0000
0000
0000
0010
1000
0010
,
0000
0000
0000
0000
0000
0100
0001
0100
,
0000
0010
0000
1000
0000
0001
0100
0001
,
0000
0000
0000
0000
0000
0000
0000
0000
1000
0000
0000
0001
0000
0000
1000
0000
,
0001
0000
0000
0000
0000
1000
0001
0100
,
0000
0000
0000
0010
0000
1000
0001
0100
,
0000
0001
0010
0002
0000
0000
1003
0010
,
0100
0000
0001
0000
1000
0010
0000
0100
,
0000
0001
0010
0001
0000
1000
0001
0100
,
0000
0000
0010
0000
1000
0001
0000
0100
,
0000
0010
1000
0010
0000
0100
0001
0100
,
0000
0000
0000
0000
0010
1000
0000
0001
,
0000
0000
0000
0000
0100
0010
0000
1000
,
0000
0000
0000
0000
0000
0001
0100
0001
,
0000
0000
1000
0010
0000
0100
0001
0100
,
0002
0000
0003
1000
0010
0100
0001
0010
,
0002
0000
0000
0000
0000
0000
1003
0010
,
0000
0000
0000
0100
0001
0010
0001
0100
,
0001
0000
1000
0010
0000
0000
0100
0001
,
0000
0000
0000
0000
0010
0100
0000
0010
,
0000
0000
0000
0000
0001
1000
0000
0001
,
0000
0000
0000
0000
0000
1000
0010
0100
,
0000
0000
0001
0010
0000
0001
0000
0200
,
0000
0300
0000
0000
0010
1000
0001
0100
,
0002
0000
0000
0000
0000
0000
1003
0010
,
0000
0000
0000
0100
0001
0010
0000
0002
,
0000
0000
0000
2003
0000
0000
3010
0100
,
0000
0001
0010
0000
0001
0100
0000
0020
,
0000
0000
0000
0030
1000
0001
0000
0200
,
0000
0000
0000
0000
0000
0310
1000
0020
,
0000
0000
0130
0001
0000
0000
0010
0001
,
0100
0010
1000
0001
,
1001
0001
1000
0001
,
0100
0010
1000
0000
0001
0000
1001
0000
,
1000
0001
0100
0000
0010
0000
1001
0000
,
1000
0001
0100
0000
0010
1000
0001
0100
,
2002
0000
0000
0000
0000
3003
0001
0100
,
0000
0000
0000
0000
0010
1000
0010
0100
,
0002
0000
0013
0200
0000
0000
1300
0002
,
0000
0203
0000
0000
0310
1000
0000
0020
,
0000
0000
0030
0000
1000
0001
0000
0200
,
0000
0000
0000
0000
0300
0010
1000
0020
,
0000
0030
0100
0001
0000
0010
0000
0200
,
0000
0000
0000
0300
1000
0001
0100
0001
,
2000
0000
0000
0000
0000
0000
3001
0200
,
0000
0000
0000
0000
0310
1000
0000
0002
,
0000
0000
0000
0203
0000
0000
0310
1000
,
0000
0010
1000
0000
0001
0100
0000
0002
,
0000
0000
0003
0000
1000
0010
0000
2000
,
0000
0000
0000
0000
0000
3001
0100
0001
,
0000
0000
1000
0010
0000
0000
0100
0001
,
0010
0001
0100
0000
0001
0000
1000
0000
,
2002
0000
0000
0000
,
3003
0000
0000
0000
;

//---------------dance-double - ----------------
#NOTES:
     dance-double:
     :
     Easy:
     3:
     0.263,0.316,0.119,0.110,0.000:
00000000
00000000
00000000
00000000
,
00000000
00000000
00000000
00000000
,
00000000
00000000
00000000
00000000
,
00000000
00000000
00000000
00000000
,
00000010
00001000
00000100
00010000
,
00001000
00001000
00100000
00001000
,
00100000
00010000
01000000
00001000
,
00010000
00010000
00000010
00010000
,
00000010
00000000
00001000
00000100
,
00000010
00000000
00000001
00001000
,
00000001
00000000
00000100
00000000
,
00001000
00000000
00010000
01000000
,
10000000
00000000
00010000
01000000
,
00100000
00000000
10000000
00010000
,
10000000
00000000
01000000
00000000
,
00010000
00000000
00001000
00000100
,
00000001
00000000
00001000
00000100
,
00010000
00000100
00010000
00001000
,
01000000
00000000
00010000
01000000
,
00001000
01000000
00001000
00010000
,
00011000
00000000
00000010
00001000
,
00000010
00000000
00010000
00001000
,
00010000
00000000
00000100
00000000
,
00010000
00000000
00001000
00000000
,
01000000
00010000
00110000
01010000
,
00100000
00010000
00001000
00100000
,
00010000
00000000
01000000
00100000
,
10000000
01000000
00100000
00001000
,
00010000
00000000
00000010
00001000
,
00000100
00000000
00000010
00000001
,
00000100
00000000
00000010
00010000
,
00001000
00010000
00001000
01000000
,
01010000
00100000
01000000
10010000
,
00200000
00000000
00000000
01300000
,
10000000
00100000
01000000
00001000
,
00020000
00000000
00030200
00000000
,
00001300
00001001
00000100
00000010
,
00020000
00000000
00031000
01000000
,
00200000
00000000
01300000
00010000
,
10000000
00000000
01000000
00000000
,
00100000
00000000
00001000
00010000
,
00011000
00001000
00010000
00000100
,
00010100
00000010
00000001
00000100
,
00000110
00010000
00001000
00100000
,
00101000
00010000
00002000
00000000
,
00003010
00001000
00010000
00000010
,
00001000
00000100
00000100
00000010
,
00000001
00000100
00000010
00010000
,
00001000
00100000
00100000
00010000
,
01000000
00000000
00100000
10000000
,
01000000
00000000
00100000
00001000
,
00010000
00001000
00010000
00000100
,
00001100
00000010
00000100
00001001
,
00000020
00000100
00000100
00000130
,
00000001
00000010
00000100
00010000
,
00002000
01000000
02003000
00010000
,
03010000
10010000
01000000
00100000
,
00002000
00000000
00013000
00000100
,
00000020
00000000
00000130
00001000
,
00000001
00000000
00000100
00000000
,
00000010
00001000
00000000
00020010
,
00002000
00000000
00000000
00000000
,
00033000
00000000
00000000
00000000
;

//---------------dance-double - Copied from----------------
#NOTES:
     dance-double:
     Copied from:
     Challenge:
     7:
     0.586,0.631,0.102,0.008,0.594:
00000000
00000000
00000000
00000000
,
00000000
00000000
00000000
00000000
,
00000000
00000000
00000000
00000000
,
00000000
00000000
00000000
00000000
,
00010000
00000000
01000000
00000000
00010000
00000000
00000000
10000000
00000000
00100000
00000000
10000000
00010000
00000000
01000000
00000000
,
00001000
00000000
00010000
00000000
00001000
00000000
00000000
00100000
00000000
01000000
00000000
00100000
00001000
00000000
00010000
00000000
,
00000010
00000000
00001000
00000000
00000010
00000000
00000000
00000100
00000000
00000001
00000000
00000100
00000010
00000000
00001000
00000000
,
00000100
00000000
00010000
00000000
00000100
00000000
00000000
00001000
00000000
00000001
00000000
00001000
00000100
00000000
00010000
00000000
,
00011000
00000000
00000000
00001000
00000000
00000000
00100000
00000000
00010000
00000000
01000000
00000000
00100000
00000000
01000000
00000000
,
00000000
00000000
00010000
00000000
00000000
01000000
00000000
00000000
00001000
00000000
00000000
00100000
00000000
00000000
00010000
00000000
,
01000000
00000000
00001000
00000000
00010000
00000000
00001000
00000000
00000000
00000000
00100000
00000000
00000000
01000000
00000000
00000000
,
10000000
00010000
00100000
01000000
00000000
00100000
00001000
00000000
,
00011000
00000000
00000000
00010000
00000000
00000000
00000010
00000000
00001000
00000000
00000100
00000000
00000010
00000000
00000100
00000000
,
00000000
00000000
00001000
00000000
00000000
00000100
00000000
00000000
00010000
00000000
00000000
00000010
00000000
00000000
00001000
00000000
,
00000100
00000000
00010000
00000000
00001000
00000000
00010000
00000000
00000000
00000000
00000010
00000000
00000000
00000100
00000000
00000000
,
00000001
00001000
00000010
00000100
00000000
00000010
00001000
00000000
,
00001001
00000000
00000100
00000000
00000010
00001000
00000000
00000001
00000100
00000000
00000010
00010000
00000000
00001000
01000000
00000000
,
00100000
10000000
00010000
01000000
10000000
00000000
01100000
00000000
,
10010000
00000000
01000000
00000000
00100000
00010000
00000000
10000000
01000000
00000000
00100000
00001000
00000000
00010000
00000100
00000000
,
00000010
00000000
00000001
00000000
00001000
00000000
00000100
00000000
00000001
00000000
00000000
00000110
00000000
00000000
00000100
00000000
,
00001001
00000000
00000000
00000000
00001000
00000100
00000000
00000000
00010000
00000000
00000000
00001000
00000000
00000000
00100000
00000000
,
00010000
00000000
10000000
00000000
00010000
01000000
00000000
00000000
00001000
00000000
00000000
00010000
00000000
00000000
00000010
00000000
,
00001000
00000000
00000001
00000000
00001000
00000100
00000000
00000000
00010000
00000000
00000000
00010000
00000000
00000000
00010000
00000000
,
00001000
00000000
00001000
00000000
00001000
00010000
00000000
00000000
00010000
00000000
00000000
00010000
00000000
00000000
00001000
00000000
,
00001000
00001000
00010000
01000000
00010000
00001000
01000000
00010000
,
00100000
00010000
00000000
00000000
00010000
01000000
00000000
00000000
01000000
00100000
00000000
00000000
00100000
00000000
10000000
00000000
,
01000000
10000000
00000000
00000000
10000000
00010000
00000000
00000000
00010000
00000000
00100000
00000000
00001000
00000000
01000000
00000000
,
00010000
00100000
00000000
00000000
00001000
00000000
01000000
00010000
00000000
00000000
00100000
00000000
00001000
00000000
00010000
00000000
,
00000100
00001000
00000000
00000000
00000010
00000000
00001000
00000100
00000000
00000000
00010000
00000000
00001000
00000000
00000010
00000000
,
00000001
00000000
00011000
00000000
01000000
00001000
00010000
00100000
,
10000000
00000000
00011000
00000000
00000100
00010000
00000010
00001000
,
00000001
00000000
00000010
00000000
00000100
00000000
00001000
00000100
00000000
00000000
00010000
00000000
00001000
00010000
00000000
00000000
,
00000100
00000010
00000100
00000010
00000001
00000000
00000001
00000010
00000000
00000001
00000010
00000000
00000100
00000000
00001000
00000000
,
00000010
00001000
00000000
00000000
00001000
00000100
00000000
00000000
00000100
00000010
00000000
00000000
00000010
00000000
00000001
00000000
,
00000100
00000001
00000000
00000000
00000001
00001000
00000000
00000000
00001000
00000000
00000010
00000000
00010000
00000000
00000100
00000000
,
00001000
00000010
00000000
00000000
00010000
00000000
00000100
00001000
00000000
00000000
00000010
00000000
00010000
00000000
00001000
00000000
,
01000000
00010000
00000000
00000000
00100000
00000000
00010000
01000000
00000000
00000000
00001000
00000000
00010000
00000000
01000000
00000000
,
10000000
00010000
00000000
00000000
01000000
00000000
00100000
10000000
00000000
00010000
01000000
00000000
00001000
00000000
00000100
00000000
,
00000001
00001000
00000000
00000000
00000100
00000000
00000010
00000001
00000000
00001000
00000100
00000000
00010000
00000000
00001000
00000000
,
00100000
00010000
00000000
00000000
01000000
00000000
00010000
00100000
00000000
00000000
00001000
00000000
00010000
00000000
00000100
00000000
,
00001000
00000010
00000000
00000000
00000100
00000000
00000010
00001000
00000000
00000000
00000100
00000000
00010000
00001000
00010000
00001000
,
00100000
00000000
00000000
00000000
00000000
00000000
00010000
00000000
01000000
00000000
00000000
00000000
00000000
00000000
00000000
00000000
00100000
00000000
00000000
01000000
00000000
00000000
00100000
00000000
10000000
00000000
00000000
00000000
00010000
00000000
00000000
00000000
,
00100000
00000000
00000000
00000000
00000000
00000000
00001000
00000000
00010000
00000000
00000000
00000000
00000000
00000000
00000000
00000000
00000100
00000000
00000000
00000010
00000000
00000000
00000100
00000000
00001000
00000000
00000000
00000000
00000001
00000000
00000000
00000000
,
00000100
00000000
00000000
00000000
00000000
00000000
00000010
00000000
00001000
00000000
00000000
00000000
00000000
00000000
00000000
00000000
00000001
00000000
00000000
00001000
00000000
00000000
00000001
00000000
00000100
00000000
00000000
00000000
00000010
00000000
00001000
00000000
,
00000001
00000000
00000000
00000000
00000000
00000000
00000010
00000000
00000100
00000000
00000000
00000000
00000000
00000000
00010000
00000000
00001000
00000000
00000000
00000000
00100000
00000000
00000000
00000000
00011000
00000000
00000000
01001000
00000000
00000000
01010000
00000000
,
00010000
01000000
00000000
00000000
00100000
00000000
10000000
01000000
00000000
00000000
00100000
00000000
01000000
10000000
01000000
00000000
,
00100000
00010000
00000000
00000000
01000000
00000000
00010000
00100000
00000000
00000000
00001000
00000000
00010000
00000010
00010000
00000000
,
00001000
00100000
00000000
00000000
01000000
00000000
10000000
00100000
00000000
00000000
01000000
00000000
00100000
10000000
00100000
00000000
,
01000000
00010000
00000000
00000000
00100000
00000000
00010000
01000000
00000000
00000000
00100000
00000000
10000000
00010000
10000000
00000000
,
00010000
00100000
00000000
00000000
01000000
00000000
10000000
00100000
00000000
00000000
01000000
00000000
00100000
10000000
00100000
00000000
,
01000000
00010000
00000000
00000000
00100000
00000000
00010000
01000000
00000000
00000000
00001000
00000000
00010000
00000100
00010000
00000000
,
00001000
01000000
00000000
00000000
00100000
00000000
10000000
01000000
00000000
00000000
00100000
00000000
00001000
00010000
00001000
00000000
,
00010000
00000100
00010000
00000100
00001000
00000000
00001000
00000010
00000000
00001000
00000010
00000000
00001000
00000001
00001000
00000000
,
00000001
00000010
00000000
00000100
00001000
00000000
00000010
00010000
00000000
00001000
01000000
00000000
00010000
10000000
00010000
00000000
,
10000000
00100000
00000000
01000000
00010000
00000000
00100000
00001000
00000000
00010000
00000010
00000000
00001000
00000001
00001000
00000000
,
00000100
00001000
00000010
00010000
00000100
00001000
00000010
00010000
,
00001000
00000000
00100000
00000000
00010000
00000000
10000000
00000000
00100000
00000000
01000000
00000000
00010000
00100000
00010000
00000000
,
10000000
00100000
00000000
00000000
01000000
00000000
00001000
00010000
00000000
00000000
00000100
00000000
00001000
00000010
00001000
00000000
,
00000001
00000010
00000000
00000000
00000100
00000000
00010000
00001000
00000000
00000000
01000000
00000000
00010000
00100000
00010000
00000000
,
00100000
00010000
00100000
00000000
00001000
00010000
00001000
00000000
00010000
00000100
00010000
00000000
00000100
00001000
00000100
00000000
,
00001000
00000010
00001000
00000010
00000100
00000000
00000100
00000001
00000000
00000100
00000001
00000000
00001000
00000100
00000010
00000001
,
00000020
00000000
00000000
00000000
,
00000030
00000000
00000000
00000000
;

//---------------dance-double - ----------------
#NOTES:
     dance-double:
     :
     Hard:
     7:
     0.470,0.421,0.093,0.136,0.110:
00000000
00000000
00000000
00000000
,
00000000
00000000
00000000
00000000
,
00000000
00000000
00000000
00000000
,
00000000
00000000
00000000
00000000
,
00001000
00000000
01000000
00000000
00001000
00000000
00000000
00010000
00000000
00000100
00000000
00000000
00001000
00000000
00000010
00000000
,
00000100
00000000
00000001
00000000
00000100
00000000
00000000
00000010
00000000
00001000
00000000
00000000
00000100
00000000
00010000
00000000
,
00001000
00000000
00100000
00000000
00001000
00000000
00000000
01000000
00000000
00010000
00000000
00000000
10000000
00000000
01000000
00000000
,
00100000
00000000
00010000
00000000
00100000
00000000
00000000
00001000
00000000
00010000
00000000
00000000
00000100
00000000
00001000
00000000
,
00000001
00000000
00000100
00000000
00000010
00001000
00000100
00010000
,
00001000
00000000
00100000
00010000
00000000
10000000
00100000
01000000
,
00010000
00000000
10000000
01000000
00000000
00100000
00001000
00010000
,
00000000
00000010
00001000
00000001
00000000
00001000
00000010
00010000
,
00001000
00000000
00000000
00000000
00100000
00000000
01000000
00000000
10000000
00000000
00000000
00100000
00000000
00000000
01000000
00000000
,
00010000
00000000
00100000
00001000
00000000
00010000
00000010
00001000
,
00000100
00000000
00000010
00000001
00000000
00001000
00000100
00010000
,
00000010
00001000
00000001
00000100
00000000
00000010
00001000
00000000
,
00001001
00000000
00000000
00000000
00000001
00000100
00000001
00000100
,
00000010
00001000
00000100
00010000
00000010
00001000
00000100
00010000
,
00001000
00100000
00010000
00000000
10000000
01000000
10000000
01000000
,
00100000
00010000
01000000
00001000
00100000
00010000
01000000
00001000
,
00010000
00000010
00001000
00000000
00000100
00010000
00001000
00000100
,
00002000
00000000
00010000
00000000
01003000
00001000
00010000
01000000
,
00020000
00000000
00000000
00000000
00001000
00000000
00000000
00000000
00030100
00000000
00000010
00000000
00000000
00000001
00000000
00000000
,
00000100
00000000
00000000
00000000
00000010
00000000
00001000
00000000
00000000
00000000
00000100
00000000
00000000
00010000
00000000
00000000
,
00000010
00001000
00000001
00000100
00001000
00000100
00000001
00000000
,
00000010
00000001
00000100
00000010
00001000
00000001
00000010
00000100
,
00001000
00000000
00000100
00010000
00000000
00001000
00100000
00010000
,
01000000
00100000
10000000
01000000
00000000
00100000
00001000
01000000
,
00010000
00000000
01010000
00000000
01000000
00001000
00010000
01000000
,
00020000
00000000
00001000
00000000
00030100
00010000
00001000
00000100
,
00002000
00000000
00010000
00000000
01003000
00010000
00100000
00001000
,
00010000
00000000
00000010
00001000
00000000
00000001
00000010
00000100
,
00001000
00000000
00001100
00000000
00000100
00001000
00000010
00000000
,
00001000
00000010
00000100
00000010
00001000
00000001
00000010
00000100
,
00000010
00000000
00000110
00000000
00000001
00000010
00000100
00000010
,
00000000
00000001
00001000
00000100
00000000
00010000
00001000
00000100
,
00000001
00000000
00001010
00000000
00000010
00010000
00001000
00000010
,
00002000
00000000
00010000
00000000
00103000
00001000
00010000
00100000
,
00020000
00000000
00001000
00000000
00030010
00001000
00000100
00010000
,
00001000
00000000
01000000
00010000
00000000
10000000
01000000
00100000
,
00010000
00000000
00110000
00000000
00100000
00001000
00010000
00000000
,
00011000
00000000
00000000
00000000
00000100
00000000
00000000
00000000
00010000
00000000
00000000
00001000
01000000
00000000
00000000
00000000
,
00001000
00000000
00000000
00000000
00010000
00000000
00000000
00000000
00001000
00000000
00000000
00010000
00000100
00000000
00000000
00000000
,
00000010
00000000
00000000
00000001
00001000
00000000
00000100
00000000
00010000
00000000
00001000
00000000
01000000
00000000
00100000
10000000
,
00010000
00000000
00000000
01000000
00001000
00000000
00000000
00010000
00000100
00000000
00000010
00000000
00000001
00000000
00000100
00000000
,
00000020
00000000
00001000
00000000
00000001
00000000
00000130
00000001
,
00000020
00000000
00001000
00000000
00000130
00001000
00000010
00010000
,
00001000
00000000
01000000
00010000
10000000
00100000
01000000
00010000
,
10000000
00000000
00000000
10010000
00000000
00000000
00010000
00000000
01000000
00000000
00001000
00000000
00010000
00000000
01000000
00000000
,
00010000
00000000
00000000
00000200
00000000
00000000
00001000
00000000
00000000
00000000
00010300
00000000
00001000
00000000
00000100
00000000
,
00001000
00000000
00000000
02000000
00000000
00000000
00010000
00000000
00000000
00000000
03001000
00000000
00010000
00000000
00000100
00000000
,
00001000
00000000
00000000
00000001
00000000
00000000
00001000
00000000
00000000
00000000
00000010
00000000
00000100
00000000
00000001
00000000
,
00001000
00000100
00010000
00001000
01000000
00100000
10000000
01000000
,
00200000
00000000
00010000
00000000
10000000
00000000
01300000
10000000
,
00200000
00000000
00010000
00000000
01300000
00010000
00100000
00001000
,
00010000
00000000
00000100
00001000
00000001
00000010
00000100
00001000
,
00000001
00000000
00000000
00001001
00000000
00000000
00001000
00000000
00000010
00000000
00010000
00000000
00001000
00000000
00000010
00000000
,
00001000
00000000
00000000
00200000
00000000
00000000
00010000
00000000
00000000
00000000
00301000
00000000
00010000
00000000
00100000
00000000
,
00010000
00000000
00000000
00000020
00000000
00000000
00001000
00000000
00000000
00000000
00010030
00000000
00001000
00000000
00100000
00000000
,
00010000
00000000
00000000
01000000
00000000
00000000
10100000
00000000
00000000
00000000
00010000
00000000
00100000
00000000
00001000
00000000
,
00010000
00000000
00000000
00000100
00000000
00000000
00000011
00000000
00000000
00000000
00001000
00000000
00000100
00000000
00020000
00000000
,
00002000
00000000
00000000
00000000
,
00033000
00000000
00000000
00000000
;

//---------------dance-double - ----------------
#NOTES:
     dance-double:
     :
     Medium:
     5:
     0.365,0.368,0.136,0.076,0.000:
00000000
00000000
00000000
00000000
,
00000000
00000000
00000000
00000000
,
00000000
00000000
00000000
00000000
,
00000000
00000000
00000000
00000000
,
10000000
00100000
10000000
00000000
00010000
00000000
00100000
00000000
,
00001000
00010000
00000100
00000000
00010000
00000100
00001000
00000000
,
00000001
00000010
00000001
00000000
00001000
00000000
00000010
00000000
,
00010000
00001000
01000000
00000000
00001000
01000000
00010000
00000000
,
10000000
01000000
00100000
00010000
,
01000000
00000000
00000000
00001000
00000000
00000000
00010000
00000000
,
00000100
00000000
00000000
00001000
00000000
00000000
00000001
00000000
,
00000100
00000000
00000000
00000010
00000000
00000000
00000100
00000000
,
00001001
00000010
00000100
00001000
,
00000010
00000000
00000000
00010000
00000000
00000000
00001000
00000000
,
00100000
00000000
00000000
00010000
00000000
00000000
10000000
00000000
,
00100000
00000000
00000000
01000000
00000000
00000000
00100000
00000000
,
10010000
00000000
01000000
00000000
00010000
00010000
00010000
00000000
,
01000000
00000000
00001000
00010000
00000000
00000010
00000000
00001001
,
00000000
00000000
00000100
00000000
00001000
00001000
00001000
00000000
,
00000100
00000000
00010000
00001000
00000000
00100000
00010000
10000000
,
00010000
00000000
01000000
00000000
00010000
00100000
00000000
00011000
,
00000000
00000000
00000100
00000000
00001000
00000010
00000000
00011000
,
00000000
01000000
00000000
00100000
00000000
01000000
00010000
01000000
,
00000000
00100000
10000000
00100000
00000000
10000000
00010000
10000000
,
00100000
00000000
01000000
00000000
00001000
00010000
00001000
00010000
,
00000100
00000000
00000010
00000000
00000001
00000000
00000010
00000100
,
00001000
00000000
00000010
00000000
00000100
00000010
00001000
00000000
,
00000100
00000000
00010000
00000000
00001000
00000000
00100000
01000000
,
10000000
00000000
00100000
00000000
01000000
00100000
20000000
00000000
,
01000000
00000000
00010000
00000000
31000000
00100000
00020000
00000000
,
01000000
00000000
10000000
00000000
01030000
00001000
00010000
00000000
,
00000100
00000000
00000010
00000001
00000000
00001000
00000000
00000100
,
00010000
00010000
00010000
00001000
01000000
00000000
10010000
00000000
,
00100000
00000000
01000000
00000000
10000000
00000000
01000000
00100000
,
00010000
00000000
01000000
00000000
00100000
01000000
00010000
00000000
,
00100000
00000000
00001000
00000000
00010000
00000000
00000100
00000010
,
00000001
00000000
00000100
00000000
00000010
00000100
00000002
00000000
,
00000010
00000000
00001000
00000000
00000013
00000100
00002000
00000000
,
00000010
00000000
00000001
00000000
00003010
00010000
00001000
00000000
,
00100000
00000000
01000000
10000000
00000000
00100000
00000000
01000000
,
00001000
00000000
00010000
00000100
00001000
00000000
00000110
00000000
,
00000001
00000000
00001000
00000000
00000100
00000010
00000100
00000000
,
00001000
00000000
00000001
00000000
00000100
00000010
00000100
00000001
,
00001000
00000000
00000100
00000000
00010000
00001000
00010000
00000000
,
00000100
00000000
00010000
00000000
00001000
00100000
00010000
01000000
,
00100000
00000000
10000000
01000000
00100000
00000000
01000000
10000000
,
00000000
00010000
00000000
01000000
00000000
00001000
00010000
00000000
,
00000100
00000000
00001000
00000001
00000000
00000100
00000010
00000000
,
00001010
00001001
00000101
00000002
,
00000010
00000000
00001000
00000000
00000013
00000100
00002000
00000000
,
00000010
00000001
00003010
00000110
,
00001010
00000000
00001000
00000100
00000000
00010000
00000000
00001000
,
00000000
00000000
00100000
00000000
00010000
01000000
00100000
00000000
,
10000000
00000000
01000000
00000000
00100000
00000000
00010000
01000000
,
00100000
00000000
10000000
00000000
00010000
01000000
00000000
00001000
,
00000000
00010000
00000100
00010000
00000000
00001000
01000000
00001000
,
00100000
00110000
10010000
20000000
,
00100000
00000000
00010000
00000000
30100000
01000000
00020000
00000000
,
00100000
10000000
00130000
01100000
,
11000000
00000000
10000000
00010000
00000000
00100000
00001000
00010000
,
00001000
00000000
00010000
00000000
00000100
00001000
00000001
00000100
,
00002000
00000000
00000000
00000000
,
00003000
00000000
00000000
00000000
;

//---------------dance-single - ----------------
#NOTES:
     dance-single:
     :
     Beginner:
     1:
     0.092,0.155,0.025,0.051,0.000: // measure 1
0000
0000
0000
0000
,  // measure 2
0000
0000
0000
0000
,  // measure 3
1000
0000
0000
0000
,  // measure 4
0001
0000
0000
0000
,  // measure 5
0100
0000
0000
0000
,  // measure 6
0010
0000
0000
0000
,  // measure 7
1000
0000
0000
0000
,  // measure 8
0001
0000
0000
0000
,  // measure 9
1000
0000
0000
0000
,  // measure 10
0001
0000
0000
0000
,  // measure 11
0100
0000
0000
0000
,  // measure 12
0010
0000
0000
0000
,  // measure 13
1000
0000
0000
0000
,  // measure 14
0001
0000
0000
0000
,  // measure 15
0100
0000
0000
0000
,  // measure 16
0010
0000
0000
0000
,  // measure 17
1000
0000
0000
0000
,  // measure 18
0001
0000
0000
0000
,  // measure 19
0010
0000
0000
0000
,  // measure 20
0100
0000
0000
0000
,  // measure 21
0001
0000
0000
0000
,  // measure 22
1000
0000
0000
0000
,  // measure 23
0001
0000
0000
0000
,  // measure 24
1000
0000
1000
0000
,  // measure 25
1000
0000
1000
0000
,  // measure 26
2000
0000
0000
3000
,  // measure 27
0002
0000
0000
0003
,  // measure 28
0200
0000
0000
0300
,  // measure 29
0020
0000
0000
0030
,  // measure 30
2000
0000
0000
3000
,  // measure 31
0002
0000
0000
0003
,  // measure 32
1000
0000
0000
0000
,  // measure 33
0001
0000
0000
0000
,  // measure 34
0010
0000
0000
0000
,  // measure 35
0100
0000
0000
0000
,  // measure 36
0010
0000
0000
0000
,  // measure 37
1000
0000
0000
0000
,  // measure 38
0001
0000
0000
0000
,  // measure 39
1000
0000
0000
0000
,  // measure 40
0010
0000
0010
0000
,  // measure 41
0010
0000
1000
0000
,  // measure 42
1001
0000
1000
0000
,  // measure 43
0010
0000
0100
0000
,  // measure 44
0001
0000
1000
0000
,  // measure 45
0010
0000
0000
0000
,  // measure 46
1001
0000
0000
0000
,  // measure 47
1000
0000
0000
0000
,  // measure 48
0001
0000
0000
0000
,  // measure 49
0100
0000
0000
0000
,  // measure 50
0010
0000
0000
0000
,  // measure 51
1000
0000
0000
0000
,  // measure 52
1000
0000
0000
0000
,  // measure 53
1001
0000
0000
0000
,  // measure 54
0010
0000
0000
0000
,  // measure 55
0100
0000
0000
0000
,  // measure 56
0001
0000
0000
0000
,  // measure 57
1000
0000
0000
0000
,  // measure 58
0010
0000
0000
0000
,  // measure 59
1000
0000
0000
0000
,  // measure 60
0001
0000
0000
0000
,  // measure 61
0010
0000
0000
0000
,  // measure 62
0100
0000
0000
0000
;
