#TITLE:Honey Party;
#SUBTITLE:;
#ARTIST:Ryu☆;
#TITLETRANSLIT:;
#SUBTITLETRANSLIT:;
#ARTISTTRANSLIT:;
#GENRE:;
#CREDIT:;
#BANNER:Honey Party-Banner.png;
#BACKGROUND:Honey Party-BG.png;
#LYRICSPATH:;
#CDTITLE:;
#MUSIC:Honey Party.ogg;
#OFFSET:-0.395000;
#SAMPLESTART:95.964996;
#SAMPLELENGTH:12.000000;
#SELECTABLE:YES;
#DISPLAYBPM:188.000000;
#BPMS:0.000000=188.000000
;
#STOPS:63.500000=2.554000,
208.000000=3.511000
;
#BGCHANGES:;
#KEYSOUNDS:;
#ATTACKS:;

//---------------dance-single - ----------------
#NOTES:
     dance-single:
     :
     Hard:
     10:
     0.716303,0.897923,0.105818,0.244194,0.398851,573.000000,13.000000,30.000000,0.000000,0.000000,0.000000,0.716303,0.897923,0.105818,0.244194,0.398851,573.000000,13.000000,30.000000,0.000000,0.000000,0.000000:
0000
0000
0000
0000
,
0000
0000
0000
0000
,
0000
0000
0000
0000
,
0000
0000
0000
0000
,
0000
0000
0000
0000
,
0000
0000
0000
0000
,
0000
0000
0000
0000
,
0000
0000
0000
0000
,
2001
0000
0000
0000
,
3020
0000
0000
0000
,
0032
0000
0000
0000
,
0203
0000
0000
0000
,
2300
0000
0000
0000
,
3200
0000
0000
0000
,
0302
0000
0000
0000
,
0023
0000
0000
0000
,
1030
0000
0100
0000
0001
0000
0100
0000
1000
0000
0001
0000
0100
0010
0100
0000
,
0001
0000
1000
0000
0001
0000
1000
0000
0100
0000
0100
0000
1000
0001
1000
0000
,
0001
0000
0100
0000
1000
0000
0100
0000
0010
0000
1000
0000
0100
0010
0100
0000
,
1000
0001
1000
0001
0100
0000
0001
1000
0001
1000
0100
0000
1000
0000
1000
0000
,
0001
0000
0100
0000
1000
0000
0100
0000
0001
0000
1000
0000
0100
0010
0100
0000
,
1000
0000
0001
0000
1000
0000
0001
0000
0100
0000
0100
0000
0001
1000
0001
0000
,
1000
0000
0100
0000
0001
0000
0100
0000
0010
0000
0001
0000
0100
0010
0100
0000
,
0001
1000
0001
1000
0100
0000
1000
0001
1000
0001
0100
0000
0001
0000
0001
0000
,
1000
0100
0001
0100
1000
0100
0010
0100
,
1000
0010
0100
0010
0001
0010
1000
1000
,
0001
0100
1000
0100
0001
0100
0010
0100
,
0001
0010
0100
0010
1000
0010
0001
0001
,
1000
0100
0001
0100
0010
0001
1000
1000
,
0001
0100
1000
0100
0010
1000
0001
0001
,
1000
0001
1000
0001
1000
0000
0001
1000
0001
1000
0100
0000
1000
0000
1000
0000
,
0001
1000
0001
1000
0001
0000
1000
0001
1000
0001
0100
0000
0001
0000
0001
0000
,
1000
0100
1000
0200
0000
0010
0310
0000
,
0001
0100
0001
0200
0000
0010
0310
0000
,
1000
0001
1000
0000
0100
0000
0010
0000
0001
1000
0001
1000
0001
0000
1000
0000
,
0001
1000
0001
0000
0100
0000
0010
0000
1000
0001
1000
0001
1000
0000
0001
0000
,
1000
0000
0000
1000
0000
0000
0001
0000
0000
0100
0000
0000
0001
0000
1000
0000
,
0001
0000
0010
0100
0000
0000
0010
0000
0000
0001
0000
0001
0100
0000
0010
0000
,
1000
0000
0100
0010
0000
0100
0010
0000
0001
1000
0000
0001
1000
0000
0010
0000
,
0100
0000
0001
1000
0000
0001
1000
0000
0100
0000
0010
0000
0001
0000
1000
0000
,
0001
0000
0000
0001
0000
0000
1000
0000
0000
0100
0000
0000
1000
0000
0001
0000
,
1000
0000
0010
0100
0000
0000
0010
0000
0000
1000
0000
1000
0100
0000
0010
0000
,
0001
0000
0100
0010
0000
0100
0010
0000
1000
0001
0000
1000
0001
0000
0010
0000
,
0100
0000
1000
0001
0000
1000
0001
0000
0100
0000
0010
0000
1000
0000
0001
0000
,
1000
0000
0100
0000
0010
0001
0010
0000
0001
0000
1000
0000
0100
0000
0100
0000
,
1000
0000
0010
0100
0000
0010
0100
0000
0001
1000
0001
0000
1000
0001
1000
0000
,
0001
0000
0100
0000
0010
1000
0010
0000
1000
0000
0001
0000
0100
0000
0100
0000
,
0001
0000
0010
0100
0000
0010
0100
0000
1000
0001
1000
0000
0001
1000
0001
0000
,
1000
0100
0010
0001
0000
1000
0100
0010
,
0001
0000
1000
0001
0000
0001
1000
0000
,
0001
0100
0010
1000
0000
0001
0100
0010
,
1000
0001
1000
0001
1000
0001
1000
0001
1000
0001
1000
0001
1000
0001
1000
0001
,
1000
0000
1002
0000
0100
0000
0010
0023
,
0000
1000
0000
0100
0000
0032
0000
0000
,
1003
0000
2001
0000
0100
0000
0010
3020
,
0000
0001
0000
0100
0000
2030
0000
0000
,
3001
0000
1002
0000
0100
0000
0010
0023
,
0000
1000
0000
0230
0000
0001
0000
0010
,
0010
0310
0001
0100
1000
0100
0001
0010
,
1000
0010
0001
0100
0001
0100
0000
0001
,
1000
0000
2001
0000
0100
0000
0010
3020
,
0000
0001
0000
0100
0000
2030
0000
0000
,
3001
0000
1002
0000
0100
0000
0010
0023
,
0000
1000
0000
0100
0000
0032
0000
0000
,
1003
0000
2001
0000
0100
0000
0010
3020
,
0000
0001
0000
0230
0000
1000
0000
0010
,
0010
0310
1000
0100
0010
0001
0010
0100
,
0010
0001
1000
0100
0010
0001
0010
0100
,
0010
0001
1000
0100
0010
0001
0010
0100
,
0010
0001
1000
0100
0000
1000
0001
1000
,
0001
0000
0000
0000
1001
0000
0000
1000
0001
0000
0000
0001
0100
0000
1000
0000
,
0100
0010
1000
0001
0010
1000
0010
0001
,
1000
0000
0000
0000
1001
0000
0000
0001
1000
0000
0000
1000
0100
0000
0001
0000
,
0100
0010
0001
1000
0010
0001
0010
1000
,
0001
0000
0000
0000
1001
0000
0000
1000
0001
0000
0000
0001
0100
0000
1000
0000
,
0100
0010
1000
0001
0010
1000
0010
0001
,
1000
1000
0001
0100
0010
1000
0010
1000
,
0100
0010
0001
1000
0000
1000
0001
1000
,
0001
0000
0000
0000
1000
0000
0100
0010
0100
0000
0010
0100
0010
0000
0001
0000
,
0100
0000
0010
0000
1000
0100
1000
0000
0001
1000
0001
1000
0001
0000
0000
0000
,
1001
0000
0000
0000
0001
0000
0100
0010
0100
0000
0010
0100
0010
0000
1000
0000
,
0100
0000
0010
0000
0001
0100
0001
0000
1000
0001
1000
0001
1000
0000
0000
0000
,
1001
0000
0000
0000
1000
0001
1000
0000
0001
1000
0001
0000
1000
0100
1000
0100
,
0010
0100
0010
0000
0001
1000
0001
0000
1000
0001
1000
0000
0001
0100
0001
0100
,
0010
0100
0010
0000
1000
0000
0100
0000
0010
0001
0010
0001
1000
0000
0100
0000
,
0010
0001
0010
0001
1000
0000
0001
0000
0000
0000
0001
0000
1000
0000
0001
0000
,
1000
2002
0000
0000
,
0000
0000
0000
0000
,
0000
3003
0000
0000
;

//---------------dance-single - ----------------
#NOTES:
     dance-single:
     :
     Medium:
     8:
     0.582578,0.574671,0.154656,0.390711,0.113957,434.000000,19.000000,48.000000,0.000000,0.000000,0.000000,0.582578,0.574671,0.154656,0.390711,0.113957,434.000000,19.000000,48.000000,0.000000,0.000000,0.000000:
0000
0000
0000
0000
,
0000
0000
0000
0000
,
0000
0000
0000
0000
,
0000
0000
0000
0000
,
0000
0000
0000
0000
,
0000
0000
0000
0000
,
0000
0000
0000
0000
,
0000
0000
0000
0000
,
1002
0000
0000
0000
,
0023
0000
0000
0000
,
2030
0000
0000
0000
,
3200
0000
0000
0000
,
0302
0000
0000
0000
,
0203
0000
0000
0000
,
2300
0000
0000
0000
,
3020
0000
0000
0000
,
0031
0100
1000
0100
0001
1000
0100
0100
,
1000
0001
1000
0001
0100
0001
0100
0100
,
0001
1000
0001
1000
0100
0001
0100
0100
,
1000
0001
0100
0100
0001
1000
0010
0010
,
1000
0100
0001
0100
1000
0001
0100
0100
,
0001
1000
0001
1000
0100
1000
0100
0100
,
1000
0001
1000
0001
0100
1000
0100
0100
,
0001
1000
0100
0100
1000
0001
0010
0010
,
0001
0100
1000
0000
1000
0100
0001
0000
,
2001
0100
3002
0100
,
1003
0100
0001
0000
0001
0100
1000
0000
,
1002
0100
2003
0100
,
3001
0100
1000
0100
0010
1000
0001
0001
,
1000
0100
0001
0100
0010
0001
1000
1000
,
0001
0100
1000
0100
0010
0100
0001
0001
,
1000
0100
0001
0100
0010
0100
1000
1000
,
0001
0100
1000
0200
0000
0001
0301
0000
,
1000
0100
0001
0200
0000
1000
1300
0000
,
0001
0100
0010
1000
0100
1000
0001
0001
,
1000
0100
0010
0001
0100
0001
1000
1000
,
0001
0000
0000
0100
0000
0000
0001
0000
0000
0001
0000
0000
1000
0000
0100
0000
,
0001
0000
0000
0001
0000
0000
0100
0000
0000
0100
0000
0000
1000
0000
0001
0000
,
0100
0000
0000
0100
0000
0000
0001
0000
0000
0001
0000
0000
1000
0000
0100
0000
,
0010
0000
0001
0100
0000
0100
0001
0000
1000
0000
0100
0000
1000
0000
0100
0000
,
1000
0000
0000
0100
0000
0000
1000
0000
0000
1000
0000
0000
0001
0000
0100
0000
,
1000
0000
0000
1000
0000
0000
0100
0000
0000
0100
0000
0000
0001
0000
1000
0000
,
0100
0000
0000
0100
0000
0000
1000
0000
0000
1000
0000
0000
0001
0000
0100
0000
,
0010
0000
1000
0100
0000
0100
1000
0000
0001
0000
0100
0000
0001
0000
0100
0000
,
0001
1000
0100
0010
0000
0100
0010
0001
,
1000
0000
0001
1000
0000
1000
0001
0000
,
1000
0001
0100
0010
0000
0100
0010
1000
,
0001
0000
1000
0001
0000
0001
1000
0000
,
2001
0100
0000
0100
,
0000
0010
0000
3010
,
1002
0100
0000
0100
,
0000
0010
0000
0013
,
1001
0000
2001
0000
0100
0000
0010
3020
,
0000
0001
0000
0100
0000
2030
0000
0000
,
3001
0000
1002
0000
0100
0000
0010
0023
,
0000
1000
0000
0100
0000
0032
0000
0000
,
1003
0000
2001
0000
0100
0000
0010
3020
,
0000
0001
0000
0230
0000
1000
0000
0010
,
0010
0310
1000
0001
1000
0001
0100
0010
,
0100
0010
1000
0001
1000
0001
0000
1000
,
0001
0000
1002
0000
0100
0000
0010
0023
,
0000
1000
0000
0100
0000
0032
0000
0000
,
1003
0000
2001
0000
0100
0000
0010
3020
,
0000
0001
0000
0100
0000
2030
0000
0000
,
3001
0000
1002
0000
0100
0000
0010
0023
,
0000
1000
0000
0230
0000
0001
0000
0010
,
0010
0310
0001
1000
0001
1000
0001
0100
,
1000
0100
0001
1000
0001
1000
0001
0100
,
1000
0100
0001
1000
0001
1000
0001
0100
,
1000
0100
0001
1000
0000
0001
1000
0001
,
1000
0000
0000
0000
1001
0000
0000
0001
1000
0000
0000
1000
0001
0000
0200
0000
,
0000
1000
0000
0010
0000
0302
0000
1000
,
1003
0000
0000
0000
1001
0000
0000
1000
0001
0000
0000
0001
1000
0000
0200
0000
,
0000
0001
0000
0010
0000
2300
0000
0001
,
3001
0000
0000
0000
1001
0000
0000
0001
1000
0000
0000
1000
0001
0000
0200
0000
,
0000
1000
0000
0010
0000
0302
0000
1000
,
1003
0100
0010
0001
0100
1000
0100
0001
,
1000
0001
1000
0100
0000
0100
0001
0100
,
1000
0000
0000
0000
1001
0000
0000
1000
0001
0000
0000
0001
1000
0000
0200
0000
,
0000
0001
0000
0010
0000
2300
0000
0001
,
3001
0000
0000
0000
1001
0000
0000
0001
1000
0000
0000
1000
0001
0000
0200
0000
,
0000
1000
0000
0010
0000
0302
0000
1000
,
1003
0000
0000
0000
1001
0000
0000
1000
0001
0000
0000
0001
1000
0000
0200
0000
,
0000
0001
0000
0010
0000
2300
0000
0001
,
3001
0100
0010
1000
0100
0001
0100
1000
,
0001
1000
0001
0100
0000
0100
1000
0100
,
0001
2002
0000
0000
,
0000
0000
0000
0000
,
0000
3003
0000
0000
;

//---------------dance-single - ----------------
#NOTES:
     dance-single:
     :
     Easy:
     6:
     0.512808,0.574671,0.268614,0.504668,0.000000,346.000000,33.000000,62.000000,0.000000,0.000000,0.000000,0.512808,0.574671,0.268614,0.504668,0.000000,346.000000,33.000000,62.000000,0.000000,0.000000,0.000000:
// measure 0
0000
0000
0000
0000
,  // measure 1
0000
0000
0000
0000
,  // measure 2
0000
0000
0000
0000
,  // measure 3
0000
0000
0000
0000
,  // measure 4
0000
0000
0000
0000
,  // measure 5
0000
0000
0000
0000
,  // measure 6
0000
0000
0000
0000
,  // measure 7
0000
0000
0000
0000
,  // measure 8
2001
0000
0000
0000
,  // measure 9
3020
0000
0000
0000
,  // measure 10
0032
0000
0000
0000
,  // measure 11
0203
0000
0000
0000
,  // measure 12
2300
0000
0000
0000
,  // measure 13
3200
0000
0000
0000
,  // measure 14
0302
0000
0000
0000
,  // measure 15
0023
0000
0000
0000
,  // measure 16
1030
1000
0001
0100
,  // measure 17
0001
1000
0100
0000
1000
0001
0100
0000
,  // measure 18
0001
0001
1000
0100
,  // measure 19
1000
0001
0100
0000
0001
1000
0100
0000
,  // measure 20
1000
0000
0001
0000
0100
0000
1000
0100
,  // measure 21
0001
0000
1000
0000
0100
0000
0001
0100
,  // measure 22
1000
0001
1000
0001
0100
1000
0100
0100
,  // measure 23
0001
1000
0001
1000
0100
0001
0100
0100
,  // measure 24
1000
0010
0100
0000
0001
0010
0100
0000
,  // measure 25
1002
0100
2003
0100
,  // measure 26
3001
0010
0100
0000
1000
0010
0100
0000
,  // measure 27
2001
0100
3002
0100
,  // measure 28
1003
0100
1000
0100
1000
0001
1000
0000
,  // measure 29
0001
0100
0001
0100
0001
1000
0001
0000
,  // measure 30
1000
0100
1000
0001
1000
0010
1000
0000
,  // measure 31
0001
0100
0001
1000
0001
0010
0001
0000
,  // measure 32
1001
0000
1000
0100
0000
0100
1000
0000
,  // measure 33
1001
0000
0001
0100
0000
0100
0001
0000
,  // measure 34
1000
0100
0001
0000
0001
0100
1000
0000
,  // measure 35
0001
0100
1000
0000
1000
0100
0001
0000
,  // measure 36
2001
0100
0000
0100
,  // measure 37
3020
0001
0000
0001
,  // measure 38
0230
1000
0010
0301
,  // measure 39
1001
0000
1000
0100
0001
0100
1000
0000
,  // measure 40
1002
0100
0000
0100
,  // measure 41
0023
1000
0000
1000
,  // measure 42
0230
0001
0010
1300
,  // measure 43
1001
0000
0001
0100
1000
0100
0001
0000
,  // measure 44
1001
0000
1000
0001
0000
1000
0001
0000
,  // measure 45
1001
0100
1001
0010
,  // measure 46
1001
0000
0001
1000
0000
0001
1000
0000
,  // measure 47
1001
0100
1001
0010
,  // measure 48
1002
0100
0000
0100
,  // measure 49
0000
0010
0000
0013
,  // measure 50
2001
0100
0000
0100
,  // measure 51
0000
0010
0000
3010
,  // measure 52
1001
0000
1002
0000
0100
0000
0010
0023
,  // measure 53
0000
1000
0000
0100
0000
0032
0000
0000
,  // measure 54
1003
0000
2001
0000
0100
0000
0010
3020
,  // measure 55
0000
0001
0000
0100
0000
2030
0000
0000
,  // measure 56
3001
0000
1002
0000
0100
0000
0010
0023
,  // measure 57
0000
1000
0000
0230
0000
0001
0000
0010
,  // measure 58
0000
1300
0001
0100
1000
0000
1000
0100
,  // measure 59
0001
0000
1000
0001
1000
0001
0000
1000
,  // measure 60
0001
0000
2001
0000
0100
0000
0010
3020
,  // measure 61
0000
0001
0000
0100
0000
2030
0000
0000
,  // measure 62
3001
0000
1002
0000
0100
0000
0010
0023
,  // measure 63
0000
1000
0000
0100
0000
0032
0000
0000
,  // measure 64
1003
0000
2001
0000
0100
0000
0010
3020
,  // measure 65
0000
0001
0000
0230
0000
1000
0000
0010
,  // measure 66
0000
0301
1000
0100
0001
0000
0001
0100
,  // measure 67
1000
0000
0001
0100
1000
0000
1000
0100
,  // measure 68
0001
0000
1000
0100
0001
0000
0001
0100
,  // measure 69
1000
0000
0001
1000
0000
0001
1000
0001
,  // measure 70
1000
0000
2001
0000
0100
0000
0010
3020
,  // measure 71
0000
0001
0000
0100
0000
2030
0000
0001
,  // measure 72
3001
0000
1002
0000
0100
0000
0010
0023
,  // measure 73
0000
1000
0000
0100
0000
0032
0000
1000
,  // measure 74
1003
0000
2001
0000
0100
0000
0010
3020
,  // measure 75
0000
0001
0000
0100
0000
2030
0000
0001
,  // measure 76
3001
1002
0100
0023
,  // measure 77
1000
0000
0031
1000
0000
0001
1000
0001
,  // measure 78
1000
0000
1002
0000
0100
0000
0010
0023
,  // measure 79
0000
1000
0000
0100
0000
0032
0000
1000
,  // measure 80
1003
0000
2001
0000
0100
0000
0010
3020
,  // measure 81
0000
0001
0000
0100
0000
2030
0000
0001
,  // measure 82
3001
0000
1002
0000
0100
0000
0010
0023
,  // measure 83
0000
1000
0000
0100
0000
0032
0000
1000
,  // measure 84
1003
2001
0100
3020
,  // measure 85
0001
0000
1030
0001
0000
1000
0001
1000
,  // measure 86
0001
2002
0000
0000
,  // measure 87
0000
0000
0000
0000
,  // measure 88
0000
3003
0000
0000
;
