#VERSION:0.82;
#TITLE:Erosion Mark;
#SUBTITLE:;
#ARTIST:kors k REASM Des-ROW;
#TITLETRANSLIT:;
#SUBTITLETRANSLIT:;
#ARTISTTRANSLIT:;
#GENRE:;
#ORIGIN:;
#CREDIT:;
#BANNER:[Mother Nature] - Erosion Mark.png;
#BACKGROUND:[Mother Nature] - Erosion Mark-bg.png;
#PREVIEWVID:;
#JACKET:[Mother Nature] - Erosion Mark-jacket.png;
#CDIMAGE:;
#DISCIMAGE:;
#LYRICSPATH:;
#CDTITLE:cdtitle.png;
#MUSIC:Erosion Mark.ogg;
#OFFSET:-0.551000;
#SAMPLESTART:85.528816;
#SAMPLELENGTH:12.000000;
#SELECTABLE:YES;
#BPMS:0.000=192.000;
#STOPS:;
#DELAYS:;
#WARPS:;
#TIMESIGNATURES:0.000=4=4;
#TICKCOUNTS:0.000=4;
#COMBOS:0.000=1;
#SPEEDS:0.000=1.000=0.000=0;
#SCROLLS:0.000=1.000;
#FAKES:;
#LABELS:0.000=Song Start;
#BGCHANGES:;
#KEYSOUNDS:;
#ATTACKS:
;

//---------------dance-single - ----------------
#NOTEDATA:;
#CHARTNAME:;
#STEPSTYPE:dance-single;
#DESCRIPTION:;
#CHARTSTYLE:;
#DIFFICULTY:Hard;
#METER:9;
#RADARVALUES:0.606688,0.709089,0.077215,0.163009,0.313149,467.000000,9.000000,19.000000,0.000000,0.000000,0.000000,0.000000,0.000000,0.606688,0.709089,0.077215,0.163009,0.313149,467.000000,9.000000,19.000000,0.000000,0.000000,0.000000,0.000000,0.000000;
#CREDIT:;
#NOTES:
// measure 0
0000
0000
0000
0000
,  // measure 1
0000
0000
0000
0000
,  // measure 2
0000
0000
0000
0000
,  // measure 3
0000
0000
0000
0000
,  // measure 4
0000
0000
0000
0000
,  // measure 5
0000
0000
0000
0000
,  // measure 6
0000
0000
0000
0000
,  // measure 7
0000
0000
0000
0000
,  // measure 8
1000
0001
1000
0001
,  // measure 9
0100
0001
0100
0001
,  // measure 10
0010
0100
0010
0100
,  // measure 11
1000
0010
1000
0010
,  // measure 12
0100
0100
0001
0001
,  // measure 13
0010
0010
0100
0100
,  // measure 14
1000
0001
0010
0100
,  // measure 15
1000
0000
0020
0000
,  // measure 16
0130
0000
0000
0001
1000
0000
0000
0010
1000
0000
0000
0000
0100
0000
0010
0000
,  // measure 17
0001
0000
0000
1000
0001
0000
0000
0100
0001
0000
0000
0000
0010
0000
0100
0000
,  // measure 18
1000
0000
0000
0001
1000
0000
0000
0010
1000
0000
0000
0000
0100
0000
1000
0000
,  // measure 19
0010
0000
0000
0100
0001
0000
0000
1000
0001
0000
0010
0000
0100
0000
1000
0000
,  // measure 20
0001
0000
0000
0100
0010
0000
0000
1000
0010
0000
0000
0000
0100
0000
0001
0000
,  // measure 21
1000
0000
0000
0100
0010
0000
0000
0001
0010
0000
0000
0000
0100
0000
1000
0000
,  // measure 22
0010
0000
0000
0100
0001
0000
0000
1000
0001
0000
0000
0010
0100
0000
0000
1000
,  // measure 23
0002
0003
0020
0030
0100
1000
0001
0100
,  // measure 24
0010
0000
0000
1000
0001
0000
0010
0000
1000
0000
0010
0000
0001
0000
0100
0000
,  // measure 25
0010
0100
0001
0010
0100
1000
0001
0000
,  // measure 26
0010
0000
0000
0100
1000
0000
0001
0000
0100
0000
0010
0000
1000
0000
0001
0000
,  // measure 27
0100
0000
0020
0030
0100
0001
1000
0001
,  // measure 28
0100
0000
0000
0010
1000
0000
0100
0000
0010
0000
0001
0000
0100
0000
0010
0000
,  // measure 29
1000
0000
0001
0000
0010
0000
0100
0000
1000
0000
0000
0001
0100
0000
0000
0000
,  // measure 30
0020
0000
0000
0000
,  // measure 31
1030
0000
0100
0010
0100
0000
0000
0000
2000
0000
3000
0000
0001
0000
0000
0000
,  // measure 32
0100
0000
0000
0100
0000
0000
0100
0000
,  // measure 33
0010
0000
0000
0010
0000
0000
0010
0000
,  // measure 34
1000
0000
0000
1000
0000
0000
1000
0000
,  // measure 35
0001
0000
0000
0001
0000
0000
0001
0000
,  // measure 36
0010
0000
0000
0010
0000
0000
0010
0000
,  // measure 37
0100
0000
0000
0100
0000
0000
0100
0000
,  // measure 38
1000
0000
0000
1000
0000
0000
1000
0000
,  // measure 39
0001
0000
0000
0001
0000
0000
0001
0000
,  // measure 40
0200
0000
0310
1000
,  // measure 41
0100
0010
0001
0110
,  // measure 42
1002
0000
0103
0010
,  // measure 43
1000
0000
0000
0001
0000
0000
0010
0000
0100
1000
0000
0000
,  // measure 44
0021
0000
0130
1000
,  // measure 45
0010
0100
0001
0110
,  // measure 46
2001
0000
3010
0100
,  // measure 47
0001
0000
0000
1000
0000
0000
0100
0000
0010
0001
0000
0000
,  // measure 48
1100
1000
0100
0100
,  // measure 49
0010
0010
0001
0001
,  // measure 50
0100
0001
0010
0100
1000
0010
0100
0001
,  // measure 51
1000
0100
0010
0001
0100
0010
1000
0001
,  // measure 52
0011
0000
0000
1000
0001
0000
0000
0100
0001
0000
0000
0010
0100
0000
1000
0000
,  // measure 53
0001
0000
0000
0100
0010
0000
0000
1000
0010
0000
0000
0100
0001
0000
0010
0000
,  // measure 54
0100
0000
0000
0010
0100
0000
0000
1000
0100
0000
0000
0010
0001
0000
0100
0000
,  // measure 55
0010
1000
0100
0001
1000
0010
0001
0100
,  // measure 56
0010
0000
0000
1000
0100
0000
0000
0010
0100
0000
0000
1000
0001
0000
0100
0000
,  // measure 57
0010
0000
0000
1000
0100
0000
0000
0010
0100
0000
0000
1000
0001
0000
0010
0000
,  // measure 58
0100
0000
0000
0000
0100
0000
0000
0000
0100
0000
1000
0001
1000
0000
0010
0000
,  // measure 59
0010
1000
1000
1000
,  // measure 60
1001
0000
0000
0001
1000
0000
0000
0010
1000
0000
0000
0001
0100
0000
0010
0000
,  // measure 61
1000
0000
0000
0100
0010
0000
0000
0001
0010
0000
0000
0100
1000
0000
0001
0000
,  // measure 62
0100
0000
0000
0010
0100
0000
0000
0001
0100
0000
0000
0010
1000
0000
0100
0000
,  // measure 63
0010
0000
0000
0001
1000
0000
0000
0100
1000
0000
0000
0001
0010
0000
0100
0000
,  // measure 64
2000
0000
0000
0000
0000
0000
0000
0000
3001
0100
0001
0100
0001
0100
0001
0100
,  // measure 65
0002
0000
0003
0000
1000
0100
1000
0100
,  // measure 66
2000
0000
0000
3020
0000
0030
0002
0000
,  // measure 67
2003
0000
0000
0000
,  // measure 68
3100
0000
0000
0010
1000
0000
0001
0000
0010
0000
0100
1000
0100
0000
0010
0000
,  // measure 69
0001
0000
1000
0000
0100
0000
0010
0000
0001
0000
0100
0010
0100
0000
0001
0000
,  // measure 70
1000
0000
0000
0100
0010
0000
0001
0000
1000
0000
0100
0010
0100
0000
1000
0000
,  // measure 71
0001
0000
0100
0000
0010
0000
0100
0000
0001
0000
1000
0100
0010
0000
0001
0100
,  // measure 72
0010
1000
0010
0001
0010
0100
0010
0100
,  // measure 73
0001
0000
0010
0000
0001
0000
0010
0000
0100
0000
1000
0001
1000
0000
0100
0000
,  // measure 74
0020
0001
0001
0000
0100
0100
0000
1000
,  // measure 75
1030
0000
0001
0000
0100
0000
1000
0000
0020
0000
0000
0100
0000
0000
0100
0000
,  // measure 76
0130
0000
0000
0001
1000
0000
0100
0000
0010
0000
0100
0000
1000
0000
0010
0000
,  // measure 77
0100
0000
0000
0001
1000
0000
0100
0000
0010
0000
0001
0100
0010
0000
1000
0000
,  // measure 78
0100
0000
0000
0010
0001
0000
0100
0000
0010
0000
0010
0000
1000
0000
1000
0000
,  // measure 79
0100
0000
0010
0001
0010
0000
0100
1000
0100
0000
0010
0000
0001
0000
0100
0000
,  // measure 80
0010
1000
0010
0100
0010
0001
0010
0100
,  // measure 81
0001
0010
0100
0010
1000
0010
0100
1000
,  // measure 82
0010
0010
0100
0100
0001
0001
1000
1000
,  // measure 83
0020
0000
0000
0000
,  // measure 84
1030
0001
1000
0000
0100
0000
0010
0000
0001
0000
0000
0000
0000
0000
0000
0000
,  // measure 85
0010
0100
0010
0000
0001
0000
1000
0000
0001
0000
0000
0000
0000
0000
0000
0000
,  // measure 86
0100
0010
0000
0000
0000
0000
0000
0000
0000
0000
0000
0000
0000
0000
0000
0000
,  // measure 87
1001
0000
0000
0000
;

//---------------dance-single - ----------------
#NOTEDATA:;
#CHARTNAME:;
#STEPSTYPE:dance-single;
#DESCRIPTION:;
#CHARTSTYLE:;
#DIFFICULTY:Medium;
#METER:7;
#RADARVALUES:0.447355,0.597128,0.111532,0.137271,0.008579,336.000000,13.000000,16.000000,0.000000,0.000000,0.000000,0.000000,0.000000,0.447355,0.597128,0.111532,0.137271,0.008579,336.000000,13.000000,16.000000,0.000000,0.000000,0.000000,0.000000,0.000000;
#CREDIT:;
#NOTES:
0000
0000
0000
0000
,
0000
0000
0000
0000
,
0000
0000
0000
0000
,
0000
0000
0000
0000
,
0000
0000
0000
0000
,
0000
0000
0000
0000
,
0000
0000
0000
0000
,
0000
0000
0000
0000
,
1000
0001
1000
0001
,
0100
0010
0100
0010
,
1000
0100
0010
0001
,
0100
0001
0010
0100
,
1000
0010
0001
0010
,
1000
0100
0001
0100
,
1000
0010
0100
0001
,
1000
0000
0200
0000
,
0310
0000
0001
0000
0001
0000
0100
0010
,
1000
1000
1000
0001
,
0100
0000
0010
0000
0010
0000
1000
0001
,
0100
0000
0100
0000
0100
0001
0010
0000
,
0100
0000
1000
0000
1000
0000
0100
0010
,
0001
0001
0001
0100
,
0010
0000
1000
0000
1000
0000
0001
0100
,
0020
0030
2000
3000
0100
0010
0001
0010
,
0100
0000
1000
0010
0000
0001
0010
1000
,
0100
0000
0010
0001
0100
0001
0010
0100
,
1000
0000
0100
0001
0000
0100
1000
0010
,
0002
0003
2000
3000
0200
0300
0020
0030
,
1000
0100
0001
0100
1000
0100
0001
0100
,
1000
0010
0001
0010
1000
0010
0001
0010
,
2000
0000
0000
0000
,
3100
0100
0100
0000
0010
0000
0010
0000
,
1001
0000
0000
0000
,
1000
0000
0000
0000
,
0101
0000
0000
0000
,
0010
0000
0000
0000
,
1100
0000
0000
0000
,
0001
0000
0000
0000
,
0110
0000
0000
0000
,
1000
0000
0000
0000
,
1001
0000
0001
0100
,
0010
0100
0001
0010
,
0110
0000
0100
1000
,
0010
0000
0000
0100
0000
0000
0001
0000
0010
0100
0000
0000
,
1100
0000
1000
0001
,
0100
0001
1000
0100
,
0110
0000
0010
0001
,
1000
0000
0000
0010
0000
0000
0100
0000
0001
1000
0000
0000
,
1010
0000
0000
0000
,
0000
0000
0000
0000
,
0000
0000
0000
0000
,
0000
0000
0000
0000
,
1001
0000
0001
0000
0001
0000
0100
0010
,
1000
0000
1000
0000
1000
0000
0001
0010
,
0100
0000
0100
0000
0100
0000
1000
0001
,
0010
0100
0010
0001
0010
0100
1000
0010
,
0100
0000
0100
0000
0100
0000
0001
1000
,
0010
0000
0010
0000
0010
0000
0100
0001
,
1000
0000
1000
0000
1000
0000
0100
0010
,
0001
0001
0001
0001
,
0101
0000
0100
0000
0100
0000
0010
1000
,
0001
0000
0001
0000
0001
0000
1000
0100
,
0010
0000
0010
0000
0010
0000
0100
0010
,
0001
0000
0001
0000
0001
0000
0010
0100
,
2000
0000
0000
0000
3100
0001
0100
1000
,
0020
0000
0000
0000
0130
0001
0100
0001
,
0200
0000
0000
0320
0000
0000
2030
0000
,
3200
0000
0000
0000
,
0310
0000
0001
1000
0000
1000
0100
0010
,
0001
1000
0010
0100
0010
1000
0100
0010
,
0001
0000
0100
0001
0000
0001
0010
0100
,
1000
0010
0100
0001
0010
0100
1000
0001
,
0100
0010
0100
0010
1000
0100
0010
0100
,
0010
0001
1000
0001
1000
0100
0010
0001
,
0010
0100
1000
0000
0010
0100
0000
0001
,
0020
0000
0000
0000
,
0130
1000
0100
0010
0000
0001
0000
0100
,
0010
1000
0001
0010
0000
0100
1000
0000
,
0010
0000
0100
0001
0100
0010
1000
0010
,
0100
0001
0010
0100
1000
0001
0100
0001
,
0010
0010
0100
0100
,
1000
1000
0001
0001
,
0100
0010
0100
0010
1000
0001
1000
0001
,
2000
0000
0000
0000
,
3100
0010
0001
0010
0100
0000
0000
0000
,
1000
0010
0001
0010
1000
0000
0000
0000
,
0110
0000
0000
0000
,
1001
0000
0000
0000
;

//---------------dance-single - ----------------
#NOTEDATA:;
#CHARTNAME:;
#STEPSTYPE:dance-single;
#DESCRIPTION:;
#CHARTSTYLE:;
#DIFFICULTY:Easy;
#METER:4;
#RADARVALUES:0.343177,0.410525,0.102953,0.085794,0.000000,258.000000,12.000000,10.000000,0.000000,0.000000,0.000000,0.000000,0.000000,0.343177,0.410525,0.102953,0.085794,0.000000,258.000000,12.000000,10.000000,0.000000,0.000000,0.000000,0.000000,0.000000;
#CREDIT:;
#NOTES:
0000
0000
0000
0000
,
0000
0000
0000
0000
,
0000
0000
0000
0000
,
0000
0000
0000
0000
,
0000
0000
0000
0000
,
0000
0000
0000
0000
,
0000
0000
0000
0000
,
0000
0000
0000
0000
,
1000
0100
1000
0100
,
0010
0001
0010
0001
,
0100
0010
0100
0010
,
1000
0010
1000
0010
,
0100
0001
0100
0001
,
0010
0100
0010
0100
,
1000
0001
1000
0001
,
0100
0000
0020
0000
,
1030
0000
0100
0000
1000
0000
0100
0010
,
0100
1000
0001
0100
,
0010
0000
1000
0000
0010
0000
1000
0100
,
1000
0000
0001
0000
0010
0100
0010
0000
,
0100
0000
1000
0000
0100
0000
1000
0001
,
1000
0010
0100
0001
,
0010
0100
0010
0001
,
1000
0000
1001
0001
,
1000
0000
0010
0000
1000
0000
0010
0100
,
0010
1000
0001
0100
,
0010
0000
1000
0000
0010
0100
0010
0000
,
0100
0001
0010
0100
,
1000
0000
0001
0000
1000
0000
0001
0010
,
0001
0100
0010
1000
,
0200
0000
0000
0000
,
0310
0000
0000
0001
,
1001
0000
0000
0000
,
0000
0000
0000
0000
,
1000
0000
0000
0000
,
0000
0000
0000
0000
,
0010
0000
0000
0000
,
0000
0000
0000
0000
,
0001
0000
0000
0000
,
0000
0000
0000
0000
,
0010
0000
0100
0001
,
0010
0100
1000
0001
,
1001
0000
1000
0100
,
0010
0001
0100
0010
,
1010
0000
1000
0001
,
0010
0100
1000
0001
,
0011
0000
0010
0100
,
1000
0010
0100
0001
,
1001
0000
0000
0000
,
0000
0000
0000
0000
,
0000
0000
0000
0000
,
0000
0000
0000
0000
,
1001
0001
0100
0010
,
0100
0100
0001
1000
,
0010
0010
0100
0001
,
1000
1000
0100
0100
,
0010
0010
0001
1000
,
0100
0100
0010
0001
,
0100
0100
0010
0010
,
2000
0000
0000
0000
,
3001
0001
1000
0010
,
0100
0100
0001
1000
,
0010
0010
0100
0001
,
1000
1000
0100
0010
,
0002
0000
1003
0100
,
0020
0000
0130
1000
,
0002
0000
0000
0023
0000
0000
0230
0000
,
2300
0000
0000
0000
,
3001
0000
0010
0100
0010
0000
0100
0000
,
1000
0000
0001
0000
0100
0000
0010
1000
,
0010
0100
0001
0010
,
0100
0000
1000
0000
0001
0100
0001
0100
,
0001
0010
0100
1000
,
0010
0100
0001
1000
,
0001
0000
1001
0000
0000
0110
0000
0000
,
1010
0000
0000
0000
,
1000
0000
0001
0100
0000
0010
0000
0000
,
1000
0000
0100
0010
0000
0001
0000
0000
,
1010
0000
1000
0000
0100
0010
0100
0010
,
0100
1000
0001
0010
,
0100
1000
0100
0010
,
0100
1000
0001
1000
,
0100
0010
0001
0010
,
0200
0000
0000
0000
,
1300
0001
1000
0001
1000
0000
0000
0000
,
0010
0100
0010
0100
0010
0000
0000
0000
,
1000
0000
0000
0000
,
1001
0000
0000
0000
;
