#TITLE:Der Wald;
#SUBTITLE:(kors k Remix);
#ARTIST:エレハモニカ remixed by kors k;
#TITLETRANSLIT:;
#SUBTITLETRANSLIT:;
#ARTISTTRANSLIT:Eleharmonica remixed by kors k;
#GENRE:;
#CREDIT:;
#BANNER:banner.png;
#BACKGROUND:bg.png;
#LYRICSPATH:;
#CDTITLE:;
#MUSIC:13 Der Wald(kors k Remix).mp3;
#OFFSET:-0.880000;
#SAMPLESTART:58.179924;
#SAMPLELENGTH:13.300000;
#SELECTABLE:YES;
#BPMS:0.000000=85.000000
,32.000000=170.000000
,160.000000=85.000000
,192.000000=170.000000
;
#STOPS:
;
#BGCHANGES:;
#KEYSOUNDS:;
#ATTACKS:;

//---------------dance-single - ----------------
#NOTES:
     dance-single:
     :
     Hard:
     9:
     0.621765,0.757454,0.344662,0.384739,0.320616,452.000000,43.000000,48.000000,0.000000,0.000000,0.000000,0.621765,0.757454,0.344662,0.384739,0.320616,452.000000,43.000000,48.000000,0.000000,0.000000,0.000000:
// measure 0
0000
0000
0000
0000
,  // measure 1
0000
0000
0000
0000
,  // measure 2
2001
0000
0100
0100
0000
0001
3001
0000
,  // measure 3
1002
0000
0100
0100
0000
1000
1003
0000
,  // measure 4
0001
0100
1000
0100
0010
0100
0001
1000
,  // measure 5
0100
0000
0001
0000
0100
0000
0100
0000
1000
0000
0001
0000
0100
0001
1000
0001
,  // measure 6
1000
0100
0001
0100
0010
0100
1000
0001
,  // measure 7
0100
0000
1000
0000
0100
0000
0100
0000
0001
0000
1000
0000
0100
1000
0001
1000
,  // measure 8
0001
0000
0010
0001
1000
0000
2001
0000
,  // measure 9
0100
3020
0001
0100
,  // measure 10
1030
0100
0001
0100
1000
0000
0001
0100
,  // measure 11
0010
0000
1000
0100
0010
0000
0110
0000
,  // measure 12
1001
0000
0010
1000
0001
0000
1002
0000
,  // measure 13
0100
0023
1000
0100
,  // measure 14
0031
0100
1000
0100
0001
0000
1000
0100
,  // measure 15
0010
0000
0001
0100
0010
0000
0110
0000
,  // measure 16
1002
0100
2003
0010
,  // measure 17
3200
0001
0010
1300
,  // measure 18
2001
0100
3002
0010
,  // measure 19
0203
1000
0010
0301
,  // measure 20
1000
0100
0010
0001
1000
0100
0010
0001
,  // measure 21
1000
0100
0010
0001
1000
0100
0010
0001
,  // measure 22
1000
0001
1000
0001
1000
0001
1000
0001
1000
0001
1000
0001
1000
0001
1000
0001
,  // measure 23
1000
0000
0000
0000
,  // measure 24
1002
0000
0100
0000
0010
0010
0013
0000
,  // measure 25
1001
0000
1000
0100
0001
0000
1000
0010
,  // measure 26
0001
0100
1000
0100
0001
0100
1000
0100
,  // measure 27
0002
0010
2003
0100
,  // measure 28
3020
0000
0100
0100
0230
0000
1000
0000
,  // measure 29
0010
0000
0001
0001
0301
0000
1000
0100
,  // measure 30
0020
1000
0032
0100
,  // measure 31
2003
0000
0010
0010
3010
0000
0110
0000
,  // measure 32
2001
0000
0100
0000
0010
0010
3010
0000
,  // measure 33
1001
0000
0001
0100
1000
0000
0001
0010
,  // measure 34
1000
0100
0001
0100
1000
0100
0001
0100
,  // measure 35
2000
0010
3002
0100
,  // measure 36
0023
0000
0100
0100
0230
0000
0001
0000
,  // measure 37
0010
0000
1000
1000
1300
0000
0001
0100
,  // measure 38
0020
0001
2030
0100
,  // measure 39
3002
0000
0010
0010
0013
0000
0110
0000
,  // measure 40
1001
0000
1000
0001
0200
0000
1000
1000
0000
0001
0301
1000
0100
0000
0110
0000
,  // measure 41
1001
0000
0001
0100
0010
0000
0010
0100
0001
1000
0001
1000
0100
0001
0100
0000
,  // measure 42
1001
0000
0001
0100
0020
0000
0001
0001
0000
1000
1030
0001
0010
0000
0110
0000
,  // measure 43
2001
0000
0100
0000
3002
0000
0100
0000
1003
0100
0001
0100
0010
0100
1000
0000
,  // measure 44
1001
0000
0001
1000
0200
0000
0001
0001
0000
1000
1300
0001
0100
0000
0110
0000
,  // measure 45
1001
0000
1000
0100
0010
0000
0010
0100
1000
0001
1000
0001
0100
1000
0100
0000
,  // measure 46
1001
0000
1000
0100
0020
0000
1000
1000
0000
0001
0031
1000
0010
0000
0110
0000
,  // measure 47
1002
0000
0100
0000
2003
0000
0100
0000
3001
0100
1000
0100
0010
0100
0001
0000
,  // measure 48
1000
0000
0000
1000
0000
0000
0001
0000
0000
0100
0000
0000
0010
0000
0100
0000
,  // measure 49
0001
0000
1000
0001
0000
0000
0001
0000
0000
0001
1000
0000
0100
0000
0010
0000
,  // measure 50
0100
0000
1000
0001
1000
0000
0010
0000
1000
0001
1000
0000
0100
0000
0010
0000
,  // measure 51
0100
0000
1000
0001
0000
0001
0100
0000
0001
1000
0000
1000
0100
0000
1000
0000
,  // measure 52
0002
0000
0000
0100
0000
0000
2003
0000
0000
0100
0000
0000
3001
0000
1000
0000
,  // measure 53
0020
0000
0000
0001
0000
0000
0100
0000
0000
0100
0000
0000
1030
0000
0001
0000
,  // measure 54
0020
0000
0000
1000
0000
0000
0230
0000
0000
0001
0000
0000
1300
0000
0001
0000
,  // measure 55
0200
0000
0000
1000
0000
0000
0010
0000
0000
0010
0000
0000
0301
0000
1000
0000
,  // measure 56
0001
0000
0000
0001
0000
0000
1000
0000
0000
0100
0000
0000
0010
0000
0100
0000
,  // measure 57
1000
0000
0001
1000
0000
0000
1000
0000
0000
1000
0001
0000
0100
0000
0010
0000
,  // measure 58
0100
0000
0001
1000
0001
0000
0010
0000
0001
1000
0001
0000
0100
0000
0010
0000
,  // measure 59
0100
0000
0001
1000
0000
1000
0100
0000
1000
0001
0000
0001
0100
0000
0001
0000
,  // measure 60
2000
0000
0000
0100
0000
0000
3002
0000
0000
0100
0000
0000
1003
0000
0100
0000
,  // measure 61
0020
0000
0000
1000
0000
0000
0100
0000
0000
0100
0000
0000
0031
0000
1000
0000
,  // measure 62
0020
0000
0000
0001
0000
0000
0230
0000
0000
1000
0000
0000
0301
0000
1000
0000
,  // measure 63
0200
0000
0000
0001
0000
0000
0010
0000
0000
0010
0000
0000
1300
0000
0001
0000
,  // measure 64
1000
0000
1010
1000
1001
0000
0011
0001
,  // measure 65
1001
0000
1001
1001
1001
0000
0110
0000
,  // measure 66
1001
0000
0011
0001
1001
0000
1010
1000
,  // measure 67
1001
0000
1001
1001
1001
0000
0000
0000
;

//---------------dance-single - ----------------
#NOTES:
     dance-single:
     :
     Medium:
     7:
     0.549627,0.703350,0.384739,0.456877,0.112215,375.000000,48.000000,57.000000,0.000000,0.000000,0.000000,0.549627,0.703350,0.384739,0.456877,0.112215,375.000000,48.000000,57.000000,0.000000,0.000000,0.000000:
0000
0000
0000
0000
,
0000
0000
0000
0000
,
1002
0000
0100
0100
0000
1000
1003
0000
,
2001
0000
0100
0100
0000
0001
3001
0000
,
1000
0001
1000
0001
0100
1000
0100
0001
,
1000
0100
1000
0100
0001
0100
1000
0000
,
0001
1000
0001
1000
0100
0001
0100
1000
,
0001
0100
0001
0100
1000
0100
0001
0000
,
2001
0000
0100
0100
3100
0000
1002
0000
,
0100
0023
1000
0100
,
0032
0100
2003
0010
,
3200
0001
0010
1300
,
1002
0000
0100
0100
0103
0000
2001
0000
,
0100
3020
0001
0100
,
2030
0100
3002
0010
,
0203
1000
0010
0301
,
2001
0100
3002
0010
,
0203
1000
0010
0301
,
1002
0100
2003
0010
,
3200
0001
0010
1300
,
0001
1000
0001
1000
0001
1000
0001
0000
,
1000
0001
1000
0001
1000
0001
1000
0000
,
2001
0000
0000
0000
,
3001
0000
0000
0000
,
2001
0000
0100
0000
0010
0010
3010
0000
,
1001
0000
0001
0100
1000
0000
0001
0010
,
1000
0100
0010
0000
0100
0010
0001
0000
,
2001
0100
3002
0100
,
0023
1000
0230
0001
,
0010
0000
1000
1000
1300
0000
0001
0100
,
0020
0001
2030
0100
,
3002
0000
0010
0010
0013
0000
0110
0000
,
1002
0000
0100
0000
0010
0010
0013
0000
,
1001
0000
1000
0100
0001
0000
1000
0010
,
0001
0100
0010
0000
0100
0010
1000
0000
,
1002
0100
2003
0100
,
3020
0001
0230
1000
,
0010
0000
0001
0001
0301
0000
1000
0100
,
0020
1000
0032
0100
,
2003
0000
0010
0010
3010
0000
0110
0000
,
1001
0000
1000
0100
0020
0000
1000
1000
0000
0001
0031
0000
1001
0000
0110
0000
,
1002
0100
0023
1000
0230
0001
0010
1300
,
1001
0000
0001
0100
0020
0000
0001
0001
0000
1000
1030
0000
1001
0000
0110
0000
,
2001
0100
3020
0001
0230
1000
0010
0301
,
1001
0000
0001
0100
0020
0000
0001
0001
0000
1000
1030
0000
1001
0000
0110
0000
,
2001
0100
3020
0001
0230
1000
0010
0301
,
1001
0000
1000
0100
0020
0000
1000
1000
0000
0001
0031
0000
1001
0000
0110
0000
,
1002
0100
0023
1000
0230
0001
0010
1300
,
0001
0000
0000
0001
0000
0000
1000
0000
0000
0100
0000
0000
0010
0000
0100
0000
,
1000
0000
0000
1000
0000
0000
0001
0000
0000
0100
0000
0000
0010
0000
0100
0000
,
0001
0000
0000
0010
0000
0000
0100
0000
0000
0100
0000
0000
1000
0000
0001
0000
,
1000
0000
0000
0010
0000
0000
0100
0000
0000
0100
0000
0000
0001
0000
1000
0000
,
0001
0100
1000
0200
0000
0001
0301
0000
,
1000
0001
1000
0001
0000
1001
1001
0000
,
1000
0100
0001
0200
0000
1000
1300
0000
,
0001
1000
0001
1000
0000
1001
1001
0000
,
1000
0000
0000
1000
0000
0000
0001
0000
0000
0100
0000
0000
0010
0000
0100
0000
,
0001
0000
0000
0001
0000
0000
1000
0000
0000
0100
0000
0000
0010
0000
0100
0000
,
1000
0000
0000
0010
0000
0000
0100
0000
0000
0100
0000
0000
0001
0000
1000
0000
,
0001
0000
0000
0010
0000
0000
0100
0000
0000
0100
0000
0000
1000
0000
0001
0000
,
1000
0100
0001
0200
0000
1000
1300
0000
,
0001
1000
0001
1000
0000
1001
1001
0000
,
0001
0100
1000
0200
0000
0001
0301
0000
,
1000
0001
1000
0001
0000
1001
1001
0000
,
1001
0000
1000
1000
1000
0000
0001
0001
,
0001
0000
1001
1000
1001
0000
0110
0000
,
1001
0000
0001
0001
0001
0000
1000
1000
,
1000
0000
1001
0001
1001
0000
0000
0000
;

//---------------dance-single - ----------------
#NOTES:
     dance-single:
     :
     Easy:
     5:
     0.480923,0.513987,0.336646,0.617185,0.000000,301.000000,42.000000,77.000000,0.000000,0.000000,0.000000,0.480923,0.513987,0.336646,0.617185,0.000000,301.000000,42.000000,77.000000,0.000000,0.000000,0.000000:
0000
0000
0000
0000
,
0000
0000
0000
0000
,
2001
0000
0100
0100
0000
0001
3001
0000
,
1002
0000
0100
0100
0000
1000
1003
0000
,
1002
0100
0023
1000
,
0230
0001
0010
1300
,
2001
0100
3020
0001
,
0230
1000
0010
0301
,
1002
0000
0100
0100
0103
0000
2001
0000
,
0100
3020
0001
0100
,
2030
0100
3002
0010
,
0203
1000
0010
0301
,
2001
0000
0100
0100
3100
0000
1002
0000
,
0100
0023
1000
0100
,
0032
0100
2003
0010
,
3200
0001
0010
1300
,
1002
0100
2003
0010
,
3200
0001
0010
1300
,
2001
0100
3002
0010
,
0203
1000
0010
0301
,
1000
0100
0010
0001
,
1000
0100
0010
0001
,
1002
0000
0000
0000
,
1003
0000
0000
0000
,
1002
0100
0023
1000
,
0230
0001
0010
2300
,
0001
0001
0001
3001
,
1002
0100
2003
0100
,
3020
0001
0230
1000
,
0010
0000
0001
0001
0301
0000
2001
0000
,
0100
3020
0001
0230
,
1000
0301
1001
0110
,
2001
0100
3020
0001
,
0230
1000
0010
0302
,
1000
1000
1000
1003
,
2001
0100
3002
0100
,
0023
1000
0230
0001
,
0010
0000
1000
1000
1300
0000
1002
0000
,
0100
0023
1000
0230
,
0001
1300
1001
0110
,
1002
0000
0100
0000
1000
1000
1003
0000
,
2001
0100
3002
0010
0203
1000
0010
0301
,
2001
0000
0100
0000
0001
0001
3001
0000
,
1002
0100
2003
0010
3200
0001
0010
1300
,
1002
0000
0100
0000
1000
1000
1003
0000
,
2001
0100
3002
0010
0203
1000
0010
0301
,
2001
0000
0100
0000
0001
0001
3001
0000
,
1002
0100
2003
0010
3200
0001
0010
1300
,
0001
0100
1000
0000
0110
0000
0001
0000
,
1000
0100
0001
0000
0110
0000
1000
0000
,
0001
0100
1000
0000
1000
0100
0001
0000
,
1000
0100
0001
0000
0001
0100
1000
0000
,
1002
0100
0023
1000
,
0230
0001
0010
1300
,
2001
0100
3020
0001
,
0230
1000
0010
0301
,
1000
0100
0001
0000
0110
0000
1000
0000
,
0001
0100
1000
0000
0110
0000
0001
0000
,
1000
0100
0001
0000
0001
0100
1000
0000
,
0001
0100
1000
0000
1000
0100
0001
0000
,
2001
0100
3020
0001
,
0230
1000
0010
0301
,
2001
0100
3020
0001
,
0230
1000
0010
0301
,
1001
0000
1000
1000
1000
0000
0001
0001
,
0001
0000
1000
1000
1001
0000
0110
0000
,
1001
0000
0001
0001
0001
0000
1000
1000
,
1000
0000
0001
0001
1001
0000
0000
0000
;
