#VERSION:0.83;
#TITLE:Daisy;
#SUBTITLE:;
#ARTIST:ZEDD;
#TITLETRANSLIT:;
#SUBTITLETRANSLIT:;
#ARTISTTRANSLIT:;
#GENRE:;
#ORIGIN:;
#CREDIT:;
#BANNER:[Mother Nature] - Daisy.png;
#BACKGROUND:;
#PREVIEWVID:;
#JACKET:[Mother Nature] - Daisy-jacket.png;
#CDIMAGE:;
#DISCIMAGE:;
#LYRICSPATH:;
#CDTITLE:;
#MUSIC:[Mother Nature] - Daisy.ogg;
#OFFSET:0.000000;
#SAMPLESTART:59.994999;
#SAMPLELENGTH:15.000000;
#SELECTABLE:YES;
#BPMS:0.000=112.000;
#STOPS:;
#DELAYS:;
#WARPS:;
#TIMESIGNATURES:0.000=4=4;
#TICKCOUNTS:0.000=4;
#COMBOS:0.000=1;
#SPEEDS:0.000=1.000=0.000=0;
#SCROLLS:0.000=1.000;
#FAKES:;
#LABELS:0.000=Song Start;
#BGCHANGES:;
#KEYSOUNDS:;
#ATTACKS:
;

//---------------dance-single - ----------------
#NOTEDATA:;
#CHARTNAME:;
#STEPSTYPE:dance-single;
#DESCRIPTION:;
#CHARTSTYLE:;
#DIFFICULTY:Hard;
#METER:8;
#RADARVALUES:0.339944,0.449296,0.199687,0.316171,0.091523,286.000000,262.000000,24.000000,38.000000,0.000000,0.000000,0.000000,0.000000,0.000000,0.339944,0.449296,0.199687,0.316171,0.091523,286.000000,262.000000,24.000000,38.000000,0.000000,0.000000,0.000000,0.000000,0.000000;
#CREDIT:;
#NOTES:
// measure 0
0000
0000
0000
0000
,  // measure 1
0000
0000
0000
0000
,  // measure 2
0002
0000
0200
0000
,  // measure 3
0303
0000
0100
0010
1000
0001
0010
0100
,  // measure 4
2000
0000
0200
0000
,  // measure 5
3300
0000
0010
0001
0100
0010
1000
0100
,  // measure 6
0020
0000
0000
0000
0002
0000
0000
0030
,  // measure 7
0203
0000
0000
0000
0000
0000
0000
0000
0320
0000
0000
0000
0000
0000
1030
0002
,  // measure 8
0000
2000
0000
0000
0000
0000
3003
0000
,  // measure 9
1000
0001
0100
0000
0010
0000
1000
0000
0100
0000
0010
0000
0002
0000
0000
0000
,  // measure 10
1003
0100
1000
0100
1000
0010
0100
0001
,  // measure 11
0010
0001
0010
0001
0010
0100
0010
0100
,  // measure 12
1000
0010
1000
0010
1000
0100
0010
0001
,  // measure 13
0100
0001
0100
0001
0100
0010
0100
0010
,  // measure 14
0100
0001
0100
0010
1000
0001
0100
0010
,  // measure 15
1000
0000
0100
0000
0010
0000
0001
0000
1000
0000
0100
0000
0010
0000
0001
0020
,  // measure 16
0000
0200
0000
0000
0000
0000
0330
0000
,  // measure 17
2000
3020
0230
0302
,  // measure 18
2003
0000
3002
0000
,  // measure 19
0103
0010
1000
0001
,  // measure 20
0200
0000
0320
0000
,  // measure 21
1030
0100
0010
0001
,  // measure 22
2000
0000
0001
3001
,  // measure 23
0002
0000
0100
0100
,  // measure 24
0203
0000
0000
0000
,  // measure 25
0320
0000
0000
0000
,  // measure 26
2030
0000
0000
0000
,  // measure 27
3002
0000
0000
0003
,  // measure 28
1100
0000
1001
0000
0100
0001
0010
0100
,  // measure 29
1000
0000
0000
1000
0100
0000
0000
0100
0010
0000
0000
0010
0001
0000
0010
0000
,  // measure 30
0011
0000
1001
0000
0001
0100
0010
1000
,  // measure 31
1010
0000
0000
0000
1100
0000
0000
0000
0101
0000
0000
0000
0011
0000
0010
0100
,  // measure 32
0010
0000
0001
0000
0100
0000
0010
0000
1000
0010
0000
0000
1000
0010
0000
0000
,  // measure 33
0100
0000
0010
0000
1000
0000
0100
0010
0100
0000
0010
0000
0001
0000
0100
0000
,  // measure 34
0110
0000
1000
0001
1001
0000
0001
0100
,  // measure 35
0020
2030
3100
1100
,  // measure 36
2000
3002
0013
0011
,  // measure 37
0001
1000
1010
0000
1100
1000
0001
0000
,  // measure 38
0001
0000
0000
0001
0010
0000
0000
0010
0100
0000
0000
0100
1000
0000
0100
0000
,  // measure 39
0010
0001
0101
0000
0011
0000
0100
1000
,  // measure 40
0001
0000
0000
1000
0100
0000
0000
0001
0010
0000
0000
0000
1000
0000
0100
0010
,  // measure 41
0001
0000
0100
0000
0010
0000
1000
0000
0100
1000
0000
0000
0100
1000
0000
0000
,  // measure 42
0100
0000
0010
0000
0001
0000
0100
0010
0100
0000
0001
0000
0010
0000
0100
0000
,  // measure 43
0110
0000
0001
1000
1001
0000
0100
0010
,  // measure 44
0002
0023
0130
1100
,  // measure 45
2000
3020
0130
0101
,  // measure 46
0001
0100
0010
0100
0001
0010
0100
1000
,  // measure 47
0020
0000
0230
0000
,  // measure 48
0310
1000
0100
0010
0100
1000
0010
0100
,  // measure 49
0110
1001
0011
1100
,  // measure 50
0100
0000
0010
0000
0001
0000
0010
0000
0100
0010
0000
0000
0100
0010
0000
0000
,  // measure 51
0100
0000
0000
0000
0001
0000
0010
0100
0010
0000
0100
0000
1000
0000
0001
0000
,  // measure 52
0200
0000
0000
0000
,  // measure 53
0000
0000
0000
0000
,  // measure 54
0300
0000
0000
0000
;

//---------------dance-single - ----------------
#NOTEDATA:;
#CHARTNAME:;
#STEPSTYPE:dance-single;
#DESCRIPTION:;
#CHARTSTYLE:;
#DIFFICULTY:Medium;
#METER:5;
#RADARVALUES:0.236534,0.359437,0.133125,0.224648,0.000000,199.000000,183.000000,16.000000,27.000000,0.000000,0.000000,0.000000,0.000000,0.000000,0.236534,0.359437,0.133125,0.224648,0.000000,199.000000,183.000000,16.000000,27.000000,0.000000,0.000000,0.000000,0.000000,0.000000;
#CREDIT:;
#NOTES:
0000
0000
0000
0000
,
0000
0000
0000
0000
,
0002
0000
0203
0000
,
0300
0000
0010
1000
0010
0000
0100
0001
,
0200
0000
0320
0000
,
0030
0000
1000
0001
1000
0000
0001
0100
,
0020
0000
0230
0000
,
0302
0000
2003
0000
,
3000
0000
0000
0000
,
0001
0000
1000
0000
,
0010
0010
0010
0010
,
0100
0100
0100
0100
,
0001
0001
0001
0001
,
1000
1000
1000
1000
,
0010
0000
0010
0100
0010
0000
0010
0000
,
0100
0000
0100
0010
0100
0000
0100
0000
,
1001
0000
0000
0000
,
1000
0000
0001
0000
,
0002
0000
2003
0000
,
3010
0100
0001
1000
,
0020
0000
0230
0000
,
0301
0010
0100
1000
,
0020
0000
0000
0000
,
0230
0000
0000
0000
,
0302
0000
0000
0000
,
1003
0000
1000
0000
,
0010
0000
0010
0000
,
0200
0000
0300
1001
,
0100
0000
0010
0100
0010
0000
1000
0000
,
0200
0320
0032
2003
,
3010
0000
0100
0001
0100
0000
0010
0000
,
1001
1001
0110
0110
,
0010
0000
0100
0001
0100
0001
0100
0001
,
0010
0000
0100
1000
0100
1000
0100
1000
,
0001
0100
0010
1000
,
0100
0100
0010
0010
,
0001
0001
1000
1000
,
0001
0000
0010
0100
0010
0000
0100
0000
,
2000
3200
0320
0032
,
0103
0000
0010
1000
0010
0000
1000
0000
,
1100
1100
0101
0101
,
0001
0000
0010
0000
0100
1000
0001
0000
,
0100
0000
0010
0000
0100
0001
1000
0000
,
0100
0010
0001
0100
,
0010
0010
0100
0110
,
1000
1000
0001
1001
,
0001
0000
0100
0010
1000
0000
0100
0000
,
0020
0000
0032
0000
,
1003
0000
0100
0010
0001
0000
0100
0000
,
0110
0110
1001
1001
,
0001
0000
0100
0000
0010
1000
0010
1000
,
0100
0000
0010
0000
0001
0010
0001
0010
,
0200
0000
0000
0000
,
0000
0000
0000
0000
,
0300
0000
0000
0000
;

//---------------dance-single - ----------------
#NOTEDATA:;
#CHARTNAME:;
#STEPSTYPE:dance-single;
#DESCRIPTION:;
#CHARTSTYLE:;
#DIFFICULTY:Easy;
#METER:3;
#RADARVALUES:0.199687,0.336972,0.133125,0.299531,0.000000,168.000000,152.000000,16.000000,36.000000,0.000000,0.000000,0.000000,0.000000,0.000000,0.199687,0.336972,0.133125,0.299531,0.000000,168.000000,152.000000,16.000000,36.000000,0.000000,0.000000,0.000000,0.000000,0.000000;
#CREDIT:;
#NOTES:
0000
0000
0000
0000
,
0000
0000
0000
0000
,
2000
0000
3002
0000
,
0103
0100
0010
0010
,
0002
0000
2003
0000
,
3010
0010
0100
0100
,
0020
0000
0230
0000
,
0301
0001
1000
1000
,
0010
0000
0010
0000
,
0001
0001
1000
1000
,
0010
0000
0010
0010
,
0100
0000
0100
0100
,
0001
0000
0001
0001
,
1000
0000
1000
1000
,
0020
0000
0230
0000
,
0302
0000
2003
0000
,
3100
0000
0000
0000
,
1000
1000
0010
0010
,
0200
0000
0302
0000
,
0023
0000
0000
0000
,
0230
0000
2300
0000
,
3020
0000
0000
0000
,
0130
0000
0100
0100
,
0010
0000
0010
0010
,
1000
0000
1000
1000
,
0002
0000
1003
1000
,
2000
0000
3010
0010
,
0220
0000
0330
0110
,
2001
0100
3100
0000
,
0001
0100
0010
0010
,
1002
0010
0013
0000
,
1000
0010
0100
0100
,
0002
0000
1000
1003
,
2000
0000
0001
3001
,
0200
0300
0100
0000
0020
0030
0010
0000
,
1000
0100
0010
0110
,
0001
0010
0100
0110
,
1000
1000
0010
0010
,
0200
0300
0100
0000
0002
0003
0001
0000
,
0010
0010
0100
0100
,
1000
1001
0001
1001
,
0002
0000
0100
0103
,
2000
0000
0010
3010
,
0200
0000
0000
0000
,
0310
1000
0010
1000
,
0001
0100
0001
0100
,
0010
0110
1000
1001
,
0002
0000
2003
0000
,
3100
0110
0001
1001
,
0101
0101
1100
1100
,
2000
0000
3010
0100
,
0002
0000
0103
0010
,
0200
0000
0000
0000
,
0000
0000
0000
0000
,
0300
0000
0000
0000
;
