#TITLE:Clover;
#SUBTITLE:;
#ARTIST:Est;
#TITLETRANSLIT:;
#SUBTITLETRANSLIT:;
#ARTISTTRANSLIT:;
#GENRE:;
#CREDIT:;
#BANNER:[Mother Nature] - Clover.png;
#BACKGROUND:[Mother Nature] - Clover-bg.png;
#LYRICSPATH:;
#CDTITLE:;
#MUSIC:[Mother Nature] - Clover.mp3;
#OFFSET:-8.746000;
#SAMPLESTART:70.459290;
#SAMPLELENGTH:13.714287;
#SELECTABLE:YES;
#BPMS:0.000000=140.000000
;
#STOPS:
;
#BGCHANGES:;
#KEYSOUNDS:;
#ATTACKS:;

//---------------dance-single - ----------------
#NOTES:
     dance-single:
     :
     Hard:
     7:
     0.371084,0.393148,0.035102,0.217635,0.122859,334.000000,5.000000,31.000000,0.000000,0.000000,0.000000,0.371084,0.393148,0.035102,0.217635,0.122859,334.000000,5.000000,31.000000,0.000000,0.000000,0.000000:
0000
0000
0000
0001
0000
0001
0000
0001
,
0000
0000
0000
0000
0000
0010
0000
0010
,
0000
0000
0000
0001
0000
0001
0000
0001
,
0000
0000
0000
0000
0000
0010
0000
0010
,
0100
1000
0100
1000
,
0010
1000
0010
1000
,
0010
0100
0010
0100
,
0001
0100
0001
0100
,
0001
0000
1000
0000
0001
0100
0001
0000
,
0100
0000
0010
0000
1000
0010
0100
0001
,
1000
0000
0100
0000
1000
0010
1000
0000
,
0010
0000
0100
0000
0010
1000
0001
0010
,
0100
0000
0010
0000
0001
1000
0001
0000
,
0100
0000
0010
0000
0100
0010
1000
0001
,
1000
0000
0001
0000
0100
0010
0100
0000
,
0010
0000
0100
0000
0010
0100
0001
1000
,
0001
0000
1000
0000
0010
1000
0100
0000
,
0010
0000
0001
0000
0010
0001
0100
0010
,
1000
0000
0001
0000
0100
0010
1000
0000
,
1001
0000
0000
0000
0001
1000
0001
1000
,
0002
0000
0000
0000
,
0203
0000
0302
0000
,
2003
0000
0000
0000
0000
0000
3001
0010
,
0200
0000
0000
0000
,
0320
0000
0000
0230
,
0320
0032
2003
3020
,
2030
0000
0000
0000
,
3002
0000
2003
3020
,
0230
0301
0020
0130
,
2000
3001
0200
0301
,
0020
0130
2000
3001
,
0020
0130
0020
0031
,
2000
0001
0000
0001
,
0000
0001
3002
2003
,
3020
0100
0000
0100
,
0230
0000
0000
0300
,
0001
0000
0000
0010
0000
0000
0001
0000
1000
0000
0000
0100
0000
0000
1000
0000
,
0001
0000
0000
0100
0000
0000
0001
0000
1000
0000
0000
0001
0000
0000
1000
0000
,
0010
0000
0000
0100
0000
0000
0010
0000
1000
0000
0000
0001
0000
0000
0010
0000
,
0100
0000
0000
0010
0000
0000
0100
0000
1000
0000
0000
0010
0000
0000
0100
0000
,
0001
0000
0000
0010
0000
0000
0100
0000
1000
0000
0000
0010
0000
0000
0100
0000
,
0001
0000
0000
1000
0000
0000
0001
0000
0100
0000
0000
0010
0000
0000
0100
0000
,
0010
0000
0000
1000
0000
0000
0100
0000
1000
0000
0000
0001
0000
0000
0010
0000
,
0001
0000
0000
0100
0000
0000
0010
0000
2000
0000
0000
0000
3002
0000
0000
0000
,
0013
0000
0000
0100
0000
0000
1000
0000
0001
0000
0000
0001
0000
0000
0100
0000
,
0001
0000
0000
0010
0000
0000
0100
0000
1000
0000
0000
1000
0000
0000
0100
0000
,
1000
0000
0000
0010
0000
0000
0100
0000
0001
0000
0000
0001
0000
0000
0010
0000
,
0100
0000
0000
0010
0000
0000
0001
0000
1000
0000
0000
1000
0000
0000
0001
0000
,
1000
0000
0000
0010
0000
0000
0100
0000
0001
0000
0000
0010
0000
0000
0100
0000
,
1000
0000
0000
0001
0000
0000
1000
0000
0010
0000
0000
0100
0000
0000
0010
0000
,
1000
0000
0000
0100
0000
0000
0010
0000
0001
0000
0000
0100
0000
0000
0010
0000
,
1000
0000
0000
0000
0001
1000
0100
0010
,
0001
1010
1000
0011
,
0001
0100
0010
0100
0001
1000
0100
0010
,
0001
1100
1000
0101
,
0001
0010
0100
1000
0001
0010
0100
0010
,
0001
0000
1000
0010
1000
0000
0001
0000
,
1000
0100
0001
0100
,
1000
0001
0100
0001
0010
0100
1000
0001
,
1000
0100
0010
0100
1000
0001
1000
0100
,
0000
0000
1000
0001
0000
0000
0001
1000
0000
0000
1000
0001
0000
0000
1000
0000
,
0100
1000
0010
0100
0001
0010
0001
1000
,
0000
0000
0001
1000
0000
0000
1000
0001
0000
0000
0001
1000
0000
0000
1000
0000
,
0010
0100
0001
0010
0001
1000
0100
1000
,
0001
1000
0100
0010
0001
1000
0100
1000
,
0010
0000
0000
0000
0100
0010
1000
0001
,
1000
0100
0010
0001
1000
0100
0010
0100
,
1000
0000
0000
0000
0001
0010
0100
1000
,
0020
0000
0000
0000
,
0000
0000
0000
0000
,
0030
0000
0000
0000
;

//---------------dance-single - ----------------
#NOTES:
     dance-single:
     :
     Medium:
     5:
     0.282826,0.344004,0.189553,0.154451,0.000000,233.000000,27.000000,22.000000,0.000000,0.000000,0.000000,0.282826,0.344004,0.189553,0.154451,0.000000,233.000000,27.000000,22.000000,0.000000,0.000000,0.000000:
0000
0000
0000
0001
0000
0001
0000
0000
,
0000
0000
0000
0000
0000
1000
0000
1000
,
0000
0000
0000
0001
0000
0001
0000
0000
,
0000
0000
0000
0000
0000
1000
0000
1000
,
0001
0100
0001
0100
,
0001
0100
0001
0100
,
0010
1000
0010
1000
,
0010
1000
0010
1000
,
0001
1000
0010
0010
,
1000
0000
0001
0000
0100
0001
0100
0000
,
0001
1000
0100
0100
,
1000
0000
0001
0000
0100
0010
1000
0000
,
0100
1000
0010
0010
,
0100
0000
0001
0000
0010
0100
1000
0000
,
0100
1000
0001
0001
,
0100
0000
0010
0000
1000
0001
1000
0000
,
0001
1000
0001
0001
,
0010
0000
0001
0000
0100
0010
0100
0000
,
0010
1000
0100
1000
,
0010
0000
0100
0001
,
2001
0000
0000
3000
,
0002
0003
2000
3000
,
0020
0000
0000
0000
0000
0000
0130
0001
,
2000
0000
0000
0000
,
3002
0000
0000
0103
,
0010
0100
0001
1000
,
0002
0000
0000
0000
,
2003
0000
3010
1000
,
0200
0300
2000
3000
,
0020
0030
0200
0300
,
0002
0003
2000
3000
,
0002
0003
2000
3000
,
0200
0000
0000
0000
,
0000
0000
0310
0001
,
2000
0000
0000
0000
,
0002
0000
0000
3003
,
1001
0001
0100
0001
,
0011
0010
0110
0100
,
1100
0000
0100
0000
1000
0000
0001
1000
,
0200
0000
0000
0300
,
1100
1000
0010
1010
,
1100
1001
0101
1010
,
1001
0001
1000
0010
,
1010
0010
0110
0101
,
1001
0001
1001
1000
,
1100
0100
0110
0010
,
0011
0001
1001
1000
,
1010
0010
0110
0100
,
0101
0001
0100
0010
,
1000
0001
1100
0101
,
2001
0000
0000
0000
,
3001
0000
0000
0000
1000
0100
0010
0001
,
1000
0000
0001
0000
0010
0001
0010
0000
,
0100
0000
1000
0000
0010
1000
0010
0000
,
0100
0000
0010
0000
1000
0001
1000
0000
,
0001
0000
0100
0000
0010
1000
0010
0000
,
1000
0010
1000
0001
,
0010
0100
0010
0001
,
1000
0001
0010
0100
,
1000
0010
0100
0001
,
0000
1000
0000
0001
0000
0100
0000
0010
,
1000
0100
0010
0001
,
0000
0010
0000
0001
0000
0100
0000
0010
,
1000
0001
0010
0001
,
0100
0010
1000
0001
,
0010
0000
0001
1000
,
0001
0010
0100
1000
,
0001
0000
1000
0100
,
0020
0000
0000
0000
,
0000
0000
0000
0000
,
0030
0000
0000
0000
;

//---------------dance-single - ----------------
#NOTES:
     dance-single:
     :
     Easy:
     2:
     0.180527,0.196574,0.014041,0.217635,0.000000,147.000000,2.000000,31.000000,0.000000,0.000000,0.000000,0.180527,0.196574,0.014041,0.217635,0.000000,147.000000,2.000000,31.000000,0.000000,0.000000,0.000000:
0000
0000
0000
0000
,
0000
0000
0000
0000
,
0000
0000
0000
0000
,
0000
0000
0000
0000
,
1000
0000
0001
0000
,
0100
0000
0001
0000
,
1000
0000
0100
0000
,
1000
0000
0010
0000
,
0100
0000
0001
1000
,
0001
0000
0100
0010
,
0100
0000
0001
1000
,
0001
0000
1000
0010
,
0100
0000
0001
0010
,
0001
0000
0010
0100
,
1000
0000
0100
0010
,
0100
0000
0010
0001
,
1000
0000
0100
1000
,
0100
0000
1000
0100
,
0010
0000
0100
0010
,
0100
0000
1000
0000
,
0002
0000
0000
0000
,
1003
0000
0001
0000
,
0100
0000
0000
0001
,
1000
0000
0000
0000
,
0010
0000
0000
1000
,
0010
0100
0001
1000
,
0001
0000
0000
0000
,
0010
0000
0001
1000
,
0002
0003
2000
3000
,
0020
0030
2000
3000
,
0020
0030
0200
0300
,
0002
0003
2000
3000
,
0020
0000
0000
0000
,
0000
0000
0130
0001
,
2000
0000
0000
0000
,
3001
0000
0000
0000
,
1002
0000
0000
0000
,
0203
0000
0302
0000
,
0023
0000
0000
0031
,
2000
0000
0000
0000
,
3002
0000
0000
1003
,
0010
0100
0001
1000
,
0002
0000
0000
0000
,
2003
0000
3010
1000
,
0200
0300
2000
3000
,
0020
0030
0200
0300
,
0002
0003
2000
3000
,
0002
0003
0200
0300
,
0002
0000
0000
0000
,
0000
0000
1003
0001
,
0020
0000
0000
0000
,
0130
0000
0000
0000
,
0010
0001
0010
0000
,
0001
1000
0001
0000
,
1000
0100
1000
0000
,
0100
0010
0100
0000
,
0010
0000
0000
0001
,
0010
0100
0010
0001
,
1000
0000
0001
0000
,
0100
0000
0001
0100
,
0010
0000
1000
0000
,
0001
0000
1000
0000
,
0100
0000
1000
0000
,
0010
0000
0100
0000
,
0001
0010
0100
1000
,
0010
0000
0100
0010
,
1000
0100
0010
0001
,
1000
0000
0001
1000
,
0220
0000
0000
0000
,
0000
0000
0000
0000
,
0330
0000
0000
0000
;

//---------------dance-single - ----------------
#NOTES:
     dance-single:
     :
     Beginner:
     1:
     0.086252,0.095479,0.035102,0.000000,0.000000,81.000000,5.000000,0.000000,0.000000,0.000000,0.000000,0.086252,0.095479,0.035102,0.000000,0.000000,81.000000,5.000000,0.000000,0.000000,0.000000,0.000000:
// measure 0
0000
0000
0000
0000
,  // measure 1
0000
0000
0000
0000
,  // measure 2
0000
0000
0000
0000
,  // measure 3
0000
0000
0000
0000
,  // measure 4
1000
0000
0000
0000
,  // measure 5
0000
0000
0000
0000
,  // measure 6
0001
0000
0000
0000
,  // measure 7
0000
0000
0000
0000
,  // measure 8
0100
0000
0000
0000
,  // measure 9
0010
0000
0000
0000
,  // measure 10
1000
0000
0000
0000
,  // measure 11
0001
0000
0000
0000
,  // measure 12
0000
0000
1000
1000
,  // measure 13
0000
0000
0001
0001
,  // measure 14
0000
0000
1000
1000
,  // measure 15
0000
0000
0010
0010
,  // measure 16
0000
0000
0100
0100
,  // measure 17
0000
0000
0010
0010
,  // measure 18
0000
0000
1000
1000
,  // measure 19
0000
0000
0001
0000
,  // measure 20
1001
0000
0000
0000
,  // measure 21
0000
0000
0000
0000
,  // measure 22
0000
0000
0000
0000
,  // measure 23
0000
0000
0000
0000
,  // measure 24
1000
0000
0000
0000
,  // measure 25
0010
0000
0000
0000
,  // measure 26
0100
0000
0000
0000
,  // measure 27
0100
0000
0000
0000
,  // measure 28
1001
0000
0000
0000
,  // measure 29
0001
0000
0000
0000
,  // measure 30
0100
0000
0000
0000
,  // measure 31
0010
0000
0000
0000
,  // measure 32
1000
0000
0000
0000
,  // measure 33
0000
0000
1000
0000
,  // measure 34
0010
0000
0000
0000
,  // measure 35
0000
0000
0000
0000
,  // measure 36
1001
0000
0000
0000
,  // measure 37
0001
0000
0001
0000
,  // measure 38
1000
0000
0000
0010
,  // measure 39
0010
0000
0000
0000
,  // measure 40
0100
0000
0000
0000
,  // measure 41
0010
0000
0100
0000
,  // measure 42
0001
0000
0000
0000
,  // measure 43
0001
0000
1000
0000
,  // measure 44
0010
0000
0000
0000
,  // measure 45
0100
0000
0000
0000
,  // measure 46
0001
0000
0000
0000
,  // measure 47
1000
0000
0000
0000
,  // measure 48
0100
0000
0000
0000
,  // measure 49
0000
0000
1000
1000
,  // measure 50
0010
0000
0000
0000
,  // measure 51
0100
0000
0000
0000
,  // measure 52
1001
0000
0000
0000
,  // measure 53
0001
0000
1000
0000
,  // measure 54
1000
0000
0000
0100
,  // measure 55
0100
0000
0000
0000
,  // measure 56
1000
0000
0000
0010
,  // measure 57
0010
0000
0100
0000
,  // measure 58
0001
0000
0000
0000
,  // measure 59
1000
0000
0001
0001
,  // measure 60
0001
0000
1000
0000
,  // measure 61
0001
0000
0100
0000
,  // measure 62
0001
0000
1000
0000
,  // measure 63
0010
0000
1000
0000
,  // measure 64
1000
0000
0000
0000
,  // measure 65
0000
0000
1000
0001
,  // measure 66
1000
0000
0000
0000
,  // measure 67
0000
0000
0000
0000
,  // measure 68
1001
0000
0000
0000
;
