#TITLE:After the Rain;
#SUBTITLE:;
#ARTIST:Neuropa;
#TITLETRANSLIT:;
#SUBTITLETRANSLIT:;
#ARTISTTRANSLIT:;
#GENRE:;
#CREDIT:;
#BANNER:banner.png;
#BACKGROUND:After the Rain-bg.png;
#LYRICSPATH:;
#CDTITLE:;
#MUSIC:After the Rain.ogg;
#OFFSET:-0.417583;
#SAMPLESTART:75.882584;
#SAMPLELENGTH:12.000000;
#SELECTABLE:YES;
#BPMS:0.000000=140.000000
;
#STOPS:
;
#BGCHANGES:;
#KEYSOUNDS:;
#ATTACKS:;

//---------------dance-single - ----------------
#NOTES:
     dance-single:
     :
     Beginner:
     1:
     0.118663,0.139853,0.000000,0.000000,0.000000,98.000000,0.000000,0.000000,0.000000,0.000000,0.000000,0.118663,0.139853,0.000000,0.000000,0.000000,98.000000,0.000000,0.000000,0.000000,0.000000,0.000000:
0000
0000
0000
0000
,
0000
0000
0000
0000
,
0000
0000
0000
0000
,
0000
0000
0000
0000
,
1000
0000
1000
0000
,
0001
0000
0001
0000
,
0100
0000
0100
0000
,
0010
0000
0010
0000
,
1000
0000
1000
0000
,
0100
0000
0100
0000
,
0010
0000
0010
0000
,
0001
0000
0001
0000
,
0000
1000
0000
1000
,
0000
1000
1000
1000
,
0000
0001
0000
0001
,
0000
0001
0001
0001
,
0000
0100
0000
0100
,
0000
0100
0100
0100
,
0000
0010
0000
0010
,
0000
0010
0010
0000
,
1000
0000
0000
0000
,
0001
0000
0000
0000
,
0010
0000
0010
0000
,
0010
0000
0000
0000
,
0001
0000
0000
0000
,
1000
0000
0000
0000
,
0100
0000
0100
0000
,
0100
0000
0000
0000
,
1000
0000
0000
0000
,
0001
0000
0000
0000
,
0100
0000
0100
0000
,
0100
0000
0000
0000
,
0001
0000
0000
0000
,
1000
0000
0000
0000
,
0010
0000
0000
0000
,
0000
0000
0000
0000
,
1000
0000
1000
0000
,
0100
0000
0100
0000
,
0010
0000
0010
0000
,
0001
0000
0000
0000
,
1000
0000
1000
0000
,
0010
0000
0010
0000
,
0100
0000
0100
0000
,
0001
0000
0000
0000
,
1000
0000
0000
0000
,
0100
0000
0000
0000
,
0010
0000
0010
0000
,
0010
0000
0000
0000
,
0001
0000
0000
0000
,
0100
0000
0000
0000
,
0010
0000
0010
0000
,
0010
0000
0000
0000
,
1000
0000
0000
0000
,
0001
0000
0000
0000
,
0010
0000
0000
0000
,
0000
0000
0000
0000
,
0100
0000
0000
0000
,
0000
0000
0000
0000
,
1000
0000
1000
0000
,
0001
0000
0001
0000
,
0100
0000
0100
0000
,
0010
0000
0010
0000
,
1000
0000
1000
0000
,
0100
0000
0100
0000
,
0010
0000
0010
0000
,
0001
0000
0001
0000
,
1000
0000
0000
0000
;

//---------------dance-single - ----------------
#NOTES:
     dance-single:
     :
     Easy:
     3:
     0.185260,0.195794,0.016952,0.000000,0.000000,151.000000,2.000000,0.000000,0.000000,0.000000,0.000000,0.185260,0.195794,0.016952,0.000000,0.000000,151.000000,2.000000,0.000000,0.000000,0.000000,0.000000:
0000
0000
0000
0000
,
0000
0000
0000
0000
,
0000
0000
0000
0000
,
0000
0000
0000
0000
,
1000
0000
0001
0000
,
0100
0000
0010
0000
,
1000
0000
0100
0000
,
0010
0001
0100
0000
,
0001
0000
1000
0000
,
0010
0000
0100
0000
,
0001
0000
0010
0000
,
0100
1000
0010
0000
,
0000
1000
0001
0000
,
0100
0010
0100
0001
,
0000
0010
0100
0000
,
0010
0100
1000
0001
,
0000
1000
0010
0000
,
0100
0001
0010
0001
,
0000
1000
0010
0000
,
0100
0001
0010
0100
,
1000
0000
1000
0000
,
0001
0100
0001
0000
,
0010
0001
0100
0010
,
1000
0000
0000
0000
,
0001
0000
1000
0000
,
0100
1000
0010
0000
,
0100
0001
0010
0100
,
1000
0000
0000
0000
,
0001
0000
1000
0000
,
0010
0100
0001
0000
,
0010
0100
0010
0001
,
0100
0000
0000
0000
,
0010
0000
0100
0000
,
0001
0010
0100
0000
,
1000
0000
0000
0000
,
0000
0000
0000
0000
,
0001
1000
0001
0000
,
0100
0010
0100
0000
,
0001
0000
0001
0000
,
0001
0000
0000
0000
,
0001
0010
0001
0000
,
1000
0100
1000
0000
,
0010
0000
0010
0000
,
0010
0000
0000
0000
,
0100
0000
0001
0000
,
0100
0000
0000
0000
,
0001
0100
0010
1000
,
0100
0010
0001
0000
,
1000
0000
0100
0000
,
1000
0000
0000
0000
,
0010
1000
0010
0100
,
0001
0010
0100
0000
,
1000
0000
1000
0000
,
0001
0000
0000
0000
,
1000
0010
0100
0000
,
0001
0000
0000
0000
,
1001
0000
0000
0000
,
0000
0000
0000
0000
,
1000
0100
1000
0000
,
0001
0010
0001
0000
,
0100
0010
0100
0000
,
0010
0010
1000
0100
,
0010
0100
1000
0000
,
0001
0100
0010
0000
,
0100
0001
0010
0000
,
0100
0100
0010
0001
,
1001
0000
0000
0000
;

//---------------dance-single - ----------------
#NOTES:
     dance-single:
     :
     Medium:
     5:
     0.248224,0.288182,0.016952,0.110187,0.000000,190.000000,2.000000,13.000000,0.000000,0.000000,0.000000,0.248224,0.288182,0.016952,0.110187,0.000000,190.000000,2.000000,13.000000,0.000000,0.000000,0.000000:
0000
0000
0000
0000
,
0000
0000
0000
0000
,
0000
0000
0000
0000
,
0000
0000
0000
0000
,
1000
0000
0000
0001
0000
0000
0100
0000
,
0010
0000
0000
1000
0000
0000
0100
0000
,
0010
0000
0000
0001
0000
0000
0100
0000
,
0010
0100
0100
0001
,
0010
0000
0000
0100
0000
0000
1000
0000
,
0001
0000
0000
0100
0000
0000
0010
0000
,
0100
0000
0000
0001
0000
0000
0010
0000
,
0100
0100
1000
0001
,
0000
0000
1000
0000
0000
0010
0000
0100
,
0000
0001
0000
0000
0010
0000
0100
0000
,
0000
0000
0010
0000
0000
0001
0000
0100
,
0000
0010
1000
0001
,
0000
0000
0010
0000
0000
0100
0000
1000
,
0000
0010
0000
0000
0100
0000
0001
0000
,
0000
0000
0010
0000
0000
0001
0000
1000
,
0000
0010
0100
0001
,
1001
0000
1000
0000
,
1000
0001
0100
0000
,
0001
0001
0010
0001
,
0100
0000
0000
0010
,
1000
0000
0100
0000
,
0010
0100
1000
0000
,
0010
0100
0001
0010
,
0100
0000
0000
0010
,
0001
0000
0100
0000
,
0010
0100
0001
0000
,
0010
0100
1000
0100
,
0001
0000
0000
0100
,
1000
0000
0001
0000
,
0100
0010
0100
0000
,
0001
0010
1000
0010
,
0002
0000
0000
0003
,
1000
0000
0001
0000
0100
0010
0000
0200
,
0000
0000
0001
0301
0000
0000
0000
0001
,
0020
0000
0130
0000
2000
0000
0001
0002
,
0000
0000
0000
3003
,
1000
0000
0010
0000
0100
0001
0000
0020
,
0000
0000
0100
0200
0000
0330
0000
0100
,
1000
0000
0010
0000
0100
0002
0000
2000
,
0000
0000
0000
3003
,
1000
0000
0000
0000
0100
0000
0010
0001
,
0000
0000
0001
0000
0100
0000
0000
0010
,
0100
0001
0010
0100
,
1000
0000
1000
0001
0000
0000
0000
0000
,
1000
0000
0010
0000
0100
0000
0001
0010
,
0000
0000
0100
0000
1000
0000
0000
0010
,
0100
0000
0001
0000
0010
0000
0100
1000
,
0000
0001
0000
0001
0000
0000
0000
0000
,
1000
0000
0000
0010
0000
0100
0000
0001
,
0000
0000
0001
0000
0010
0000
0000
0010
,
0100
0000
0100
1000
0000
1000
0000
0000
,
0002
0000
0000
1000
0000
1000
0000
0000
,
2000
0000
0000
0000
,
0000
0000
0000
3003
,
1000
0000
0000
0100
0000
0000
0010
0000
,
0001
0000
0000
0100
0000
0000
0010
0000
,
0100
0000
0000
0001
0000
0000
0010
0000
,
0100
1000
0001
1000
,
0010
0000
0000
0100
0000
0000
0001
0000
,
0010
0000
0000
0100
0000
0000
1000
0000
,
0001
0000
0000
0100
0000
0000
0010
0000
,
0100
0001
0010
0100
,
2002
0000
0000
0000
,
0000
0000
0000
0000
,
3003
0000
0000
0000
;

//---------------dance-single - ----------------
#NOTES:
     dance-single:
     :
     Hard:
     7:
     0.456490,0.461091,0.330562,0.339038,0.000000,298.000000,39.000000,40.000000,0.000000,0.000000,0.000000,0.456490,0.461091,0.330562,0.339038,0.000000,298.000000,39.000000,40.000000,0.000000,0.000000,0.000000:
0000
0000
0000
0000
,
0000
0000
0000
0000
,
0000
0000
0000
0000
,
0000
0000
0000
0000
,
1000
0100
0010
0000
0011
0000
0001
0100
,
0010
0100
0001
0000
1001
0000
1000
0010
,
0100
0010
1000
0000
1010
0000
0010
0100
,
0002
0000
0010
0000
2003
0001
3001
0000
,
1000
0100
0010
0000
0011
0000
0001
0100
,
0010
0100
0001
0000
1001
0000
1000
0100
,
0010
0100
1000
0000
1100
0000
1000
0010
,
0200
0000
1000
0000
0302
1000
1003
0000
,
1000
0100
0010
0000
0010
0001
0000
0101
,
0000
0110
0000
0010
1000
0100
0010
0000
,
0010
0100
1000
0000
1000
0001
0000
0101
,
0000
0001
1000
0000
1000
0100
0010
0100
,
0000
0100
1000
0000
1000
0010
0000
0110
,
0000
0101
0000
0001
0010
0100
1000
0000
,
1000
0100
0001
0000
0001
0100
0000
1100
,
0000
1000
0010
0000
0010
0100
0001
0000
,
0102
0000
0000
2000
0003
0000
3010
0200
,
0000
1000
0000
0302
0000
0000
0013
0000
,
0200
0000
0001
0000
2300
0000
0001
0002
,
0000
0000
3003
0001
,
0102
0000
0000
1003
0000
0000
1000
0200
,
0000
0320
0000
0031
0000
0000
0100
0000
,
0010
0000
0100
0000
0002
1000
0000
2000
,
0000
0000
3003
1000
,
2100
0000
0000
3001
0000
0000
0100
0020
,
0000
0100
0000
2030
0000
0000
3001
0000
,
0020
0000
0100
0000
0032
1000
0000
2000
,
0000
0000
3003
1000
,
0020
0000
0000
0130
0000
0000
0001
0020
,
0000
0230
0000
1300
0000
0000
0100
0000
,
2000
0000
0001
0000
0010
0010
0000
0002
,
0000
0000
0000
3003
,
1000
0000
0001
0000
0101
0000
0001
0100
,
0010
0100
0001
0000
1001
0000
1000
0100
,
0010
0000
0100
0000
1100
0000
1000
0010
,
0100
0010
1000
0000
1010
0000
0010
0100
,
0001
0000
0010
0000
0011
0000
0001
0010
,
0001
0100
0010
0000
0110
0000
0010
1000
,
0100
0000
0010
0000
0110
0000
0010
0100
,
1000
0010
0100
0000
2002
0000
3003
0000
,
1001
0001
0100
0000
0010
0000
0100
0001
,
0000
0001
0010
0000
0110
0000
0000
0100
,
1000
0010
0100
0000
0101
0000
0001
1000
,
0100
0110
1100
0000
,
0001
0000
1000
0000
1010
0000
0010
0100
,
0000
0100
0001
0000
0011
0000
0000
0001
,
0100
0000
0010
0000
0110
0000
0010
2000
,
0000
0001
0000
0002
0000
0000
3003
0000
,
1100
0000
1000
0001
0000
0100
0000
0010
,
1000
0000
0001
0000
1000
0000
0000
0100
,
1000
0000
0010
0100
0000
0002
0000
0000
,
2003
0000
0000
3200
0000
0310
0000
0010
,
0001
1000
0001
1000
0001
1000
0001
1000
,
0010
0100
0010
0100
0010
0100
0010
0100
,
0001
0010
0100
0000
1100
0000
1000
0010
,
0100
0010
1000
0000
0101
0000
0001
0010
,
0100
0010
0001
0000
1001
0000
0001
0100
,
0020
0000
0100
0000
2030
0001
3001
0000
,
0001
0010
0100
0000
1100
0000
1000
0010
,
0100
0001
0100
0000
0101
0000
0001
0010
,
0100
0010
0001
0000
0011
0000
0001
0100
,
0020
0000
0001
0000
2030
0001
3001
0000
,
2002
0000
0000
0000
,
0000
0000
0000
0000
,
3003
0000
0000
0000
;
