#TITLE:THE RACE IS OVER;
#SUBTITLE:;
#ARTIST:Dave Rodgers;
#TITLETRANSLIT:;
#SUBTITLETRANSLIT:;
#ARTISTTRANSLIT:;
#CREDIT:;
#BANNER:;
#BACKGROUND:;
#LYRICSPATH:;
#CDTITLE:;
#MUSIC:[Last Song] - The Race is Over.ogg;
#OFFSET:0.000;
#SAMPLESTART:43.345;
#SAMPLELENGTH:12.403;
#SELECTABLE:YES;
#BPMS:0.000=154.100;
#STOPS:;
#BGCHANGES:0.000=[Last Song] - The Race is Over.avi=1.000=0=0=0,
99999=-nosongbg-=1.000=0=0=0 // don't automatically add -songbackground-
;

//---------------dance-single - ----------------
#NOTES:
     dance-single:
     :
     Hard:
     9:
     0.654,0.732,0.466,0.249,0.238:
0000
0000
0000
0000
,
0000
0000
0000
0000
,
1010
0000
0001
0100
0101
0000
0100
0010
,
2002
0000
0000
0000
0000
0000
0000
0000
3003
0000
0000
0000
0000
0000
0000
0000
0000
0000
0000
0000
0000
0000
0000
1000
0001
0000
0000
0000
0100
0000
0000
0000
,
0110
0000
0000
0000
0001
0010
0001
0010
0100
0000
0000
0000
1000
0100
1000
0100
,
0010
0000
0001
1000
0010
0100
0010
0000
,
1001
0000
0000
0000
1000
0100
1000
0100
0010
0000
0000
0000
0001
0010
0001
0010
,
0100
0000
0000
0000
1000
0010
0100
0000
0010
0000
1000
0000
0001
0000
0000
0000
,
0011
0000
0000
0000
0001
0010
0001
0010
0100
0000
0000
0000
1000
0100
1000
0100
,
0010
0000
0001
1000
0010
0100
0010
0000
,
1000
0010
1000
0010
1000
0010
1000
0010
0100
0000
0000
0000
0001
0100
0001
0100
,
0010
0000
0010
1000
1001
0000
0110
0000
,
0001
0010
0001
0020
0000
0130
0000
1000
,
0010
0100
0010
2000
0000
3001
0000
0010
,
0100
0010
0000
0110
0000
1001
0000
0100
,
0010
1000
0001
0010
0100
0000
1001
0000
,
0001
1000
0100
0020
0000
0130
0000
1100
,
0100
0010
0000
0011
0000
1001
0000
0001
,
0100
0010
1000
0001
0000
0010
0000
0010
,
0100
1000
0100
1000
0010
0000
1001
0000
,
0002
0000
0000
0003
,
2000
0000
0000
0000
0000
0000
3000
0100
,
0010
0100
1000
0001
0000
1001
0000
0110
,
0000
0010
0000
0010
0000
0010
0000
0100
,
0110
0010
0000
1000
0000
1001
0000
0010
,
0110
0100
0000
0100
0000
1000
0001
0010
,
0000
0110
0000
0200
0000
0300
0000
0010
,
0110
0010
0000
2002
0000
3003
0000
0010
,
0100
0000
1100
0000
1000
0100
0010
0001
,
0000
0001
1000
0001
0010
0100
0010
0000
,
0001
0100
0001
0100
0010
1000
0010
1000
,
0100
0010
0001
0100
0010
0000
1001
0100
,
0010
0000
1001
0000
1000
0100
0010
0000
,
0001
0100
0010
1000
0000
1001
0000
0001
,
0010
0001
1000
0010
0000
0110
0000
0100
,
0000
1001
0000
0010
0100
0000
1001
0100
,
0010
0000
0011
0000
0001
0010
0100
1000
,
0000
0001
0100
0010
1000
0001
1000
0000
,
1000
0100
1000
0100
0010
0001
0010
0001
,
1000
0010
0100
0001
1000
0000
1001
0010
,
0100
0000
0110
0000
1000
0010
0100
0000
,
0001
0100
0010
1000
0000
1001
0000
0000
,
1000
0001
0100
0010
0000
1001
0000
0000
,
0220
0000
0330
2002
0000
3003
0000
0000
,
0001
0100
0001
0100
0020
0000
0030
0000
1000
0100
1000
0100
0020
0000
0030
0100
,
1000
0000
0100
0000
0010
0000
0200
0000
0000
0000
0300
0000
0000
0000
0000
0010
,
0001
0100
0010
0100
0001
0010
0001
1000
,
0010
0100
0001
0002
0000
0003
1000
1000
,
0100
0010
0001
1000
0010
1000
0001
0010
,
1000
0001
0100
1000
0010
0100
0001
1000
,
0100
0010
0001
1000
0010
0100
0001
1000
,
0220
0000
0330
2002
0000
3003
0000
0000
,
1001
0000
0000
0000
0001
0010
0001
0010
0100
0000
0000
0000
1000
0100
1000
0100
,
0010
0000
0001
1000
0010
0100
0001
1000
,
1100
0000
0000
0000
1000
0100
1000
0100
0010
0000
0000
0000
0001
0010
0001
0010
,
0100
0000
0000
0000
1000
0001
0100
0000
0010
0000
0100
0000
0010
0000
0000
0000
,
1010
0000
0000
0000
1000
0010
1000
0010
0100
0000
0000
0000
0001
0100
0001
0100
,
0010
0000
1000
0001
0010
0100
1000
0000
,
0001
0100
0001
0100
0001
0100
0001
0100
0010
0000
0000
0000
1000
0100
1000
0100
,
0010
0000
0000
0000
0001
1000
0001
0000
0101
0000
0000
0000
1010
0000
0000
0000
,
2002
0000
0000
0000
,
0000
0000
3003
0000
;

//---------------dance-single - ----------------
#NOTES:
     dance-single:
     :
     Medium:
     6:
     0.499,0.509,0.331,0.114,0.000: // measure 1
0000
0000
0000
0000
,  // measure 2
0000
0000
0000
0000
,  // measure 3
1000
0100
1000
0000
0001
0100
0001
0000
,  // measure 4
2002
0000
0000
3003
,  // measure 5
1001
0000
0010
0010
0010
0000
0100
0100
,  // measure 6
0100
0000
0010
0100
0010
0000
1001
0000
,  // measure 7
1001
0000
1000
1000
1000
0000
0001
0001
,  // measure 8
0001
0000
0010
0100
0010
0000
1001
0000
,  // measure 9
0011
0000
0001
0010
0001
0000
1000
0100
,  // measure 10
1000
0000
0010
0100
0010
0000
0110
0000
,  // measure 11
0010
0010
0010
0010
0100
0000
0010
1000
,  // measure 12
0001
0000
0001
1000
0100
0000
0110
0000
,  // measure 13
0010
0001
0000
1001
0000
0100
0000
0010
,  // measure 14
0000
0010
0000
0100
0000
0100
0000
0010
,  // measure 15
1000
0001
0000
1000
0000
1000
0000
0001
,  // measure 16
0001
0010
0100
1000
,  // measure 17
0001
0100
0001
0100
0000
0010
0000
1000
,  // measure 18
0000
1000
0000
0001
0000
0001
0000
1000
,  // measure 19
0100
0010
0000
0010
0000
0100
0000
0100
,  // measure 20
1000
0001
1000
0001
1000
0000
1001
0000
,  // measure 21
0220
0000
0000
0330
,  // measure 22
2002
0000
0000
3003
,  // measure 23
1000
0100
0001
0100
,  // measure 24
0020
0000
0000
0030
,  // measure 25
0100
0001
1000
0001
,  // measure 26
0010
0010
0100
0100
,  // measure 27
0010
0001
1000
0001
,  // measure 28
1000
0001
0000
1001
0000
0000
0000
0000
,  // measure 29
0010
0000
0100
0000
0010
0100
0010
0000
,  // measure 30
1000
0001
1000
0000
1001
0000
0100
0000
,  // measure 31
0010
1000
0010
0000
0100
0001
0100
0000
,  // measure 32
0001
1000
0100
0000
0010
0001
1000
0000
,  // measure 33
1001
0000
0110
0000
0001
1000
0100
0000
,  // measure 34
0010
0001
1000
0100
0000
1001
0000
0000
,  // measure 35
0010
0100
0010
1000
0000
0001
0000
1001
,  // measure 36
0000
0110
0000
0010
0100
0000
0110
0000
,  // measure 37
1000
0001
1000
0000
0001
0100
0001
0000
,  // measure 38
1000
0100
0010
0000
0001
0010
0100
0000
,  // measure 39
1000
0100
1000
0000
0001
0100
0010
0000
,  // measure 40
0100
0010
0100
0000
0110
0000
1001
0000
,  // measure 41
1000
0010
1000
0000
0001
0100
0001
0000
,  // measure 42
1000
0100
0010
0001
0000
1001
0000
0000
,  // measure 43
0010
0100
0000
1000
0000
0001
0000
0000
,  // measure 44
1001
0000
0000
0220
0000
0330
0000
0000
,  // measure 45
0010
1000
0010
0000
0100
0001
0100
0000
,  // measure 46
0001
0010
0100
1000
0000
0001
0001
0000
,  // measure 47
1000
0100
1000
0001
0100
0001
1000
0100
,  // measure 48
1000
0010
0100
0010
1000
0000
0001
0000
,  // measure 49
1000
0100
1000
0010
0100
0001
1000
0010
,  // measure 50
0100
0001
1000
0100
0010
0001
1000
0000
,  // measure 51
0001
0010
0100
1000
0001
0100
0001
1000
,  // measure 52
0010
0000
0000
1001
0000
0000
0000
0000
,  // measure 53
0110
0000
1000
1000
1000
0000
0001
0001
,  // measure 54
0001
0000
1000
0100
0010
0001
1000
0000
,  // measure 55
1001
0000
0001
0001
0001
0000
1000
1000
,  // measure 56
1000
0000
0010
0100
0010
0000
1001
0000
,  // measure 57
0110
0000
1000
0100
1000
0000
0001
0100
,  // measure 58
0010
0000
0100
0001
1000
0100
0010
0000
,  // measure 59
0001
0010
0100
1000
0100
0000
0100
0010
,  // measure 60
0001
0000
1000
0001
1000
0000
0110
0000
,  // measure 61
2002
0000
0000
0000
,  // measure 62
0000
0000
3003
0000
;

//---------------dance-single - ----------------
#NOTES:
     dance-single:
     :
     Easy:
     5:
     0.379,0.414,0.249,0.155,0.000:
0000
0000
0000
0000
,
0000
0000
0000
0000
,
1000
0100
0001
0100
,
2002
0000
0000
3003
,
1001
0000
0001
0000
0100
0000
0010
0010
,
0010
1000
0001
1000
,
1001
0000
1000
0000
0100
0000
0010
0010
,
0010
0001
0010
0100
,
1001
0000
0001
0000
0100
0000
0010
0010
,
0010
0100
0001
1000
,
0010
0010
0010
0000
0100
0000
0010
0010
,
0010
0100
0110
1001
,
1000
0100
0001
0100
,
1000
0010
0100
0001
,
1000
1000
0001
0001
,
0010
0010
0100
0110
,
1000
0100
0001
0100
,
1000
0100
0010
0100
,
0001
0010
0100
1000
,
0001
0001
1000
1000
,
0020
0000
0000
0030
,
0200
0000
0000
0300
,
0001
0000
0001
0000
,
1000
0000
1000
0000
,
0010
0000
0010
0000
,
0100
0000
0100
0000
,
0010
0010
0100
0100
,
0110
1001
0110
0000
,
1000
0100
0001
0100
,
0010
0010
0100
0100
,
0002
0003
2000
3000
,
0010
1000
1001
0110
,
0001
0100
1000
0100
,
0001
0010
0100
1000
,
0001
0001
1000
1000
,
0010
0110
0100
1001
,
1000
0100
0001
0100
,
0010
0100
0001
1000
,
2000
0000
0000
3000
0002
0000
0003
0000
,
0010
0010
0100
0100
,
0110
1001
1000
0100
,
0010
0010
0001
0001
,
0010
0100
1000
0001
,
0110
0000
0000
2002
0000
3003
0000
0000
,
0010
0100
0001
1000
,
0001
0000
0010
0020
0000
0030
0000
0000
,
0100
1000
0010
0001
,
0010
1000
0200
0300
,
0010
0010
0100
0100
,
0010
0010
0100
0100
,
0001
1000
0001
0000
1000
0001
1000
0000
,
0110
0000
0000
2002
0000
3003
0000
0000
,
0010
0000
1000
0000
0100
0000
0010
0010
,
0010
0001
1000
0010
,
0110
0000
0001
0000
1000
0000
0100
0100
,
0100
0010
0001
0010
,
1100
0000
1000
0000
0100
0000
0010
0010
,
0010
0001
0010
0100
,
1000
0001
1000
0000
0010
0000
0100
0010
,
0100
0010
0110
1001
,
0020
0000
0000
0000
,
0000
0000
0030
0000
;

//---------------dance-single - ----------------
#NOTES:
     dance-single:
     :
     Beginner:
     2:
     0.207,0.764,0.031,0.114,0.078:
0000
0000
0000
0000
,
0000
0000
0000
0000
,
0000
0000
0000
0000
,
0000
0000
0000
0000
,
0010
0000
0000
0000
,
0100
0000
0000
0000
,
0010
0000
0000
0000
,
1000
0000
0000
0000
,
0001
0000
0000
0000
,
0010
0000
0000
0000
,
0100
0000
0100
0000
,
0010
0000
0010
0000
,
0100
0000
0000
0000
,
0100
0000
0000
0000
,
1000
0000
1000
0000
,
0001
0000
0001
0000
,
0010
0000
0000
0000
,
0100
0000
0000
0000
,
1000
0000
1000
0000
,
0001
0000
0001
0000
,
0020
0000
0000
0030
,
0200
0000
0000
0300
,
2000
0000
0000
3000
,
0002
0000
0000
0003
,
0100
0000
0100
0000
,
0010
0000
0010
0000
,
1000
0000
1000
0000
,
0001
0000
0001
0000
,
0010
0000
0100
0000
,
0010
0000
0100
0000
,
2000
0000
0000
3000
,
0002
0000
0000
0003
,
1000
0000
0001
0000
,
1000
0000
0001
0000
,
0100
0000
0010
0000
,
0100
0000
0100
0000
,
0010
0000
0100
0000
,
1000
0000
0100
0000
,
0020
0000
0000
0030
,
0200
0000
0000
0300
,
1000
0000
0001
0000
,
1000
0000
0010
0000
,
0100
0000
0100
0000
,
0010
0000
0010
0000
,
1000
0000
1000
0000
,
0001
0000
0001
0000
,
1000
0000
1000
0000
,
0001
0000
0001
0000
,
0001
0010
0100
1000
0001
0100
0010
1000
0010
0001
0010
0100
1000
0100
1000
0000
,
0010
0100
0001
0020
0000
0030
0000
0000
,
0010
0000
0010
0000
,
0100
0000
0000
0100
0000
0000
0000
0000
,
0010
0000
0010
0000
,
1000
0000
1000
0000
,
0001
0000
0001
0000
,
0010
0000
0010
0000
,
0100
0000
0100
0000
,
1000
0000
1000
0000
,
0001
0010
0001
0010
0100
1000
0100
1000
0010
0000
0000
0000
0100
0010
1000
0001
,
1000
0000
0000
0000
0001
0010
0100
1000
0110
0000
0000
0000
1001
0000
0000
0000
,
0220
0000
0000
0000
,
0000
0000
0330
0000
;
