#VERSION:0.83;
#TITLE:煉獄のエルフェリア;
#SUBTITLE:;
#ARTIST:猫叉Master+;
#TITLETRANSLIT:Rengoku no Elferia;
#SUBTITLETRANSLIT:;
#ARTISTTRANSLIT:Nekomata Master+;
#GENRE:;
#ORIGIN:;
#CREDIT:;
#BANNER:[Last Song] - Rengoku no Elferia.png;
#BACKGROUND:[Last Song] - Rengoku no Elferia-bg.png;
#PREVIEWVID:;
#JACKET:[Last Song] - Rengoku no Elferia-jacket.png;
#CDIMAGE:;
#DISCIMAGE:;
#LYRICSPATH:;
#CDTITLE:;
#MUSIC:Rengoku no Elferia.mp3;
#OFFSET:-1.819001;
#SAMPLESTART:47.701878;
#SAMPLELENGTH:13.197781;
#SELECTABLE:YES;
#BPMS:0.000=183.000,
68.000=91.500,
68.500=183.000,
70.000=366.000,
74.000=183.000,
164.000=91.500,
167.000=183.000,
169.000=91.500,
171.000=366.000,
307.000=45.750,
315.000=91.500,
331.000=183.000,
356.000=91.500,
357.833=366.000,
362.833=45.750;
#STOPS:68.500=0.055,
68.667=0.055,
68.833=0.055,
69.000=0.055,
69.167=0.055,
69.333=0.055,
69.500=0.055,
69.667=0.055,
69.833=0.055,
140.000=0.164,
140.500=0.164,
142.000=0.164,
142.500=0.164,
146.000=0.164,
146.500=0.164,
148.000=0.164,
148.500=0.164,
152.000=0.164,
152.500=0.164,
154.000=0.164,
154.500=0.164,
158.000=0.164,
158.500=0.164,
160.000=0.164,
160.500=0.164,
331.000=0.164,
331.500=0.164,
333.000=0.164,
333.500=0.164,
337.000=0.164,
337.500=0.164,
339.000=0.164,
339.500=0.164,
343.000=0.164,
343.500=0.164,
345.000=0.164,
345.500=0.164,
349.000=0.164,
349.500=0.164,
357.833=0.601;
#DELAYS:;
#WARPS:;
#TIMESIGNATURES:0.000=4=4;
#TICKCOUNTS:0.000=4;
#COMBOS:0.000=1;
#SPEEDS:0.000=1.000=0.000=0;
#SCROLLS:0.000=1.000;
#FAKES:;
#LABELS:0.000=Song Start;
#BGCHANGES:;
#KEYSOUNDS:;
#ATTACKS:
;

//---------------dance-single - ----------------
#NOTEDATA:;
#CHARTNAME:;
#STEPSTYPE:dance-single;
#DESCRIPTION:;
#CHARTSTYLE:;
#DIFFICULTY:Hard;
#METER:12;
#RADARVALUES:0.851901,1.531704,0.504957,0.448851,0.981862,744.000000,681.000000,63.000000,56.000000,0.000000,0.000000,0.000000,0.000000,0.000000,0.851901,1.531704,0.504957,0.448851,0.981862,744.000000,681.000000,63.000000,56.000000,0.000000,0.000000,0.000000,0.000000,0.000000;
#CREDIT:;
#NOTES:
0000
0000
0000
0000
,
1001
0000
0000
0001
0000
0000
0001
0000
0000
0001
0000
0001
,
0100
0000
0000
0100
0000
0000
0100
0000
0010
1000
0000
1000
,
0100
0000
0000
0100
0000
0000
0100
0000
0000
0100
0000
0010
,
0001
0000
0000
0001
0000
0000
1000
0100
0010
0001
0100
0010
,
2000
0000
0000
0100
0000
0000
0100
0000
0000
3100
0000
0010
,
0001
0000
0000
0001
0000
0000
0001
0000
1000
0010
0000
0010
,
0100
0000
0000
0100
0000
0000
0100
0000
0000
0100
0000
0010
,
1000
0000
0000
1000
0000
0000
0100
0010
0001
0100
0010
1000
,
0100
0000
0000
1100
0000
0000
0011
0000
0000
0101
0000
0100
,
0010
0000
0000
1010
0000
0000
1100
0000
1000
0010
0000
0010
,
0001
0000
0000
0011
0000
0000
0110
0000
0000
1010
0000
1000
,
0100
0000
0000
0110
0000
0000
0100
0010
0001
0100
0010
1000
,
0001
0000
1000
0010
0100
0001
0010
0000
0100
0010
0001
1000
,
0100
0000
0010
0001
0100
0010
1000
0000
0010
1000
0100
0010
,
0001
0000
1000
0100
0001
0100
1000
0000
0100
0010
0001
0010
,
1000
0000
0010
0001
0100
1000
0100
0010
1000
0001
0010
0100
,
1000
0000
0000
0001
0100
0010
1000
1000
0001
0010
0010
0100
2000
0000
0000
0000
0000
0000
0000
0000
0000
0000
0000
0000
,
0000
0000
0000
0000
0000
0000
3001
0010
0100
0010
0001
1000
,
1001
0101
1001
1100
,
1001
0000
0000
0110
0000
0000
1001
0000
0000
0001
0100
0010
,
1010
0000
0000
0101
0000
0000
1010
0000
0000
1000
0010
1000
,
0001
0010
0100
0010
0001
1000
0100
0010
0100
1000
0100
0010
,
0001
0000
0000
1000
0010
0100
0010
0000
0000
0100
0001
0010
,
0100
0000
0000
0010
0001
1000
0100
0000
0000
1000
0000
0000
,
1010
0000
0000
1100
0000
0000
1001
0000
0000
0001
0100
0010
,
1000
0000
0000
0001
1000
0001
1000
0100
0001
0100
1000
0001
,
1000
0000
0000
0001
0001
0100
0010
0000
0000
0100
0100
0010
,
1000
0000
0000
0100
0100
0010
0001
0000
0000
1000
0001
0100
,
0001
0000
0000
0010
0010
0100
1000
0000
0000
0100
0100
0010
,
0100
1000
0010
0100
0001
0010
0001
0100
0010
1000
0100
0010
,
0100
0000
1000
0010
0010
0100
0001
0000
0010
0001
0001
0100
,
0010
0000
0100
0001
0001
1000
0100
0000
1000
0010
0000
0010
,
0100
0101
0011
1100
,
1010
0000
0000
1000
0010
0100
0001
0000
0000
0011
0000
0000
,
1001
0000
0000
1001
0000
0000
0001
0000
0100
0000
0010
0000
1010
0000
0000
1010
0000
0000
1000
0000
0010
0000
0100
0000
,
0001
0000
1000
0000
0010
0000
0100
0000
0001
0000
1000
0000
1010
0000
0000
1010
0000
0000
0010
0000
0100
0000
0001
0000
,
0011
0000
0000
0011
0000
0000
0001
0000
0001
0000
0010
0000
0001
0000
0001
0000
1000
0000
0100
0000
0010
0000
0100
0000
,
1100
0000
0000
1100
0000
0000
0100
0000
0010
0000
0001
0000
0101
0000
0000
0101
0000
0000
0100
0000
0100
0000
0010
0000
,
0100
0000
0100
0000
0001
0000
0100
0000
0010
0000
1000
0000
1001
0000
0000
1001
0000
0000
0001
0000
1000
0000
0010
0000
,
0100
0000
0000
0100
0000
0000
0010
0000
1000
0000
0100
0000
0010
0000
0001
0000
0010
0000
0100
0000
1000
0000
0001
0000
,
2002
0000
0000
0000
0000
0000
0000
0000
0000
0000
0000
0000
3003
0000
0000
0000
0000
0000
1000
0000
0001
1000
0001
0000
,
1000
0000
0001
1000
0001
0000
2002
0000
0000
0000
0000
0000
0000
0000
0000
3003
0000
0000
0220
0000
0000
0000
0000
0000
,
0000
0000
0000
0000
,
0000
0330
0000
1000
,
0010
0100
0010
1000
,
0001
0100
0001
0010
,
1000
0000
0010
0000
0001
0000
1000
0010
,
0100
0001
0010
0001
1000
0001
0010
0000
,
0100
1000
0010
0100
,
0001
0010
0001
1000
,
0100
0000
0010
0000
0001
0000
1000
0100
,
0010
0001
0100
0010
1000
0001
0010
0000
,
0100
1000
0010
0000
0100
0000
0001
0000
,
0010
0000
0100
1000
0010
1000
0001
0000
,
0100
0000
0010
0000
1000
0000
0010
0100
,
0001
1000
0001
0010
0001
1000
0100
0000
,
1000
0100
0001
0100
,
0010
0000
0001
0000
0010
0000
0100
1000
,
0010
0100
0001
0010
0100
1000
0010
0100
,
0001
0010
0001
1000
0100
0010
0001
0000
,
1000
0010
1000
0000
0010
0100
0010
0000
,
0100
0001
0100
0000
0001
0010
0001
0000
,
0100
0000
1000
0000
0100
0000
0010
1000
,
0001
0100
0001
0010
0100
1000
0010
0000
,
0100
0001
0100
0000
0001
0010
0001
0000
,
0010
0100
0010
0000
0100
1000
0100
0000
,
0010
0000
0001
0000
1000
0000
0001
0100
,
0010
1000
0100
0010
0001
1000
0100
0000
,
0010
0001
0100
0000
0010
0100
0001
0000
,
1000
0000
0100
0000
1000
0010
0100
0000
,
0010
1000
0001
0000
1000
0000
0001
0010
,
0001
0100
0001
1000
0010
1000
0100
0000
,
1000
0010
0001
0010
,
1000
0000
0001
0000
1000
0000
0001
0010
,
0100
1000
0100
0010
0100
1000
0100
0010
,
0001
0010
0001
0100
0010
1000
0020
0000
,
2030
0000
0000
0000
0000
0000
0000
0000
0000
0000
0000
0000
0000
0000
0000
0000
0000
0000
0000
0000
0000
0000
0000
0000
0000
0000
0000
0000
0000
0000
0000
0000
3001
0000
0000
0000
0000
0000
0000
0000
1000
0000
0000
0000
0000
0000
0000
0000
0200
0000
0000
0000
0000
0000
0000
0000
0000
0000
0000
0000
0000
0000
0000
0000
0000
0000
0000
0000
0000
0000
0000
0000
0000
0000
0000
0000
0000
0000
0000
0000
0000
0000
0000
0000
0000
0000
0000
0000
0000
0000
0000
0000
0000
0000
0000
0000
2300
0000
0000
0000
0000
0000
0000
0000
0000
0000
0000
0000
0000
0000
0000
0000
0000
0000
0000
0000
0000
0000
0000
0000
3002
0000
0000
0000
0000
0000
0000
0000
0000
0000
0000
0000
1003
0000
0000
0000
0010
0000
0000
0000
0100
0000
0000
0000
0102
0000
0000
0000
0000
0000
0000
0000
0000
0000
0000
0000
0000
0000
0000
0000
0000
0000
0000
0000
0000
0000
0000
0000
0000
0000
0000
0000
0000
0000
0000
0000
0000
0000
0000
0000
0003
0000
0000
0000
0000
0000
0001
0000
0000
1000
0000
0000
,
0020
0000
0000
0000
0000
0000
0000
0000
0130
0000
0001
0000
2000
0000
0000
0000
0000
0000
0000
0000
0000
0000
0000
0000
3002
0000
0000
0000
0000
0000
0200
0000
0000
0303
0000
0000
1001
0000
0000
0000
0000
0000
1000
0000
0000
0000
0100
0000
,
0010
0000
0000
0001
0000
0100
0010
0000
0000
1000
0000
0100
0010
0001
0100
0010
1000
0001
0100
0000
0000
0001
0000
1000
,
0010
0000
0000
0100
0000
0001
0010
0000
0000
0100
0000
1000
0010
0100
0010
1000
0001
0010
0100
0000
1000
0100
0000
0010
,
0001
0000
0001
0100
0010
1000
0001
0000
1000
0010
0000
0010
0100
0000
0100
0001
0010
0001
1000
0000
0001
0100
0010
1000
,
0100
0000
0000
0000
0000
0000
0000
0000
0000
0000
0000
0000
0000
0000
0000
0000
0010
0000
0000
0000
0000
0000
0000
0000
0001
0000
0000
0000
0000
0000
0000
0000
0100
0000
0000
0000
0000
0000
0000
0000
0010
0000
0000
0000
0000
0000
0000
0000
1000
0000
0000
0000
0000
0000
0000
0000
0001
0000
0000
0000
0000
0000
0000
0000
0010
0000
0000
0000
0000
0000
0000
0000
0100
0000
0000
0000
0000
0000
0000
0000
0010
0000
0000
0000
0000
0000
0000
0000
0001
0000
0000
0000
0000
0000
0000
0000
1000
0000
0000
0000
0000
0000
0000
0000
0001
0000
0000
0000
0000
0000
0000
0000
0010
0000
0000
0000
0000
0000
0000
0000
0100
0000
0000
0000
0000
0000
0000
0000
1000
0000
0000
0000
0000
0000
0000
0000
0001
0000
0000
0000
0000
0000
0000
0000
2002
0000
0000
0000
0000
0000
3003
0000
0000
0000
0000
0000
0000
0000
0000
0000
0000
0000
0000
0000
0000
0000
0000
0000
0202
0000
0000
0000
0000
0000
0303
0000
0000
0000
0000
0000
0000
0000
0000
0000
0000
0000
0000
0000
0000
0000
0000
0000
,
0001
0000
0000
0000
0000
0000
0000
0000
0000
0000
0000
0000
0000
0000
0000
0000
0100
0000
0000
0000
0000
0000
0000
0000
0000
0000
0000
0000
0000
0000
0000
0000
0010
0000
0000
0000
0000
0000
0000
0000
0000
0000
0000
0000
0000
0000
0000
0000
2020
0000
0000
0000
0000
0000
3030
0000
0000
0000
0000
0000
0000
0000
0000
0000
0000
0000
0000
0000
0000
0000
0000
0000
0202
0000
0000
0000
0000
0000
0303
0000
0000
0000
0000
0000
0000
0000
0000
0000
0000
0000
0000
0000
0000
0000
0000
0000
0100
0000
0000
0000
0000
0000
0000
0000
0000
0000
0000
0000
0000
0000
0000
0000
0100
0000
0000
0000
0000
0000
0000
0000
0000
0000
0000
0000
0000
0000
0000
0000
0010
0000
0000
0000
0000
0000
0000
0000
0000
0000
0000
0000
0000
0000
0000
0000
1000
0000
0000
0000
0000
0000
0000
0000
0000
0000
0000
0000
0000
0000
0000
0000
1000
0000
0000
0000
0000
0000
0000
0000
0000
0000
0000
0000
0000
0000
0000
0000
0001
0000
0000
0000
0000
0000
0000
0000
0000
0000
0000
0000
0000
0000
0000
0000
,
0010
0000
0000
0000
0000
0000
0000
0000
0000
0000
0000
0000
0000
0000
0000
0000
0010
0000
0000
0000
0000
0000
0000
0000
0000
0000
0000
0000
0000
0000
0000
0000
0100
0000
0000
0000
0000
0000
0000
0000
0000
0000
0000
0000
0000
0000
0000
0000
2200
0000
0000
0000
0000
0000
3300
0000
0000
0000
0000
0000
0000
0000
0000
0000
0000
0000
0000
0000
0000
0000
0000
0000
0022
0000
0000
0000
0000
0000
0033
0000
0000
0000
0000
0000
0000
0000
0000
0000
0000
0000
0000
0000
0000
0000
0000
0000
0010
0000
0000
0000
0000
0000
0000
0000
0000
0000
0000
0000
0000
0000
0000
0000
0010
0000
0000
0000
0000
0000
0000
0000
0000
0000
0000
0000
0000
0000
0000
0000
0100
0000
0000
0000
0000
0000
0000
0000
0000
0000
0000
0000
0000
0000
0000
0000
2200
0000
0000
0000
0000
0000
3300
0000
0000
0000
0000
0000
0000
0000
0000
0000
0000
0000
0000
0000
0000
0000
0000
0000
2002
0000
0000
0000
0000
0000
3003
0000
0000
0000
0000
0000
0000
0000
0000
0000
0000
0000
0000
0000
0000
0000
0000
0000
,
0001
0000
0000
0000
0000
0000
0000
0000
0000
0000
0000
0000
0000
0000
0000
0000
0100
0000
0000
0000
0000
0000
0000
0000
0000
0000
0000
0000
0000
0000
0000
0000
1000
0000
0000
0000
0000
0000
0000
0000
0000
0000
0000
0000
0000
0000
0000
0000
0100
0000
0000
0000
0000
0000
0000
0000
0000
0000
0000
0000
0000
0000
0000
0000
0001
0000
0000
0000
0000
0000
0000
0000
0000
0000
0000
0000
0000
0000
0000
0000
0010
0000
0000
0000
0000
0000
0000
0000
0000
0000
0000
0000
0000
0000
0000
0000
1000
0000
0000
0000
0000
0000
0000
0000
0000
0000
0000
0000
0000
0000
0000
0000
0010
0000
0000
0000
0000
0000
0000
0000
0000
0000
0000
0000
0000
0000
0000
0000
0100
0000
0000
0000
0000
0000
0000
0000
0000
0000
0000
0000
0000
0000
0000
0000
2200
0000
0000
0000
0000
0000
3300
0000
0000
0000
0000
0000
0000
0000
0000
0000
0000
0000
0000
0000
0000
0000
0000
0000
0022
0000
0000
0000
0000
0000
0033
0000
0000
0000
0000
0000
0000
0000
0000
0000
0000
0000
0000
0000
0000
0000
0000
0000
,
0001
0000
0000
0000
0000
0000
0000
0000
0000
0000
0000
0000
0000
0000
0000
0000
0010
0000
0000
0000
0000
0000
0000
0000
0000
0000
0000
0000
0000
0000
0000
0000
0100
0000
0000
0000
0000
0000
0000
0000
0000
0000
0000
0000
0000
0000
0000
0000
2200
0000
0000
0000
0000
0000
3300
0000
0000
0000
0000
0000
0000
0000
0000
0000
0000
0000
0000
0000
0000
0000
0000
0000
2002
0000
0000
0000
0000
0000
3003
0000
0000
0000
0000
0000
0000
0000
0000
0000
0000
0000
0000
0000
0000
0000
0000
0000
0001
0000
0000
0000
0000
0000
0000
0000
0000
0000
0000
0000
0000
0000
0000
0000
0010
0000
0000
0000
0000
0000
0000
0000
0000
0000
0000
0000
0000
0000
0000
0000
1000
0000
0000
0000
0000
0000
0000
0000
0000
0000
0000
0000
0000
0000
0000
0000
0010
0000
0000
0000
0000
0000
0000
0000
0000
0000
0000
0000
0000
0000
0000
0000
0001
0000
0000
0000
0000
0000
0000
0000
0000
0000
0000
0000
0000
0000
0000
0000
0010
0000
0000
0000
0000
0000
0000
0000
0000
0000
0000
0000
0000
0000
0000
0000
,
1000
0000
0000
0000
0000
0000
0000
0000
0000
0000
0000
0000
0000
0000
0000
0000
0010
0000
0000
0000
0000
0000
0000
0000
0000
0000
0000
0000
0000
0000
0000
0000
0001
0000
0000
0000
0000
0000
0000
0000
0000
0000
0000
0000
0000
0000
0000
0000
0202
0000
0000
0000
0000
0000
0303
0000
0000
0000
0000
0000
0000
0000
0000
0000
0000
0000
0000
0000
0000
0000
0000
0000
2020
0000
0000
0000
0000
0000
3030
0000
0000
0000
0000
0000
0000
0000
0000
0000
0000
0000
0000
0000
0000
0000
0000
0000
1000
0000
0000
0000
0000
0000
0000
0000
0000
0000
0000
0000
0000
0000
0000
0000
1000
0000
0000
0000
0000
0000
0000
0000
0000
0000
0000
0000
0000
0000
0000
0000
0001
0000
0000
0000
0000
0000
0000
0000
0000
0000
0000
0000
0000
0000
0000
0000
1000
0000
0000
0000
0000
0000
0000
0000
0001
0000
0000
0000
0000
0000
0000
0000
1000
0000
0000
0000
0000
0000
0000
0000
0001
0000
0000
0000
0000
0000
0000
0000
1000
0000
0000
0000
0000
0000
0000
0000
0001
0000
0000
0000
0000
0000
0000
0000
,
1000
0100
0020
0032
1003
0200
0320
0031
2000
3200
0310
0001
,
2002
0000
0000
0000
0000
0000
0000
0000
0000
0000
0000
0000
0000
0000
0000
0000
0000
0000
0000
0000
0000
0000
0000
3003
0000
0000
1000
0000
0000
0000
0010
0000
0000
0000
0100
0000
0000
0000
0000
0000
0000
0000
0001
0000
0000
0000
0000
0000
,
0000
1000
0000
0000
0000
0100
0000
0000
0000
1000
0000
0000
0000
0001
0000
0000
0000
2002
0000
0000
0000
0000
0000
0000
,
3003
0000
0000
0000
;

//---------------dance-single - ----------------
#NOTEDATA:;
#CHARTNAME:;
#STEPSTYPE:dance-single;
#DESCRIPTION:;
#CHARTSTYLE:;
#DIFFICULTY:Easy;
#METER:6;
#RADARVALUES:0.354959,0.510568,0.128243,0.192365,0.016030,310.000000,294.000000,16.000000,24.000000,0.000000,0.000000,0.000000,0.000000,0.000000,0.354959,0.510568,0.128243,0.192365,0.016030,310.000000,294.000000,16.000000,24.000000,0.000000,0.000000,0.000000,0.000000,0.000000;
#CREDIT:;
#NOTES:
0000
0000
0000
0000
,
1001
0000
0001
0000
,
0001
0000
0001
0000
,
0001
0000
0001
0000
,
0001
0000
0010
0100
,
2002
0000
0000
0000
,
0000
0000
0000
3003
,
1000
0000
0010
0000
,
1000
0000
0010
0100
,
0001
0001
1000
0001
,
0010
0001
0010
0010
,
0100
0100
1000
0100
,
1000
0010
0100
0001
,
1000
0100
0001
0100
,
1000
0100
0001
0100
,
1000
0010
0001
0010
,
0100
0010
1000
0001
,
2002
0000
3003
0000
,
0000
0000
0002
2003
,
3010
0010
1000
0010
,
0100
0100
0001
0100
,
0010
0010
1000
0001
,
1000
0100
0020
0032
,
0103
0100
0010
0010
,
0100
0010
1000
1000
,
0001
0010
0100
1000
,
0100
1000
0020
0230
,
0301
0010
1000
0010
,
0100
1000
0100
0001
,
0100
0100
0010
0100
,
1000
0100
0011
1001
,
1000
0010
1000
0100
,
1000
0001
0010
0010
,
0001
0010
0100
0010
,
0001
1000
0100
0010
,
0001
1000
0010
0000
1000
0001
0100
0000
,
0100
0000
0100
0000
0001
1000
0010
0000
,
1000
0001
0100
0000
0020
0000
2030
0000
,
3001
1000
0010
0000
1000
0001
0100
0000
,
0100
0000
0100
0000
0001
1000
0010
0000
,
0100
0001
1000
0000
0100
0000
0010
0000
,
2002
0000
3003
0010
,
0100
2002
0000
3003
,
0000
0000
0000
0000
,
0000
0000
0000
1000
,
0000
0010
0000
0100
,
0000
0001
0000
1000
,
0000
0010
0000
0100
,
0010
1000
0001
1000
,
0000
1000
0000
0100
,
0000
0100
0000
1000
,
0000
0010
0000
0100
,
0010
1000
0001
0010
,
0000
0100
0000
0010
,
0000
0001
0000
0010
,
0000
0100
0000
1000
,
0100
0010
0100
1000
,
0000
0001
0000
0100
,
0000
0010
0000
1000
,
0100
0010
0001
1000
,
0100
0010
0001
0010
,
0000
1000
0000
0010
,
0000
0100
0000
1000
,
0000
0100
0000
1000
,
0010
0100
0001
1000
,
0000
0001
0000
0010
,
0000
0100
0000
0010
,
0000
0001
0000
1000
,
0001
0100
0001
1000
,
0000
0100
0000
1000
,
0100
1000
0000
0010
,
0000
0100
0000
0001
,
0100
0010
1000
0001
,
0000
0010
0000
0100
,
0000
1000
0000
0001
,
0010
0100
1000
0100
,
0010
0001
0010
0100
,
1000
0000
0000
0000
0010
0000
0000
0000
0100
0000
0001
1000
1001
0000
0000
0000
,
0010
0000
0100
0000
0001
1000
0100
0000
,
0000
1000
0000
0010
,
0000
0100
0010
1000
0001
0010
1001
0000
,
0000
1000
0010
0200
,
0000
0000
0000
0000
0000
0000
0301
1000
,
0010
0000
1000
0001
0100
0000
0100
0000
,
0100
0000
0001
1000
0010
0000
1000
0001
,
0100
0000
0020
0000
2030
0000
3001
1000
,
0010
0000
1000
0001
0100
0000
0100
0000
,
0100
0000
0001
1000
0010
0000
0200
0000
,
0310
1010
1100
0011
,
2002
0000
0000
0000
0000
0000
0000
0000
0000
0000
0000
0000
3003
0000
0000
0000
0000
1001
0000
0000
0000
0000
0000
0000
,
0000
0000
0000
0000
0000
0110
0000
0000
0000
0000
0000
0000
0000
0000
0000
0000
0000
2002
0000
0000
0000
0000
0000
0000
,
3003
0000
0000
0000
;

//---------------dance-single - ----------------
#NOTEDATA:;
#CHARTNAME:;
#STEPSTYPE:dance-single;
#DESCRIPTION:;
#CHARTSTYLE:;
#DIFFICULTY:Medium;
#METER:9;
#RADARVALUES:0.609155,1.203482,0.416790,0.280532,0.537018,532.000000,480.000000,52.000000,35.000000,0.000000,0.000000,0.000000,0.000000,0.000000,0.609155,1.203482,0.416790,0.280532,0.537018,532.000000,480.000000,52.000000,35.000000,0.000000,0.000000,0.000000,0.000000,0.000000;
#CREDIT:;
#NOTES:
0000
0000
0000
0000
,
1001
1000
1000
1000
,
0010
0010
0100
0010
,
0100
0100
0100
0100
,
0001
0000
0000
0010
0000
0000
0100
0000
1000
0001
0000
0002
,
2000
0000
0000
0000
,
0000
0000
0000
3003
,
0001
0001
0001
0001
,
1000
0000
0000
1000
0000
0000
0010
0000
0100
0001
0000
0001
,
0010
0011
1010
0011
,
1010
0000
0000
0011
0000
0000
1010
0000
1000
0010
0000
0100
,
0001
0101
1100
0101
,
1100
0000
0000
0101
0000
0000
1100
0000
0100
0010
0000
0010
,
0001
0000
1000
0001
0000
0001
0010
0000
0001
1000
0000
1000
,
0010
0000
1000
0001
0000
0001
0010
0000
0001
1000
0000
0100
,
1000
0000
1000
0010
0000
0010
0100
0000
0100
0001
0000
0001
,
0020
0230
2300
3020
,
0130
0000
0000
0001
1000
0001
1000
0001
1000
0001
1000
0001
0020
0000
0000
0000
0000
0000
0000
0000
0000
0000
0000
0000
,
0000
0000
0130
1000
,
0001
0101
0100
0110
,
0010
1010
1100
1000
,
1001
1001
0011
0010
,
0100
0000
0000
1000
0000
0000
0001
0100
0010
1000
0001
0010
,
0100
1100
1000
1100
,
0100
1100
0110
1100
,
1010
0000
0000
0010
0000
0000
0110
0000
0000
0100
0000
0001
,
0010
0000
0000
0010
0000
0100
1000
0010
0100
0001
0010
0100
,
1000
0000
0001
0010
0000
0000
0100
0000
1000
0010
0000
0000
,
0100
0000
0001
0010
0000
0000
0100
0000
0000
1000
0100
0010
,
0001
1000
1010
0010
,
1001
0000
0000
0101
0000
0000
0100
0010
1000
0100
0010
0001
,
1000
0000
0000
0101
0000
0001
0010
0000
0000
0110
0000
0100
,
1000
0000
0000
1100
0000
1000
0010
0000
0000
0101
0000
0000
,
0011
1001
1100
1001
,
0101
0000
0000
0001
1000
0010
0100
0000
0000
0001
0000
0000
,
0020
0000
0000
0230
0000
0000
1300
0000
0001
0000
1000
0000
0002
0000
0000
0203
0000
0000
0310
0000
1000
0000
0010
0000
,
1000
0000
0010
0000
1000
0000
0010
0000
1000
0000
0010
0000
2000
0000
0000
3200
0000
0000
0310
0000
0001
0000
0010
0000
,
0002
0000
0000
2003
0000
0000
3001
0000
1000
0000
0001
0000
1000
0000
0010
0000
0100
0000
0001
0000
0010
0000
0100
0000
,
2000
0000
0000
3020
0000
0000
0130
0000
0001
0000
0100
0000
0002
0000
0000
0023
0000
0000
0130
0000
0010
0000
0100
0000
,
0010
0000
0100
0000
0010
0000
0100
0000
0010
0000
0100
0000
0020
0000
0000
0230
0000
0000
1300
0000
0001
0000
1000
0000
,
0001
0100
0110
0000
1010
0000
0101
0000
,
2002
0000
0000
0000
0000
0000
3003
0000
0000
1000
0000
0001
,
1000
0000
2000
0002
0000
0000
0000
0000
3003
0220
0000
0000
,
0000
0000
0000
0000
,
0000
0000
0330
1000
,
0000
0010
0000
0100
,
0000
0001
0000
1000
,
0100
1000
0001
0010
,
0100
1000
0001
0100
,
0000
0001
0000
0010
,
0000
0100
0000
0010
,
0100
1000
0010
0100
,
1000
0100
0001
0010
,
0100
0010
0000
0100
,
0000
1000
0001
1000
,
0000
0010
0000
1000
,
0010
0100
0001
1000
,
0000
0100
0000
0010
,
0000
0001
0000
1000
,
0001
0100
0001
0010
,
0100
0010
0001
1000
,
0100
0010
0001
1000
,
0010
1000
0001
0100
,
0001
0010
0100
1000
,
0100
0001
0100
1000
,
0010
0100
0001
0010
,
0001
1000
0100
1000
,
0010
0100
0001
1000
,
0010
0001
0010
0100
,
0010
0001
1000
0010
,
0010
1000
0001
0100
,
0100
0001
1000
0100
,
1000
0010
0100
0001
,
1000
0100
1000
0001
,
0100
0001
0010
0001
,
0000
0010
0100
0000
0000
0100
1000
0000
,
0000
1000
0010
0000
0000
0010
0100
0000
,
0001
0000
0000
0000
0000
0000
0000
0000
1000
0000
0001
0000
0100
0000
0000
0000
0000
0000
0000
0000
0000
0000
0000
0000
0010
0000
0000
0000
0000
0000
1000
0000
0000
0100
0000
0000
0011
0000
0000
0000
0000
0000
0000
0000
0000
0000
0000
0000
,
0100
0000
0000
0000
1000
0100
0010
0000
0000
0000
0000
0000
0001
0000
0000
0100
0000
0000
0020
0000
0000
0000
0000
0000
,
0000
0000
0000
2030
0000
0000
3000
0001
0010
0200
0000
0000
,
0300
1000
0010
0001
0010
0100
0002
1003
,
0001
0000
0000
0010
0000
0000
0001
0000
0000
0100
0000
0000
0010
0000
0000
1000
0000
0000
0001
0000
1000
0001
0000
0001
,
0100
0000
0100
0010
0000
0010
1000
0010
0100
0001
0010
0100
1000
0100
0010
0001
1000
0010
0100
0000
0000
0101
0000
0000
,
0001
0000
1000
0000
0001
0000
1000
0000
0000
1100
0000
0000
0100
0000
0010
0000
0100
0000
0010
0000
0100
0000
0010
0000
,
0100
0000
0010
0000
0100
0000
0010
0000
0000
0011
0000
0000
0001
0000
0100
0000
0001
0000
0100
0000
0000
0110
0000
0000
,
0010
0000
1000
0000
0010
0000
1000
0000
0010
0000
0100
0000
0001
0000
0010
0000
0100
0000
1000
0000
0000
1001
0000
0000
,
0001
0000
0100
0000
0001
0000
0100
0000
0000
0101
0000
0000
0001
0000
0010
0000
0001
0000
0010
0000
0001
0000
0010
0000
,
0001
0000
0010
0000
0001
0000
0010
0000
0000
1100
0000
0000
1000
0000
0010
0000
0100
0000
0001
0000
0000
0000
0000
0000
,
1000
0000
0100
0010
0001
0010
0001
0100
0001
0100
0010
2000
,
0002
0000
0000
0000
0000
0000
3003
1000
0000
0100
0000
0000
,
0000
0000
0010
0000
0000
0000
0001
0000
0000
0000
0000
0000
0000
0000
0002
0000
0000
2000
0000
0000
0000
0000
0000
0000
,
3003
0000
0000
0000
;

//---------------dance-single - ----------------
#NOTEDATA:;
#CHARTNAME:;
#STEPSTYPE:dance-single;
#DESCRIPTION:;
#CHARTSTYLE:;
#DIFFICULTY:Beginner;
#METER:3;
#RADARVALUES:0.163739,0.290818,0.128243,0.000000,0.004008,143.000000,127.000000,16.000000,0.000000,0.000000,0.000000,0.000000,0.000000,0.000000,0.163739,0.290818,0.128243,0.000000,0.004008,143.000000,127.000000,16.000000,0.000000,0.000000,0.000000,0.000000,0.000000,0.000000;
#CREDIT:;
#NOTES:
// measure 0
0000
0000
0000
0000
,  // measure 1
1001
0000
0000
0000
,  // measure 2
0000
0000
0000
0000
,  // measure 3
0000
0000
0000
0000
,  // measure 4
0000
0000
0000
0000
,  // measure 5
0110
0000
0000
0000
,  // measure 6
0000
0000
0000
0000
,  // measure 7
0000
0000
0000
0000
,  // measure 8
0000
0000
0000
0000
,  // measure 9
1000
0000
0000
0000
,  // measure 10
0001
0000
0000
1000
,  // measure 11
1000
0000
0000
0000
,  // measure 12
0010
0000
0000
0000
,  // measure 13
0100
0000
0100
0000
,  // measure 14
0100
0000
0100
0000
,  // measure 15
0010
0000
1000
0000
,  // measure 16
0001
0000
1000
0001
,  // measure 17
1001
0000
0000
0000
,  // measure 18
0000
0000
0000
0000
,  // measure 19
0001
0000
1000
0000
,  // measure 20
0010
0000
1000
0000
,  // measure 21
0001
0000
1000
0000
,  // measure 22
0100
0000
1000
1000
,  // measure 23
0001
0000
1000
0000
,  // measure 24
0010
0000
1000
1000
,  // measure 25
1000
0000
0001
0000
,  // measure 26
0100
0000
0010
0010
,  // measure 27
0100
0000
0010
0000
,  // measure 28
0100
0000
0001
0000
,  // measure 29
0010
0010
0001
0000
,  // measure 30
1000
0000
0001
0000
,  // measure 31
0100
0000
0010
0000
,  // measure 32
1000
0000
0001
0001
,  // measure 33
0001
0000
1000
0000
,  // measure 34
0010
0000
0100
0000
,  // measure 35
0010
0000
0010
0000
,  // measure 36
0000
0000
1000
0000
,  // measure 37
1000
0000
0000
0000
,  // measure 38
0001
0000
0001
0000
,  // measure 39
0000
0000
0100
0000
,  // measure 40
0010
0000
0000
0000
,  // measure 41
1001
0000
0000
0000
,  // measure 42
0000
1001
0000
0000
,  // measure 43
0000
0000
0000
0000
,  // measure 44
0000
0000
0000
0001
,  // measure 45
0000
0000
0000
1000
,  // measure 46
0000
0000
0000
0010
,  // measure 47
0000
0000
0000
1000
,  // measure 48
0000
1000
0000
1000
,  // measure 49
0000
0000
0000
0001
,  // measure 50
0000
0000
0000
0100
,  // measure 51
0000
0000
0000
0010
,  // measure 52
0000
0010
0000
0010
,  // measure 53
0000
0000
0000
0100
,  // measure 54
0000
0000
0000
0010
,  // measure 55
0000
0000
0000
1000
,  // measure 56
0000
1000
0000
0001
,  // measure 57
0000
0000
0000
1000
,  // measure 58
0000
0000
0000
0010
,  // measure 59
0000
0100
0000
0001
,  // measure 60
0000
1000
0000
0001
,  // measure 61
0000
0000
0000
1000
,  // measure 62
0000
0000
0000
0010
,  // measure 63
0000
0000
0000
1000
,  // measure 64
0000
1000
0000
0001
,  // measure 65
0000
0000
0000
0100
,  // measure 66
0000
0000
0000
0001
,  // measure 67
0000
0000
0000
1000
,  // measure 68
0000
1000
0000
1000
,  // measure 69
0000
0000
0000
0001
,  // measure 70
0000
0000
0000
0100
,  // measure 71
0000
0000
0000
0010
,  // measure 72
0000
0010
0000
0010
,  // measure 73
0000
0000
0000
0100
,  // measure 74
0000
0000
0000
0001
,  // measure 75
0000
0010
0000
0100
,  // measure 76
0000
1000
0000
0001
,  // measure 77
0000
0000
0000
1001
,  // measure 78
0000
0000
0000
1001
,  // measure 79
0000
0010
0000
0100
,  // measure 80
0000
0001
1000
0010
,  // measure 81
0000
0000
0000
0100
,  // measure 82
0000
0000
0000
1001
,  // measure 83
0000
0110
0000
0000
,  // measure 84
0000
0110
0000
1001
,  // measure 85
0000
0000
0000
1001
,  // measure 86
0000
0110
0000
0000
,  // measure 87
0000
1001
0000
0000
,  // measure 88
0000
0010
0100
1000
,  // measure 89
1001
0000
0000
0000
,  // measure 90
0000
0000
0000
0000
0000
0000
0000
0000
0000
0000
0000
0000
0000
0000
0000
0000
0000
1001
0000
0000
0000
0000
0000
0000
;
