#TITLE:K8107;
#SUBTITLE:;
#ARTIST:Onoken;
#TITLETRANSLIT:;
#SUBTITLETRANSLIT:;
#ARTISTTRANSLIT:;
#GENRE:;
#CREDIT:;
#BANNER:K8107-bn.png;
#BACKGROUND:K8107-bg.png;
#LYRICSPATH:;
#CDTITLE:;
#MUSIC:K8107.ogg;
#OFFSET:-6.693000;
#SAMPLESTART:30.693001;
#SAMPLELENGTH:12.000000;
#SELECTABLE:YES;
#BPMS:0.000000=179.998993
,64.000000=90.000000
,68.000000=360.000000
,196.000000=90.000000
,198.000000=45.000000
,201.000000=90.000000
,233.000000=45.000000
,234.000000=180.000000
,266.000000=360.000000
,394.000000=45.000000
;
#STOPS:
;
#BGCHANGES:;
#KEYSOUNDS:;
#ATTACKS:;

//---------------dance-single - ----------------
#NOTES:
     dance-single:
     :
     Challenge:
     13:
     1.011681,1.742465,0.597978,0.802999,0.401499,829.000000,759.000000,70.000000,94.000000,0.000000,0.000000,1.011681,1.742465,0.597978,0.802999,0.401499,829.000000,759.000000,70.000000,94.000000,0.000000,0.000000:
// measure 0
0000
0000
0000
0000
,  // measure 1
0000
0000
0000
0000
,  // measure 2
2000
0002
0000
3003
0101
1000
0001
0010
,  // measure 3
0100
1000
0100
0010
0011
0002
0000
0000
,  // measure 4
2003
0002
0000
3003
0101
1000
0010
0100
,  // measure 5
0010
1000
0001
0010
0110
0200
0000
0000
,  // measure 6
2300
0200
0000
3300
0011
0010
0001
1000
,  // measure 7
0010
0100
0010
1000
2010
0020
0000
3030
,  // measure 8
1020
0000
0000
0230
0000
0000
0302
0000
0000
0000
2003
0000
0000
0000
3001
0000
,  // measure 9
0012
0000
0000
0023
0000
0000
0230
0000
0000
0000
1300
0000
0100
0000
0010
0000
,  // measure 10
0021
0000
0000
0032
0000
0000
2003
0000
0000
0000
3020
0000
0000
0000
0130
0000
,  // measure 11
0210
0000
0000
0320
0000
0000
2030
0000
0000
0000
3001
0000
0101
0000
0000
0000
,  // measure 12
1002
0000
0000
2003
0000
0000
3200
0000
0000
0000
0320
0000
0000
0000
0031
0000
,  // measure 13
0012
0000
0000
2003
0000
0000
3020
0000
0000
0000
0130
0000
0010
0000
1000
0000
,  // measure 14
2001
0000
0000
3002
0000
0000
0203
0000
0000
0000
0302
0000
0000
0000
0013
0000
,  // measure 15
0120
0000
0000
0230
0000
0000
2300
0000
0000
0000
3001
0000
0101
0000
0000
0000
,  // measure 16
2002
0000
0000
3003
,  // measure 17
0001
1000
0001
1000
0001
1000
0001
1000
,  // measure 18
0010
1000
0010
0100
0001
1000
0001
0010
,  // measure 19
0100
1000
0100
1000
0100
1000
0100
1000
,  // measure 20
0100
0010
0001
1000
0001
0100
0010
1000
,  // measure 21
0010
0100
0010
0100
0010
0100
0010
0100
,  // measure 22
0010
1000
0010
0100
0001
1000
0001
0100
,  // measure 23
0010
1000
0010
1000
0010
1000
0010
1000
,  // measure 24
0010
1000
0010
0100
0001
1000
0001
0010
,  // measure 25
0100
1000
0100
1000
0100
1000
0100
1000
,  // measure 26
0100
0010
0001
1000
0001
0100
0010
1000
,  // measure 27
0010
0100
0010
0100
0010
0100
0010
0100
,  // measure 28
0010
0100
0001
1000
0001
0010
0100
1000
,  // measure 29
0100
0010
0100
1000
0002
0000
0000
0000
,  // measure 30
1003
0001
0100
0010
0200
0000
0000
0000
,  // measure 31
0301
0100
0001
1000
0001
0100
0010
0100
,  // measure 32
0010
0100
0010
1000
0010
0100
0001
1000
,  // measure 33
0010
1000
0010
0100
0001
1000
0001
0010
,  // measure 34
0100
1000
0100
1000
0001
0100
0001
0100
,  // measure 35
0001
0010
0001
1000
0010
0100
0010
1000
,  // measure 36
0001
0100
0001
0100
0001
1000
0100
1000
,  // measure 37
0100
1000
0100
0010
0001
1000
0001
0100
,  // measure 38
0001
1000
0001
1000
0100
0010
0100
0010
,  // measure 39
0001
0010
0100
1000
0010
0100
0010
1000
,  // measure 40
0001
0100
0001
0100
0001
1000
0010
1000
,  // measure 41
0010
1000
0010
0100
0001
1000
0001
0010
,  // measure 42
0100
1000
0100
1000
0001
0100
0001
0100
,  // measure 43
0001
1000
0001
0100
0010
1000
0010
0100
,  // measure 44
0010
1000
0010
1000
0001
0100
0001
0100
,  // measure 45
0001
0010
0100
1000
0200
0000
0000
0000
,  // measure 46
1300
0010
1000
0001
2000
0000
0000
0000
,  // measure 47
3100
1000
0100
0010
0001
1000
0001
0100
,  // measure 48
0001
0100
0001
1000
0100
0010
0001
1000
,  // measure 49
0020
0000
0000
0000
,  // measure 50
0000
0000
0000
0000
0130
0010
1000
0010
0110
0000
1000
0010
0100
0001
1000
0001
,  // measure 51
0011
0010
0100
0000
1000
0100
0010
0001
1001
0000
0001
0100
0001
0010
0100
1000
,  // measure 52
1010
0010
0100
0000
0010
1000
0010
0100
0101
0000
0001
0010
0001
1000
0100
0010
,  // measure 53
0110
0010
0001
0000
1000
0001
0100
0001
0101
0000
0001
1000
0100
0010
0100
1000
,  // measure 54
1100
0000
0100
0000
1000
0000
0000
0000
1100
0000
0000
0110
0000
0000
0011
0000
0000
0000
1001
0000
0000
0000
0101
0000
0101
0000
0000
1001
0000
0000
0110
0000
,  // measure 55
0000
0000
1000
0000
0100
0000
0010
0000
0011
0000
0000
1001
0000
0000
0110
0000
0000
0000
1010
0000
0000
0000
0101
0000
0101
0000
0000
1001
0000
0000
0110
0000
,  // measure 56
0000
0000
1100
0000
1100
0000
0000
0000
0011
0000
0000
1001
0000
0000
0110
0000
0000
0000
1010
0000
0000
0000
0101
0000
0101
0000
0000
1001
0000
0000
0011
0000
,  // measure 57
0000
0000
0010
0000
0100
0000
1000
0000
1001
0000
0000
0101
0000
0000
1001
0000
0000
0000
0011
0000
0000
0000
0101
0000
0110
0000
0000
1001
0000
0000
1010
0000
,  // measure 58
0000
1001
0201
0000
0002
0000
0000
0303
0010
1000
0010
1000
0001
0100
0001
0100
,  // measure 59
0001
1000
0001
0010
0100
0000
1000
0000
0100
0010
0100
0010
0100
1000
0100
1000
,  // measure 60
0001
0100
0001
1000
0001
0000
0010
0000
1100
0000
0000
0000
0110
0000
0000
0000
,  // measure 61
0011
0000
0010
0000
0001
0000
1000
0000
0110
0000
0000
0000
0010
1000
0010
1000
,  // measure 62
0010
0100
0001
0100
0001
0000
2000
0000
3001
1000
0001
1000
0001
0010
0100
0010
,  // measure 63
0100
1000
0100
1000
0001
0000
0100
0000
0010
1000
0010
1000
0001
1000
0001
1000
,  // measure 64
0100
0010
0001
0010
0100
0000
1000
0000
1001
0000
0000
0000
0110
0000
0000
0000
,  // measure 65
0101
0000
0001
0000
0100
0000
0010
0000
1010
0000
1000
0000
0001
1000
0100
1000
,  // measure 66
0001
0000
0010
0000
0100
1000
0001
1000
0100
0000
1000
0000
0100
0000
1000
0000
,  // measure 67
0200
1300
0100
1000
0100
0010
0001
1000
,  // measure 68
0002
0103
0010
1000
0010
0100
0010
0100
,  // measure 69
0020
0130
0010
0100
0010
1000
0001
0100
,  // measure 70
0002
0013
0100
1000
0010
1000
0010
1000
,  // measure 71
0020
1030
0010
1000
0010
0100
0001
1000
,  // measure 72
0002
0013
0001
0010
0100
1000
0100
1000
,  // measure 73
0200
1300
0100
1000
0100
0010
0001
1000
,  // measure 74
0002
0103
0010
1000
0010
0100
0010
0100
,  // measure 75
0020
0130
0010
0100
0010
0100
0001
1000
,  // measure 76
0002
0013
0100
1000
0100
0010
0100
0010
,  // measure 77
0200
0310
0100
0010
0100
1000
0100
0010
,  // measure 78
0002
1003
0001
0100
0010
0100
0010
0100
,  // measure 79
0002
0000
0000
0000
1003
0001
1000
0001
,  // measure 80
0020
0000
0000
0000
0130
1000
0100
0010
,  // measure 81
0200
1300
0001
1000
0001
1000
0001
0100
,  // measure 82
0002
1003
0100
0000
0010
0001
2000
3001
,  // measure 83
0100
0010
2000
3010
0100
0001
0200
0301
,  // measure 84
1000
0001
2000
3001
1000
0100
0020
0130
,  // measure 85
0010
0001
2000
3001
0100
0010
0200
0310
,  // measure 86
1000
0010
2000
3010
0100
0001
2000
3001
,  // measure 87
0010
0100
2000
3100
0010
0001
0020
0031
,  // measure 88
1000
0010
2000
3010
0100
0001
0200
0301
,  // measure 89
0010
0100
2000
3010
0100
0001
0200
0301
,  // measure 90
0010
0001
0020
0031
1000
0010
0200
0301
,  // measure 91
1000
0001
0020
0130
1000
0100
2000
3100
,  // measure 92
1000
0001
0200
0301
0100
0001
0020
0130
,  // measure 93
1000
0010
0200
0310
1000
0010
2000
3010
,  // measure 94
0100
0001
0200
0301
0010
0001
2000
3001
,  // measure 95
0200
0000
0000
0000
0310
1000
0010
0100
,  // measure 96
0002
0000
0000
0000
1003
0001
0010
0001
,  // measure 97
1000
0100
0010
0100
0010
0100
0010
0001
,  // measure 98
1000
0000
0001
0000
0100
0000
0010
0000
0200
0000
0000
0000
0000
0000
0000
0300
,  // measure 99
2002
0000
3003
0000
;

//---------------dance-single - ----------------
#NOTES:
     dance-single:
     :
     Beginner:
     3:
     0.212343,0.422856,0.162308,0.017085,0.000000,174.000000,155.000000,19.000000,2.000000,0.000000,0.000000,0.212343,0.422856,0.162308,0.017085,0.000000,174.000000,155.000000,19.000000,2.000000,0.000000,0.000000:
0000
0000
0000
0000
,
0000
0000
0000
0000
,
0010
0000
0100
0000
,
0001
0000
1000
0000
,
0100
0000
1000
0000
,
0010
0000
1000
0000
,
0001
0000
0100
0000
,
0001
0000
0010
0000
,
1001
0000
0000
0000
,
0110
0000
0000
0000
,
1100
0000
0000
0000
,
0101
0000
0000
0000
,
0011
0000
0000
0000
,
1010
0000
0000
0000
,
0101
0000
0000
0000
,
1001
0000
0000
0000
,
0110
0000
0000
0000
,
0010
0000
0000
0000
,
0010
0000
1000
0000
,
0010
0000
0000
0000
,
0100
0000
0001
0000
,
0100
0000
0000
0000
,
0001
0000
1000
0000
,
0010
0000
0000
0000
,
1000
0000
0010
0000
,
0100
0000
0000
0000
,
0001
0000
0010
0000
,
0100
0000
0000
0000
,
0010
0000
0100
0000
,
1000
0000
0000
0000
,
0001
0000
0000
0000
,
0100
0000
0000
0000
,
0010
0000
0000
0000
,
1000
0000
0000
0000
,
0001
0000
0100
0000
,
0001
0000
0000
0000
,
1000
0000
0100
0000
,
1000
0000
0000
0000
,
0010
0000
0100
0000
,
0010
0000
0000
0000
,
1000
0000
0010
0000
,
1000
0000
0000
0000
,
0001
0000
0100
0000
,
0001
0000
0000
0000
,
0010
0000
0001
0000
,
0010
0000
0000
0000
,
0001
0000
0000
0000
,
1000
0000
0000
0000
,
0100
0000
0000
0000
,
1001
0000
0000
0000
,
0000
0100
0010
1000
,
0010
0100
0001
0100
,
0001
0010
0001
1000
,
0100
1000
0010
1000
,
0001
0101
0000
1010
,
0000
1100
0000
0011
,
0000
1001
0000
0110
,
0000
1010
0000
0101
,
0000
0000
0001
0000
,
1000
0000
0001
0000
,
0100
0000
0010
0010
,
0010
0010
0010
0000
,
0100
0000
0001
0000
,
1000
0000
0100
0000
,
1000
0000
0100
0100
,
0100
0100
0100
0000
,
0010
0000
0001
0000
,
0000
0000
0100
0000
,
0001
0000
1000
0000
,
0000
0000
0100
0000
,
1000
0000
0010
0000
,
0000
0000
0100
0000
,
0001
0000
0010
0000
,
0000
0000
0001
0000
,
0010
0000
0100
0000
,
0000
0000
1000
0000
,
0100
0000
1000
0000
,
0000
0000
0001
0000
,
0100
0000
0001
0000
,
0000
0000
1000
0000
,
0000
0000
0001
0000
,
0000
0000
0010
0000
,
0000
0000
0100
0000
,
0000
0000
0010
0000
,
0100
0000
1000
0000
,
0000
0000
0100
0000
,
1000
0000
0001
0000
,
0000
0000
0100
0000
,
0001
0000
0010
0000
,
0000
0000
0001
0000
,
0010
0000
0100
0000
,
0000
0000
0010
0000
,
0001
0000
1000
0000
,
0000
0000
0001
0000
,
0100
0000
0001
0000
,
0000
0000
1000
0000
,
0000
0000
0010
0000
,
0000
0000
0100
0000
,
0000
0000
2002
0000
,
3003
0000
0000
0000
;

//---------------dance-single - ----------------
#NOTES:
     dance-single:
     :
     Easy:
     6:
     0.356346,0.634284,0.042713,0.042713,0.000000,292.000000,287.000000,5.000000,5.000000,0.000000,0.000000,0.356346,0.634284,0.042713,0.042713,0.000000,292.000000,287.000000,5.000000,5.000000,0.000000,0.000000:
0000
0000
0000
0000
,
0000
0000
0000
0000
,
0100
0000
0010
0100
,
0001
1000
0100
0000
,
1000
0000
0100
1000
,
0010
0100
0001
0000
,
0010
0000
0001
0100
,
0001
1000
0100
0000
,
1000
0000
0100
1000
,
0010
1000
0001
0000
,
0100
0000
0001
0100
,
0001
0010
0100
0000
,
1000
0000
0100
1000
,
0010
0100
0001
0000
,
1000
0000
0001
0100
,
0001
1000
0100
0000
,
1001
0000
0000
0000
,
0100
0000
0010
0000
,
1000
0000
0001
0000
,
0100
0000
0001
0000
,
0010
0000
0100
0000
,
1000
0000
0100
0000
,
0010
0000
0001
0000
,
0100
0000
0001
0000
,
1000
0000
0100
0000
,
1000
0000
0010
0000
,
0100
0000
0001
0000
,
1000
0000
0100
0000
,
0010
0000
0100
0000
,
1000
0100
1000
0000
,
0001
0100
0001
0000
,
0010
0000
0000
0100
,
0000
0000
0010
0000
,
0001
0000
1000
0000
,
0001
0000
0100
0000
,
0010
0000
1000
0000
,
0100
0000
1000
0000
,
0010
0000
0100
0000
,
0001
0000
1000
0000
,
0100
0000
0010
0000
,
0100
0000
1000
0000
,
0010
0000
0100
0000
,
0001
0000
1000
0000
,
0100
0000
0010
0000
,
0001
0000
0100
0000
,
0001
0010
0001
0000
,
1000
0001
1000
0000
,
0100
0000
0000
1000
,
0000
0000
0100
0000
,
2002
0000
3003
0000
,
0000
0000
0100
0010
1000
0100
1000
0001
,
0100
0000
0001
0010
0001
0100
0010
1000
,
0100
0000
1000
0100
0010
0100
1000
0010
,
0100
0000
0010
0100
0001
1000
0001
0010
,
0100
0000
0010
0100
1000
0010
1000
0001
,
0100
0000
0001
0100
0001
1000
0100
0010
,
0001
0000
1000
0010
1000
0001
0100
0001
,
0010
0000
0001
0010
0100
1000
0001
0100
,
0001
2000
0000
0000
3001
0100
0001
0000
,
0100
0000
0010
0000
1000
0010
1000
0000
,
0010
0100
0001
1000
,
0100
1000
0100
1000
0100
0000
0010
0000
,
0100
0000
1000
0001
1000
0000
0001
0000
,
0100
0000
0010
0100
0010
0000
1000
0000
,
0001
0000
0100
0001
1000
0000
0100
0000
,
0010
0100
0010
0100
0010
0000
1001
0000
,
0100
1001
0100
0000
,
0010
0000
1000
0000
,
0001
0000
0100
0000
,
0001
0000
0010
0000
,
0100
0000
1000
0000
,
0001
0000
0100
0000
,
0001
0000
0010
0000
,
0100
0000
0010
0000
,
0001
0000
1000
0000
,
0010
0000
1000
0000
,
0100
0000
1000
0000
,
0001
0000
0100
0000
,
0001
0000
0010
0100
,
0010
0000
0100
1000
,
0100
0000
1000
0000
,
0000
0001
0000
0000
,
0100
0000
0010
0100
,
0010
0000
1000
0001
,
1000
0000
0001
0100
,
0001
0000
0100
0010
,
0100
0000
0010
1000
,
0010
0000
1000
0100
,
1000
0000
0100
0010
,
0100
0000
1000
0100
,
1000
0000
0001
0100
,
0001
0000
0010
0001
,
0010
0000
0100
0010
,
0100
0000
1000
0001
,
1000
0000
0001
0100
,
0001
0000
1000
0100
,
1000
0000
0001
0000
,
0000
0100
0000
0000
,
0010
0000
2002
0000
,
3003
0000
0000
0000
;

//---------------dance-single - ----------------
#NOTES:
     dance-single:
     :
     Medium:
     9:
     0.552824,1.014854,0.196478,0.128138,0.102510,453.000000,430.000000,23.000000,15.000000,0.000000,0.000000,0.552824,1.014854,0.196478,0.128138,0.102510,453.000000,430.000000,23.000000,15.000000,0.000000,0.000000:
0000
0000
0000
0000
,
0000
0000
0000
0000
,
0100
0010
0000
0000
0100
0010
1000
0000
,
0001
0100
0001
0000
0010
0001
0000
0000
,
0010
0100
0000
0000
1000
0100
0010
0000
,
0001
0010
0100
0000
1000
0100
0000
0000
,
0010
0001
0000
0000
0100
0001
0010
0000
,
0100
1000
0010
0000
0100
0010
0000
0000
,
0100
0000
0000
0001
0000
0000
1000
0000
,
1100
0000
0000
0010
0000
0000
0001
0000
,
1001
0000
0000
0100
0000
0000
0010
0000
,
1010
0000
0000
0100
0000
0000
0001
0000
,
0101
0000
0000
1000
0000
0000
0100
0000
,
1100
0000
0000
1000
0000
0000
0010
0000
,
1010
0000
0000
0100
0000
0000
0001
0000
,
0011
0000
0000
0010
0000
0000
0100
0000
,
2200
0000
0000
3300
,
1000
0100
1000
0100
,
0010
0001
1000
0010
,
0100
0001
0100
0001
,
1000
0001
0010
0100
,
1000
0010
1000
0010
,
0100
0001
1000
0001
,
0010
0100
0010
0100
,
1000
0100
0010
0001
,
1000
0010
1000
0010
,
0100
0001
1000
0001
,
0010
0100
0010
0100
,
0010
0001
1000
0001
,
0100
0010
2000
3000
,
0001
0100
0002
0003
,
1000
0100
0010
0001
,
0000
1000
0001
0000
,
0100
0010
0100
0010
,
1000
0001
0100
0001
,
1000
0100
1000
0100
,
0010
0001
1000
0010
,
0100
0010
0100
0010
,
1000
0001
0100
0001
,
1000
0100
1000
0100
,
0010
0001
1000
0010
,
0100
0001
0100
0001
,
1000
0100
0010
0100
,
1000
0010
1000
0010
,
1000
0001
0100
0001
,
0010
0100
2000
3000
,
0100
0010
0002
0003
,
1000
0010
0100
0001
,
0000
1000
0001
0000
,
2002
0000
3003
0000
,
0000
0000
0000
0000
0100
0001
1000
0000
0100
0000
0010
0100
1000
0001
0100
0000
,
1001
0000
0000
0000
0100
0001
1000
0000
0100
0000
0010
0100
1000
0010
0100
0000
,
0101
0000
0000
0000
0001
0100
0001
0000
1000
0000
0100
0010
0100
1000
0010
0000
,
1010
0000
0000
0000
1000
0010
0100
0000
0001
0000
0100
0001
1000
0100
0010
0000
,
0110
0000
0000
0000
0010
0001
0100
0000
0001
0000
1000
0001
0010
0100
1000
0000
,
1100
0000
0000
0000
0100
1000
0010
0000
0100
0000
0010
1000
0001
0100
0001
0000
,
0101
0000
0000
0000
0001
0100
0001
0000
1000
0000
0100
0010
0100
1000
0010
0000
,
1010
0000
0000
0000
0010
1000
0001
0000
0100
0000
0001
0010
0100
1000
0100
0000
,
1001
0200
0000
0000
0310
1000
0010
1000
,
0001
0100
0001
0000
0010
0100
0010
0100
,
1000
0001
0100
0000
0101
0000
0101
0000
,
1000
0001
1000
0001
1000
0000
0001
0100
,
0001
0100
0010
2000
3010
1000
0010
0100
,
0001
1000
0001
0000
0010
0100
1000
0100
,
0010
0001
1000
0000
1001
0000
1001
0000
,
0100
0001
0100
0001
1000
0000
0101
0000
,
1000
1100
0010
0001
,
0010
0001
1000
0010
,
0100
0001
1000
0100
,
1000
0100
0010
0001
,
1000
0010
0100
0010
,
0100
0010
1000
0001
,
0100
0001
1000
0100
,
1000
0100
0010
0001
,
1000
0010
0100
0001
,
0100
0001
1000
0001
,
0010
0100
1000
0010
,
1000
0010
0100
0001
,
1000
0001
0010
0100
,
2000
3000
0001
0100
,
0002
0003
0010
0001
,
1000
0100
0000
0010
,
0100
0000
1000
0100
,
0010
0001
0100
0001
,
0010
0100
1000
0010
,
0100
0001
1000
0001
,
0010
0100
1000
0010
,
0100
0001
1000
0001
,
0010
0100
1000
0100
,
0010
0001
1000
0001
,
0100
0001
0010
0100
,
1000
0010
0100
0010
,
1000
0001
0100
0001
,
1000
0100
0010
0100
,
1000
0001
0100
0001
,
2000
3000
0100
0010
,
0002
0003
1000
0001
,
0100
0001
0000
1000
,
0001
0000
0200
0000
,
0310
0000
0000
0000
;

//---------------dance-single - ----------------
#NOTES:
     dance-single:
     :
     Hard:
     10:
     0.817643,1.274974,0.435670,0.136681,0.273361,670.000000,619.000000,51.000000,16.000000,0.000000,0.000000,0.817643,1.274974,0.435670,0.136681,0.273361,670.000000,619.000000,51.000000,16.000000,0.000000,0.000000:
0000
0000
0000
0000
,
0000
0000
0000
0000
,
0100
0002
0000
0000
1003
0001
0010
0100
,
1000
0001
0100
0001
2000
0000
0000
0000
,
3010
0200
0000
0000
0301
1000
0010
1000
,
0100
0010
0001
0100
0020
0000
0000
0000
,
1030
0002
0000
0000
0013
0100
1000
0100
,
0010
0001
1000
0001
0200
0000
0300
0000
,
0101
0000
0000
1000
0000
0000
0010
0000
0000
0000
0100
0000
0000
0000
0001
0000
,
1001
0000
0000
0010
0000
0000
0100
0000
0000
0000
1000
0000
0100
0000
0010
0000
,
0011
0000
0000
0001
0000
0000
0100
0000
0000
0000
0010
0000
0000
0000
1000
0000
,
1010
0000
0000
0100
0000
0000
0001
0000
0000
0000
1000
0000
0100
0000
0000
0000
,
0011
0000
0000
1000
0000
0000
0010
0000
0000
0000
0100
0000
0000
0000
0010
0000
,
1100
0000
0000
1000
0000
0000
0100
0000
0000
0000
0010
0000
0001
0000
1000
0000
,
1001
0000
0000
0001
0000
0000
0100
0000
0000
0000
0010
0000
0000
0000
1000
0000
,
1010
0000
0000
0010
0000
0000
0100
0000
0000
0000
0001
0000
1000
0000
0000
0000
,
2002
0000
0000
3003
,
1000
0001
0100
0001
,
1000
0100
1000
0100
0010
0001
0010
0001
,
1000
0010
0100
0001
,
1000
0001
1000
0001
0100
0001
0100
0001
,
1000
0100
0010
0100
,
1000
0010
1000
0010
0100
0001
0100
0001
,
0010
0100
1000
0100
,
0010
0001
0010
0001
1000
0001
1000
0001
,
1000
0010
0100
0001
,
1000
0100
1000
0100
0010
0100
0010
0100
,
1000
0001
0100
0001
,
0010
0100
0010
0100
1000
0001
1000
0001
,
0100
0010
0100
0000
1001
0000
0000
0000
,
0001
0100
0001
0000
1001
0000
0000
0000
,
1000
0100
0010
0100
1000
0100
2000
0000
,
0000
0000
3001
0100
0001
0100
0001
0000
,
0010
0001
1000
0001
,
0100
0001
1000
0100
0010
0100
1000
0010
,
0100
0001
1000
0001
,
0010
0100
1000
0100
0010
0001
0100
0001
,
0010
0100
1000
0010
,
0100
0010
1000
0010
0100
0001
0010
0001
,
1000
0100
0010
0100
,
1000
0001
0100
0001
1000
0001
0010
0100
,
1000
0100
0010
0100
,
1000
0010
1000
0010
0100
0001
1000
0001
,
0010
0100
1000
0100
,
0010
0001
0100
0001
1000
0001
0010
0100
,
1000
0100
0010
0000
1001
0000
0000
0000
,
0001
0100
0001
0000
1001
0000
0000
0000
,
0010
0100
1000
0100
0010
0001
2000
0000
,
0000
0000
3001
0100
0001
1000
0100
0020
,
0000
0000
0000
0000
,
0000
0000
0000
0000
0031
0010
0100
0000
1100
0000
0010
0100
1000
0010
0100
0001
,
1001
0000
0100
0000
0001
1000
0100
0000
1100
0000
0010
0100
1000
0010
0100
0001
,
0101
0000
0001
0000
1000
0001
0010
0000
0110
0000
0100
1000
0010
0100
0010
1000
,
1001
0000
0001
0000
0100
0001
1000
0000
1100
0000
0100
0010
0001
1000
0010
0100
,
0110
0000
0010
0000
1000
0010
0100
0000
0101
0000
0001
1000
0100
0010
0100
1000
,
1100
0000
0010
0000
0001
0010
0001
0000
1001
0000
0001
0100
0001
1000
0100
0010
,
0110
0000
1000
0000
0010
0100
0010
0000
1010
0000
1000
0010
0100
0001
1000
0001
,
1001
0000
0001
0000
0100
0001
0010
0000
0011
0000
0010
0100
1000
0100
0010
0001
,
0011
0000
1000
0000
0020
0000
0000
0000
0130
0010
0100
0010
1000
0001
1000
0001
,
0100
0000
0000
0000
1001
0000
0000
0000
0010
0100
0010
0100
1000
0100
1000
0001
,
0010
1001
0101
0101
,
1010
0000
1010
0000
0101
0000
0101
0000
1001
0000
0000
0000
0100
1000
0100
1000
,
0100
0010
0001
0010
0001
0000
1000
0000
0001
0100
0001
0100
0001
1000
0001
1000
,
0100
0000
0000
0000
0110
0000
0000
0000
0010
0001
0010
0001
1000
0001
1000
0001
,
0100
0110
1010
1010
,
0101
0000
0101
0000
1010
0000
1010
0000
1001
0000
0001
0000
0010
0100
0010
0100
,
1000
0000
0100
0000
0010
0001
1000
0001
1000
0000
0000
0000
0100
0000
0000
0000
,
0010
0000
0001
0000
1000
0001
1000
0001
,
0100
0001
0100
0001
1000
0000
0100
0000
,
0010
0000
0100
0000
1000
0010
1000
0010
,
0100
0001
0100
0001
0010
0000
0100
0000
,
1000
0000
0100
0000
0010
0001
0010
0001
,
1000
0001
1000
0001
1000
0000
0010
0000
,
0100
0000
0010
0000
1000
0010
1000
0010
,
0100
0010
0100
0010
0100
0000
0001
0000
,
1000
0000
0001
0000
0010
0100
0010
0100
,
1000
0100
1000
0100
0010
0000
0001
0000
,
1000
0000
0001
0000
0100
0001
0100
0001
,
1000
0001
1000
0001
0010
0100
1000
0000
,
1100
0000
0000
0000
0010
0001
0010
0000
,
1001
0000
0000
0000
0001
0100
0001
1000
,
0001
0010
0200
0000
0000
0000
0310
0100
,
1000
0001
0100
0000
0010
0000
1000
0000
,
0001
0000
0100
0000
0001
1000
0001
0010
,
0100
1000
0100
0010
0001
0000
0100
0000
,
0001
0000
0010
0000
0100
1000
0100
0010
,
0100
1000
0010
0100
0001
0000
1000
0000
,
0001
0000
0100
0000
0001
0010
0001
1000
,
0001
0100
0010
1000
0010
0000
0100
0000
,
0001
0000
1000
0000
0100
0010
0100
1000
,
0100
0010
0001
1000
0001
0000
0100
0000
,
0001
0000
1000
0000
0100
0010
0100
1000
,
0010
0100
0001
1000
0001
0000
0010
0000
,
0100
0000
1000
0000
0100
0010
0100
1000
,
0001
0100
0001
1000
0001
0010
0100
0000
,
1100
0000
0000
0000
0010
0001
1000
0000
,
0101
0000
0000
0000
0001
1000
0001
0010
,
0100
1000
0200
0000
0000
0000
1300
0100
,
0010
0001
1000
0002
0000
0000
0000
0000
,
0200
0000
0303
0000
;
