#VERSION:0.81;
#TITLE:ドッキン☆サマーあばんちゅーる;
#SUBTITLE:;
#ARTIST:L.E.D.-G + Qrispy Joybox + ARM feat. ななひら;
#TITLETRANSLIT:Dokkin summer aventure;
#SUBTITLETRANSLIT:;
#ARTISTTRANSLIT:L.E.D.-G + Qrispy Joybox + ARM feat. Nanahira;
#GENRE:;
#ORIGIN:;
#CREDIT:;
#BANNER:Dokkin summer aventure-bn.png;
#BACKGROUND:Dokkin summer aventure-bg.png;
#PREVIEWVID:;
#JACKET:Dokkin summer aventure-jacket.png;
#CDIMAGE:;
#DISCIMAGE:;
#LYRICSPATH:;
#CDTITLE:;
#MUSIC:Dokkin summer aventure.ogg;
#OFFSET:-1.022918;
#SAMPLESTART:81.730003;
#SAMPLELENGTH:12.000000;
#SELECTABLE:YES;
#BPMS:0.000=180.000;
#STOPS:162.938=0.333,
239.000=1.000;
#DELAYS:;
#WARPS:;
#TIMESIGNATURES:0.000=4=4;
#TICKCOUNTS:0.000=4;
#COMBOS:0.000=1;
#SPEEDS:0.000=1.000=0.000=0;
#SCROLLS:0.000=1.000;
#FAKES:;
#LABELS:0.000=Song Start;
#BGCHANGES:0.000=Dokkin summer aventure.avi=1.000=1=0=0=StretchNoLoop==CrossFade==,
99999=-nosongbg-=1.000=0=0=0 // don't automatically add -songbackground-
;
#KEYSOUNDS:;
#ATTACKS:
;

//---------------dance-single - ----------------
#NOTEDATA:;
#CHARTNAME:;
#STEPSTYPE:dance-single;
#DESCRIPTION:;
#CHARTSTYLE:;
#DIFFICULTY:Hard;
#METER:9;
#RADARVALUES:0.604963,0.682062,0.365064,0.300164,0.255545,440.000000,45.000000,37.000000,0.000000,0.000000,0.000000,0.000000,0.000000,0.604963,0.682062,0.365064,0.300164,0.255545,440.000000,45.000000,37.000000,0.000000,0.000000,0.000000,0.000000,0.000000;
#CREDIT:;
#NOTES:
// measure 0
0000
0000
0000
0000
,  // measure 1
0000
0000
0000
0000
,  // measure 2
0000
0000
0000
0000
,  // measure 3
0000
0000
0000
0000
,  // measure 4
0000
0000
0000
0000
,  // measure 5
0002
0000
2003
0000
,  // measure 6
3020
0000
0230
0300
,  // measure 7
0110
0000
1001
0000
,  // measure 8
1100
0101
1100
0101
,  // measure 9
1000
0100
0001
0000
0100
0000
1000
0000
,  // measure 10
0001
0010
0100
1000
0001
0000
1000
0000
,  // measure 11
0001
0100
0010
0100
0001
0000
0010
0000
,  // measure 12
0100
1000
0100
1000
0001
1000
0010
0000
,  // measure 13
1000
0000
0010
0000
1000
0000
0200
0000
0000
0000
0310
0001
1000
0000
0000
0000
,  // measure 14
0001
0010
0001
0200
0000
0310
1000
0200
,  // measure 15
0000
0310
0001
2000
0000
3010
0100
0001
,  // measure 16
0000
0000
1000
0000
0000
0001
0000
0000
2002
0000
0000
0000
3003
0000
0000
0000
,  // measure 17
0001
0000
1000
0000
0001
1000
0100
0000
,  // measure 18
0010
0000
0001
0000
1000
0001
0100
0000
,  // measure 19
0001
0100
0001
0100
0010
1000
0100
0010
,  // measure 20
0001
1000
0001
1000
0010
0100
0001
0010
,  // measure 21
0100
0000
0010
0000
0100
1000
0001
0000
,  // measure 22
0100
0000
0010
0000
0100
0001
1000
0000
,  // measure 23
0100
0100
0000
0010
0010
0000
0001
0001
,  // measure 24
0000
1000
1000
0000
0220
0000
0330
0000
,  // measure 25
1000
0010
1000
0010
0100
0001
0010
0100
,  // measure 26
1000
0000
0001
0000
1000
0100
0010
0000
,  // measure 27
0001
0100
0001
0100
0010
1000
0010
1000
,  // measure 28
0001
0010
0000
0100
0000
1000
0001
0000
,  // measure 29
1000
0100
1000
0100
0010
0001
1000
0001
,  // measure 30
0201
0000
0010
0000
1300
0100
0001
1000
,  // measure 31
1100
0000
0010
0000
0101
0100
0010
2000
,  // measure 32
0000
3001
0000
1000
2002
0000
3003
0000
,  // measure 33
0220
0330
0000
0000
0000
0000
0000
0000
,  // measure 34
0000
0000
0000
0000
,  // measure 35
1000
0000
0001
0000
,  // measure 36
1000
0001
1000
0001
,  // measure 37
0110
0001
1000
0000
,  // measure 38
0110
1000
0001
0000
,  // measure 39
1001
0000
0000
1000
0000
1000
0010
0000
0000
1000
0100
1000
,  // measure 40
0001
1000
0001
1000
0001
1000
0002
0000
0000
1003
0000
0000
,  // measure 41
0101
0000
0100
0010
0000
0000
1000
0000
1000
0100
0000
0100
,  // measure 42
0010
0001
1000
0002
0000
0000
1003
0001
1000
0010
0000
0000
,  // measure 43
0110
0000
0000
0001
1000
0001
0100
0000
0000
0010
0000
0010
,  // measure 44
0100
0000
0100
0001
0000
0001
1000
0100
0010
0001
0000
0000
,  // measure 45
0011
0000
0000
1000
0010
1000
0100
0000
0000
0010
0000
0010
,  // measure 46
0001
0000
0001
1000
0001
1000
0001
0000
0100
0010
0000
0010
,  // measure 47
1000
0000
1000
0001
1000
0001
0010
0000
0010
0100
0010
0100
,  // measure 48
0010
0100
0010
0001
0000
0000
1001
0000
0000
0101
0000
0000
,  // measure 49
0010
0000
0010
1000
0000
0000
0100
0000
0100
0010
0000
0000
,  // measure 50
1001
0220
0330
1010
,  // measure 51
1000
0000
1000
0001
0000
0000
0010
0000
0010
0100
0000
0000
,  // measure 52
1100
0000
0001
0100
0000
0110
0000
0110
0000
1010
0000
0000
,  // measure 53
0001
0000
0001
0010
0000
0010
0100
0010
0001
1000
0000
1000
,  // measure 54
0010
0000
0010
0100
0000
0000
0110
0000
1000
0001
0000
0001
,  // measure 55
0010
0000
0010
0100
1000
0100
1000
0100
1000
0002
0000
0000
,  // measure 56
2003
0000
0000
3010
0000
0010
0000
0010
0000
1000
0000
0000
,  // measure 57
0000
0000
0000
0001
,  // measure 58
0000
0000
0000
1000
,  // measure 59
0100
0010
0001
1000
,  // measure 60
0001
0000
1000
0100
0000
1000
0010
0000
,  // measure 61
1100
0000
0001
0100
0000
0001
0010
0100
,  // measure 62
1100
0000
1000
0001
0000
1000
0100
0000
,  // measure 63
0010
0001
1000
0001
0100
0010
1000
0000
,  // measure 64
0101
0000
0001
0010
0000
0100
0010
0000
,  // measure 65
0011
0000
0001
0100
0000
0010
1000
0000
,  // measure 66
0001
0100
0010
0100
1000
0100
0010
0100
,  // measure 67
0001
0000
1000
0200
0010
0010
0310
0000
,  // measure 68
1100
0000
0100
0010
0000
0001
1000
0000
,  // measure 69
0101
0000
0010
1000
0000
1000
0100
0010
,  // measure 70
0011
0000
1000
0100
0000
1000
0001
0000
,  // measure 71
0010
0001
1000
0001
0100
0010
1000
0000
,  // measure 72
0101
0000
0010
1000
0000
0001
0010
0100
,  // measure 73
1100
0000
1000
0001
0000
0100
0010
0100
,  // measure 74
0101
0000
0000
0000
,  // measure 75
0000
0000
0000
0000
0000
1000
0001
1000
,  // measure 76
2100
0000
3000
0000
,  // measure 77
0020
0000
0000
0000
0000
0130
0001
1000
,  // measure 78
0001
0100
1000
0000
0100
0000
0001
0000
,  // measure 79
1000
0010
0100
0001
1000
0000
0001
0000
,  // measure 80
1000
0100
0010
0100
1000
0000
0010
0000
,  // measure 81
0100
0001
0100
0001
1000
0001
0010
0000
,  // measure 82
0001
0000
0010
0000
0001
0000
0200
0000
0000
0000
0310
1000
0001
0000
0000
0000
,  // measure 83
1000
0010
1000
0200
0000
0310
0001
2000
,  // measure 84
0000
3010
0100
0002
0000
0013
0100
1000
,  // measure 85
0000
0000
0001
0000
0000
1000
0000
0000
2002
0000
0000
0000
3003
0000
0000
0000
,  // measure 86
1010
0000
0000
0101
0000
0000
2002
0000
,  // measure 87
0000
3003
0220
0000
0000
0000
0000
0000
,  // measure 88
0000
0000
0330
0000
;

//---------------dance-single - ----------------
#NOTEDATA:;
#CHARTNAME:;
#STEPSTYPE:dance-single;
#DESCRIPTION:;
#CHARTSTYLE:;
#DIFFICULTY:Challenge;
#METER:10;
#RADARVALUES:0.773009,0.825653,0.624665,0.340727,0.515146,548.000000,77.000000,42.000000,0.000000,0.000000,0.000000,0.000000,0.000000,0.773009,0.825653,0.624665,0.340727,0.515146,548.000000,77.000000,42.000000,0.000000,0.000000,0.000000,0.000000,0.000000;
#CREDIT:;
#NOTES:
// measure 0
0000
0000
0000
0000
,  // measure 1
0000
0000
0000
0000
,  // measure 2
0000
0000
0000
0000
,  // measure 3
0000
0000
0000
0000
,  // measure 4
0000
0000
0000
0000
,  // measure 5
2000
0000
3200
0000
,  // measure 6
0302
0000
0000
0000
0023
0000
0000
0030
,  // measure 7
0110
0000
1001
0000
,  // measure 8
1100
0000
0101
0000
0011
0000
1010
1000
,  // measure 9
0001
0000
1000
0100
0010
0001
1000
0010
,  // measure 10
0000
0010
0100
0001
0100
0010
1000
0001
,  // measure 11
1000
0000
0100
1000
0100
1000
0100
0000
0010
0000
0000
0001
0100
0000
0010
0000
,  // measure 12
1000
0000
0000
0100
0010
0000
0001
0000
0100
0000
0010
0000
1000
0000
0100
0000
,  // measure 13
0110
0000
0010
0000
0100
0000
2100
0000
0000
0000
3010
0100
0001
0000
0000
0000
,  // measure 14
0011
0010
0100
2100
0000
3010
0110
0002
,  // measure 15
0000
0013
0110
2000
0000
3010
0110
0001
,  // measure 16
0000
0000
1000
0000
0000
0001
0000
0000
2002
0000
0000
0000
3003
0000
0000
0000
,  // measure 17
1000
0001
1000
0100
1000
0001
1000
0100
,  // measure 18
0010
0001
1000
0001
0010
0001
1000
0001
,  // measure 19
0100
0010
1000
0100
0010
0001
0100
0010
,  // measure 20
0010
0100
0001
0010
0100
1000
0010
0100
,  // measure 21
0001
1000
0100
1000
0001
1000
0100
1000
,  // measure 22
0001
0010
0100
1000
0001
0100
0010
1000
,  // measure 23
1010
1010
0000
1001
1001
0000
0011
0011
,  // measure 24
0000
0110
0110
0000
2002
0000
3003
0000
,  // measure 25
0001
0100
1000
0100
0001
0100
0010
1000
,  // measure 26
0000
0001
1000
0001
0100
0010
1000
0001
,  // measure 27
1000
0100
0001
0100
1000
0100
0010
0001
,  // measure 28
1000
0010
0000
0100
0000
0001
1000
0000
,  // measure 29
0001
0100
0001
0100
1000
0100
0001
0100
,  // measure 30
0210
0000
1300
0100
0001
0100
0010
1000
,  // measure 31
1100
0000
0010
0000
0101
0100
0010
1010
,  // measure 32
0000
0101
0000
1001
2002
0000
3003
0000
,  // measure 33
0000
1000
0001
1000
0000
0000
0000
0000
0000
0000
0000
0000
0000
0000
0000
0000
,  // measure 34
0000
0000
0000
0000
,  // measure 35
1100
0001
0101
1000
,  // measure 36
0011
0000
0010
0100
0000
0100
1000
0001
1000
0001
0100
0001
,  // measure 37
0100
0000
0100
1000
0000
0100
0001
0000
0001
0010
0000
0100
,  // measure 38
0010
0000
0010
0001
0000
0001
2000
0000
0000
3010
0000
0000
,  // measure 39
0110
0000
0000
0010
0000
1000
1100
0000
0000
0010
0000
0010
,  // measure 40
0001
0000
0000
0000
0000
0000
0000
0000
0000
0000
0000
0000
0000
0000
0000
0000
0100
0000
0000
0000
0000
0000
0000
0000
0000
0000
0000
0000
0000
0000
0000
0000
0001
0000
0000
0000
0000
0000
0000
0000
0000
0000
0000
0000
0000
0000
0000
0000
0100
0000
0000
0000
0000
0000
0000
0000
0000
0000
0000
0000
0000
0000
0000
0000
0010
0000
0000
0000
0000
0000
0000
0000
0000
0000
0000
0000
0000
0000
0000
0000
1000
0000
0000
0000
0000
0000
0000
0000
0000
0000
0000
0000
0000
0000
0000
0000
0100
0000
0000
0000
0000
0000
0000
0000
0000
0000
0000
0000
0000
0000
0000
0000
0010
0000
0000
0000
0000
0000
0000
0000
0000
0000
0000
0000
0000
0000
0000
0000
0001
0000
0000
0000
0000
0000
0000
0000
0000
0000
0000
0000
0000
1000
0000
0000
0001
0000
0000
0000
0000
0000
0000
0000
0000
0000
0000
0000
0000
0000
0000
0000
0000
0000
0000
0000
0000
0000
0000
0000
0000
0000
0000
0000
0000
0000
0000
0000
0001
0000
0000
0000
0000
0000
0000
0000
0000
0000
0000
0000
0000
0000
0000
0000
,  // measure 41
0010
0100
0010
0001
0000
0001
0100
0010
1000
0001
0000
0100
,  // measure 42
0010
0100
0001
1000
0001
1000
0100
0010
0100
1000
1000
0100
,  // measure 43
1000
0100
1000
0001
0001
0100
0001
0100
0001
1000
0000
0000
,  // measure 44
0110
0000
0000
1100
0000
0001
0101
0000
1000
1100
0000
1000
,  // measure 45
0100
0000
0001
0100
0000
1000
0100
0000
0001
0100
0000
1000
,  // measure 46
0100
0010
0001
0100
0001
0100
0010
1000
0002
0100
0000
1003
,  // measure 47
0001
0000
1000
0100
0010
0100
1000
0001
1000
0010
0100
0001
,  // measure 48
1000
0100
0010
0001
0100
0010
1000
0000
0000
0001
0000
0001
,  // measure 49
0010
0001
0100
0010
0000
0010
1000
0010
0100
0001
0000
0001
,  // measure 50
0010
0001
1000
0200
0000
0000
0310
0000
0000
0100
0000
1000
,  // measure 51
0100
1000
0001
1000
0000
1000
0010
0100
0001
1000
0000
0000
,  // measure 52
0110
0000
0000
1001
0000
1100
0000
1001
0000
0011
0000
1000
,  // measure 53
0100
1000
0001
0010
0000
0010
0001
1000
0001
0100
0000
0100
,  // measure 54
0010
1000
0001
0100
0010
0100
0010
1000
0100
0010
0000
0100
,  // measure 55
1000
0000
0001
0100
1000
0100
0010
0100
0001
1000
0100
0010
,  // measure 56
0001
0100
0010
1000
0000
0110
0000
0101
0000
1002
0000
0000
,  // measure 57
0000
0010
0013
0000
0100
0000
2100
0000
,  // measure 58
3010
0100
0001
1000
0001
0010
0110
0000
,  // measure 59
0101
1100
1010
1001
,  // measure 60
0011
0000
2000
0010
3000
0001
0100
0000
,  // measure 61
0101
0000
0002
0010
0003
1000
0100
1000
,  // measure 62
1010
0000
0002
0100
0003
1000
0010
1000
,  // measure 63
0100
0010
1000
0010
0001
1000
0001
0100
,  // measure 64
0101
0000
0010
0201
0000
0310
1000
0000
,  // measure 65
1100
0000
0010
1200
0000
0310
0001
1000
,  // measure 66
0001
0100
1000
0100
0001
0100
0010
1000
,  // measure 67
0001
0000
0010
0200
0010
0010
0310
0000
,  // measure 68
0011
0000
1000
0100
0000
0001
0010
0001
,  // measure 69
0100
0000
0010
1000
0000
0100
0001
1000
,  // measure 70
0001
0000
1000
0100
0000
0001
0010
0001
,  // measure 71
0200
0000
2300
0000
3020
0000
0032
1003
,  // measure 72
1100
0000
2000
0001
0000
3100
0010
0000
,  // measure 73
0011
0000
0002
1000
0000
0103
0010
1000
,  // measure 74
1010
0000
0000
0000
,  // measure 75
0000
0000
0000
0000
0000
0100
0100
0100
,  // measure 76
0110
0000
0000
0000
,  // measure 77
1000
0010
1000
0010
1000
0010
1000
0010
1000
0000
0010
0000
0100
0000
0001
0000
,  // measure 78
1000
0000
0001
0010
0100
1000
0001
0100
,  // measure 79
0000
0100
0010
1000
0010
0100
0001
1000
,  // measure 80
0001
0000
0010
0001
0010
0001
0010
0000
0100
0000
0000
1000
0010
0000
0100
0000
,  // measure 81
0001
0000
0000
0010
0100
0000
1000
0000
0010
0000
0100
0000
0001
0000
0010
0000
,  // measure 82
0110
0000
0100
0000
0010
0000
0012
0000
0000
0000
0103
0010
1000
0000
0000
0000
,  // measure 83
1100
0100
0010
0012
0000
0103
0110
2000
,  // measure 84
0000
3100
0110
0002
0000
0103
0110
1000
,  // measure 85
0000
0000
0001
0000
0000
1000
0000
0000
2002
0000
0000
0000
3003
0000
0000
0000
,  // measure 86
1010
0000
0000
0011
0000
0000
0220
0000
,  // measure 87
0000
0330
2002
0000
0000
0000
0000
0000
,  // measure 88
0000
0000
3003
0000
;

//---------------dance-single - ----------------
#NOTEDATA:;
#CHARTNAME:;
#STEPSTYPE:dance-single;
#DESCRIPTION:;
#CHARTSTYLE:;
#DIFFICULTY:Medium;
#METER:7;
#RADARVALUES:0.477481,0.574368,0.300164,0.340727,0.077069,333.000000,37.000000,42.000000,0.000000,0.000000,0.000000,0.000000,0.000000,0.477481,0.574368,0.300164,0.340727,0.077069,333.000000,37.000000,42.000000,0.000000,0.000000,0.000000,0.000000,0.000000;
#CREDIT:;
#NOTES:
// measure 0
0000
0000
0000
0000
,  // measure 1
0000
0000
0000
0000
,  // measure 2
0000
0000
0000
0000
,  // measure 3
0000
0000
0000
0000
,  // measure 4
0000
0000
0000
0000
,  // measure 5
0000
0000
0000
0000
,  // measure 6
0000
0000
0000
0000
,  // measure 7
1001
0000
0110
0000
,  // measure 8
1010
1010
0101
0101
,  // measure 9
1000
0100
0001
0100
,  // measure 10
1000
0100
0010
0001
,  // measure 11
1000
0010
0001
0010
,  // measure 12
0100
0000
0001
0000
1000
0001
1000
0000
,  // measure 13
0001
0010
0100
2000
0000
0001
3001
0000
,  // measure 14
1000
0010
0100
0002
0000
1000
1003
0200
,  // measure 15
0000
0310
0001
0020
0000
0130
1000
0001
,  // measure 16
0000
0000
1000
0000
0000
0001
0000
0000
2000
0000
0000
0000
3000
0000
0000
0000
,  // measure 17
0001
0000
0100
0000
0010
1000
0010
0000
,  // measure 18
1000
0000
0100
0000
0010
0001
0010
0000
,  // measure 19
0002
0010
1000
0100
,  // measure 20
2003
0100
0001
3010
,  // measure 21
0100
0000
0001
0000
1000
0001
0100
0000
,  // measure 22
0010
0000
1000
0000
0001
1000
0100
0000
,  // measure 23
0010
0001
0000
1000
0001
0000
0100
0010
,  // measure 24
0000
1000
0001
0000
2002
0000
3003
0000
,  // measure 25
0002
0000
0010
0000
2003
0000
3010
0100
,  // measure 26
0010
0000
0010
0000
1000
0001
0100
0000
,  // measure 27
0010
1000
0001
1000
,  // measure 28
0100
0010
0000
0100
0000
1000
0001
0000
,  // measure 29
0101
0000
0100
0010
1000
0000
0100
0000
,  // measure 30
1100
0000
1000
0100
0010
0000
0001
0000
,  // measure 31
0011
0000
0001
0000
1000
0001
0000
0200
,  // measure 32
0000
0010
0000
0010
0010
0000
0310
0000
,  // measure 33
1001
0000
0000
0000
,  // measure 34
0000
0000
0000
0000
,  // measure 35
1000
0000
0001
0000
,  // measure 36
1000
0001
1000
0001
,  // measure 37
0110
0000
0001
0000
,  // measure 38
0110
1000
0001
0000
,  // measure 39
0110
0000
1001
0000
,  // measure 40
0110
0000
0000
0000
0000
0000
0000
0000
0000
0000
0000
0000
0000
0000
0000
0000
1001
0000
0000
0000
0000
0000
0000
0000
0000
0000
0000
0000
0000
0000
0000
0000
0210
0000
0000
0000
0000
0000
0000
0000
0000
0000
0000
0000
0000
0000
0000
0300
0001
0000
0000
0000
0000
0000
0000
0000
0000
0000
0000
0000
0000
0000
0000
0000
,  // measure 41
1000
0000
0000
0100
0000
0000
1000
0000
0000
0001
0000
0100
,  // measure 42
0010
0000
0010
2000
0000
0000
3001
0000
0000
0010
0000
0000
,  // measure 43
0100
0000
0000
1000
0000
0000
0001
0000
0000
0100
0000
0100
,  // measure 44
0010
0000
0010
2000
0000
0000
3100
0000
0100
0010
0000
0000
,  // measure 45
0001
0000
0000
0100
0000
0000
0010
0000
0000
1000
0000
1000
,  // measure 46
0001
0000
0001
0020
0000
0000
0130
0000
0100
0010
0000
0000
,  // measure 47
0011
1001
0101
0020
,  // measure 48
2030
3001
0101
1000
,  // measure 49
0100
0010
0001
1000
,  // measure 50
1010
2002
3003
0001
,  // measure 51
0010
0100
1000
0001
,  // measure 52
0101
0000
0000
1010
0000
0001
0000
1000
0000
1100
0000
0000
,  // measure 53
0011
0000
0000
1000
0000
1000
0001
0000
0000
0100
0000
0100
,  // measure 54
0010
0000
1000
0002
0000
0000
1003
0000
0000
0100
0000
1000
,  // measure 55
0100
0000
0100
0020
0000
0000
0032
0000
0000
2003
0000
0000
,  // measure 56
3020
0000
0000
0130
0000
0100
0000
0100
0000
0010
0000
0000
,  // measure 57
0000
0000
0000
1000
,  // measure 58
0000
0000
0000
0001
,  // measure 59
0010
0100
1000
0001
,  // measure 60
1000
0000
0001
1000
0000
0000
0100
0000
,  // measure 61
0010
0000
0001
1000
0000
0000
0001
0000
,  // measure 62
0010
0000
0100
1000
0000
0000
0100
0000
,  // measure 63
0020
0230
2300
3002
,  // measure 64
0103
0000
0010
1000
0000
1000
0001
0000
,  // measure 65
0010
0000
0100
2000
0000
0000
3001
0000
,  // measure 66
0010
0011
0110
1100
,  // measure 67
0001
0000
0100
0020
0000
0000
1030
0000
,  // measure 68
0001
0000
0010
0100
0000
0000
1000
0000
,  // measure 69
0001
0000
1000
0100
0000
0100
0010
0000
,  // measure 70
0001
0000
1000
0010
0000
0000
0010
0000
,  // measure 71
0100
0000
0001
1000
0000
1000
0100
0000
,  // measure 72
0010
0000
0001
1000
0000
0001
0100
0000
,  // measure 73
0010
0000
1000
0001
0000
1000
0100
0000
,  // measure 74
0110
0000
0000
0000
,  // measure 75
0000
0000
0000
0000
0000
0001
1000
0001
,  // measure 76
1001
0000
0000
0000
,  // measure 77
0002
0000
0000
1003
,  // measure 78
0001
0010
1000
0010
,  // measure 79
0001
0010
0100
1000
,  // measure 80
0001
0100
1000
0100
,  // measure 81
0010
0000
1000
0000
0001
1000
0001
0000
,  // measure 82
1000
0100
0010
0002
0000
1000
1003
0000
,  // measure 83
0001
0100
0010
2000
0000
0001
3001
0020
,  // measure 84
0000
0130
1000
0200
0000
0310
0001
1000
,  // measure 85
0000
0000
0001
0000
0000
2000
0000
0000
0002
0000
0000
0000
3003
0000
0000
0000
,  // measure 86
0110
0000
0000
1001
0000
0000
0220
0000
,  // measure 87
0330
2002
0000
0000
,  // measure 88
0000
0000
3003
0000
;

//---------------dance-single - ----------------
#NOTEDATA:;
#CHARTNAME:;
#STEPSTYPE:dance-single;
#DESCRIPTION:;
#CHARTSTYLE:;
#DIFFICULTY:Easy;
#METER:4;
#RADARVALUES:0.337250,0.466674,0.227151,0.324501,0.000000,223.000000,28.000000,40.000000,0.000000,0.000000,0.000000,0.000000,0.000000,0.337250,0.466674,0.227151,0.324501,0.000000,223.000000,28.000000,40.000000,0.000000,0.000000,0.000000,0.000000,0.000000;
#CREDIT:;
#NOTES:
// measure 0
0000
0000
0000
0000
,  // measure 1
0000
0000
0000
0000
,  // measure 2
0000
0000
0000
0000
,  // measure 3
0000
0000
0000
0000
,  // measure 4
0000
0000
0000
0000
,  // measure 5
0000
0000
0000
0000
,  // measure 6
0000
0000
0000
0000
,  // measure 7
1000
0000
0001
0000
,  // measure 8
1000
1000
0001
0001
,  // measure 9
1000
0000
0100
0000
,  // measure 10
1000
0100
0010
0000
,  // measure 11
0001
0000
1000
0000
,  // measure 12
0001
0100
0010
0000
,  // measure 13
1000
2000
0000
3010
,  // measure 14
0100
0000
0200
0000
0000
0000
0301
2000
,  // measure 15
0000
0000
3100
2000
0000
0000
3001
2000
,  // measure 16
0000
3001
2002
3003
,  // measure 17
1000
0100
1000
0000
,  // measure 18
0100
0010
0001
0000
,  // measure 19
0100
0010
1000
0100
,  // measure 20
0010
0100
1000
0010
,  // measure 21
0100
0001
1000
0000
,  // measure 22
0100
0010
0100
0000
,  // measure 23
0010
0000
0010
0001
,  // measure 24
0000
1000
2002
3003
,  // measure 25
0002
0000
0103
0000
,  // measure 26
0010
1000
0100
0010
,  // measure 27
0002
0000
1003
0000
,  // measure 28
0001
0100
0010
1000
,  // measure 29
1020
0000
0130
0000
,  // measure 30
0102
0100
1003
0000
,  // measure 31
1100
0000
0000
0000
0101
0000
0000
0110
,  // measure 32
0000
0110
0000
1000
0001
0000
0000
0000
,  // measure 33
0200
0300
0000
0000
,  // measure 34
0000
0000
0000
0000
,  // measure 35
0001
0000
1000
0000
,  // measure 36
0001
0001
1000
1000
,  // measure 37
0001
0000
1000
0000
,  // measure 38
0100
0010
0001
0000
,  // measure 39
1000
0000
0001
0000
,  // measure 40
0100
0000
0000
0000
0000
0000
0000
0000
0000
0000
0000
0000
0000
0000
0000
0000
0100
0000
0000
0000
0000
0000
0000
0000
0000
0000
0000
0000
0000
0000
0000
0000
0200
0000
0000
0000
0000
0000
0000
0000
0000
0000
0000
0000
0000
0000
0000
0300
0000
0000
0000
0000
0000
0000
0000
0000
0000
0000
0000
0000
0000
0000
0000
0000
,  // measure 41
0001
1000
0001
0010
,  // measure 42
0100
0020
0030
0002
,  // measure 43
0000
2003
0000
3010
,  // measure 44
0100
0010
0110
1002
,  // measure 45
0000
0023
0000
0130
,  // measure 46
0010
0001
1000
0110
,  // measure 47
0110
1001
1001
0110
,  // measure 48
1001
0220
0330
0001
,  // measure 49
0001
1000
0100
0010
,  // measure 50
0010
0020
0030
0001
,  // measure 51
0001
0100
0010
1000
,  // measure 52
1000
2000
0000
3001
,  // measure 53
0001
0010
0100
0010
,  // measure 54
0010
0020
0030
0002
,  // measure 55
0003
2000
3000
0001
,  // measure 56
0100
0010
1000
0001
,  // measure 57
0000
0000
0000
1000
,  // measure 58
0000
0000
0000
0001
,  // measure 59
0010
0100
1000
0001
,  // measure 60
1000
0000
0000
1000
0000
0000
0000
0000
,  // measure 61
0001
0000
0000
0001
0000
0000
0010
0000
,  // measure 62
0100
0000
0000
0100
0000
0000
0000
0000
,  // measure 63
1000
0000
0000
1000
0000
0000
0001
0000
,  // measure 64
0100
0000
0000
0110
0000
0000
0010
0000
,  // measure 65
1000
0000
0000
1001
0000
0000
1000
0000
,  // measure 66
0001
0100
1000
0100
,  // measure 67
0001
0000
0000
2000
0000
0000
0000
3000
,  // measure 68
0100
0000
0000
0100
0000
0000
0000
0000
,  // measure 69
0010
0000
0000
0010
0000
0000
0001
0000
,  // measure 70
1000
0000
0000
1000
0000
0000
0000
0000
,  // measure 71
0010
0000
0000
0010
0000
0000
0100
0000
,  // measure 72
0101
0000
0000
0001
0000
0000
1000
0000
,  // measure 73
1100
0000
0000
0100
0000
0000
0010
0000
,  // measure 74
0011
0000
0000
0000
,  // measure 75
0000
0000
0000
0100
,  // measure 76
1100
0000
0000
0000
,  // measure 77
0002
0000
0000
1003
,  // measure 78
0001
0000
0010
0000
,  // measure 79
0001
0010
0100
0000
,  // measure 80
1000
0000
0001
0000
,  // measure 81
1000
0010
0100
0000
,  // measure 82
0001
0002
0000
0103
,  // measure 83
0010
0000
0020
0000
0000
0000
1030
0002
,  // measure 84
0000
0000
0013
0002
0000
0000
1003
0002
,  // measure 85
0000
1003
2002
3003
,  // measure 86
0110
0000
0000
0110
0000
0000
2002
0000
,  // measure 87
3003
0220
0000
0000
,  // measure 88
0000
0000
0330
0000
;
