#TITLE:Anything;
#SUBTITLE:(pt. 2);
#ARTIST:An Endless Sporadic;
#TITLETRANSLIT:;
#SUBTITLETRANSLIT:;
#ARTISTTRANSLIT:;
#GENRE:;
#CREDIT:;
#BANNER:[Last Song] Anything (pt. 2)-bn.png;
#BACKGROUND:[Last Song] Anything (pt. 2)-bg.png;
#LYRICSPATH:;
#CDTITLE:;
#MUSIC:[Last Song] Anything (pt. 2).mp3;
#OFFSET:-0.090000;
#SAMPLESTART:15.000000;
#SAMPLELENGTH:12.000000;
#LASTBEATHINT:478.376953;
#SELECTABLE:YES;
#BPMS:0.000000=257.500000
,192.000000=249.999985
,208.000000=252.500015
,216.000000=255.000000
,264.000000=257.500000
,296.000000=237.500000
,312.000000=240.000000
,328.000000=242.499985
,360.000000=130.000000
,390.000000=126.250008
,392.000000=252.500015
,432.000000=237.500000
,440.000000=245.000015
;
#STOPS:
;
#BGCHANGES:;
#KEYSOUNDS:;
#ATTACKS:;

//---------------dance-single - ----------------
#NOTES:
     dance-single:
     :
     Easy:
     4:
     0.292134,0.588943,0.286292,0.253573,0.000000,250.000000,215.000000,35.000000,31.000000,0.000000,0.000000,0.292134,0.588943,0.286292,0.253573,0.000000,250.000000,215.000000,35.000000,31.000000,0.000000,0.000000:
0000
0000
0000
0000
,
0000
0000
0000
0000
,
0000
0000
0000
0000
,
0000
0000
0000
0000
,
0000
0000
0000
0000
,
0000
0000
0000
0000
,
0000
0000
0000
0000
,
0000
0000
0000
0000
,
0100
0000
0100
0000
,
0010
0000
1010
0000
,
0100
0000
0100
0000
,
0010
0000
0011
0000
,
0001
0000
0001
0000
,
0010
0000
1100
0000
,
1000
0000
0000
1000
0000
0000
0000
0010
,
0000
0000
0000
0101
0000
0000
0000
0000
,
0000
1000
0000
0000
0100
0000
0000
0000
,
0010
0000
0011
0000
,
0001
0000
0100
0000
,
0010
0000
1010
0000
,
1000
0000
0100
0000
,
0001
0000
0100
0000
,
0010
0000
0001
0000
,
1000
0000
0010
0000
,
1000
0000
1000
0000
,
0100
0000
0101
0000
,
0001
0000
0001
0000
,
0010
0000
1010
0000
,
2000
0000
0000
0000
,
0000
0000
0000
0000
,
3001
0000
0010
0000
,
1000
0000
1001
0000
,
2000
0000
0000
0000
,
3002
0000
0000
0000
,
0103
0000
0100
0000
,
0010
0000
1000
0000
,
1100
0000
0100
0000
,
0010
0000
0001
0000
,
0101
0000
0010
0000
,
1000
0000
0001
0000
,
0011
0000
0001
0000
,
0100
0000
0010
0000
,
1010
0000
1000
0000
,
0100
0000
0001
0000
,
0110
0000
0001
0000
,
0010
0000
1000
0000
,
1001
0000
0001
0000
,
0100
0000
0010
0000
,
0001
0000
1000
0000
,
0010
0000
0100
0000
,
2000
0000
0100
0000
,
0010
0000
3001
0000
,
0002
0000
0010
0000
,
0100
0000
1003
0000
,
0020
0000
1000
0000
,
0130
0000
0001
0000
,
0200
0000
0001
0000
,
0310
0000
1000
0000
,
1000
0000
0100
0000
,
0001
0000
0001
0000
,
0100
0000
0010
0000
,
0001
0000
0100
0000
,
0001
0000
0100
0000
,
1000
0000
1000
0000
,
0100
0000
0010
0000
,
1000
0000
0100
0000
,
0010
0000
0011
0000
,
1000
0000
0100
0000
,
0010
0000
1010
0000
,
0001
0000
0100
0000
,
0001
0000
0010
0000
,
0100
0000
1000
0000
,
0100
0000
0000
0100
0000
0000
0000
0010
,
0000
0000
0010
0000
0000
0010
0000
0000
,
0002
0000
0000
0000
,
2003
0000
0000
0000
,
3200
0000
0000
0000
,
0320
0000
0000
0000
,
0032
0000
0000
0000
,
0023
0000
0000
0000
,
0230
0000
0000
0000
,
2300
0000
0000
0000
,
3001
0000
0001
0000
,
0100
0000
0110
0000
,
1000
0000
1000
0000
,
0100
0000
0110
0000
,
0001
0000
0100
0000
,
0010
0000
1001
0000
,
0010
0000
0100
0000
,
1000
0000
1001
0000
,
1000
0100
0010
0001
,
0100
0010
1000
0001
,
0010
0100
1000
0001
,
0100
0010
1000
0001
,
0100
0100
0100
1001
,
0010
0010
0010
1001
,
1000
1000
1000
0110
,
0001
0001
0001
0110
,
2001
0000
3200
0000
,
0302
0000
0203
0000
,
2300
0000
3020
0000
,
0000
0130
0100
0000
,
0020
0000
2030
0000
,
3200
0000
0320
0000
,
0032
0000
0203
0000
,
0000
0010
0310
0000
,
1000
0000
1100
0000
,
0001
0000
0101
0000
,
1000
0000
1010
0000
,
0001
0000
0011
0000
,
2000
0000
0000
0000
,
0200
0000
0000
3300
,
0011
0000
0000
0101
,
0000
0000
1100
0000
,
1010
0000
0000
0220
,
0000
0000
0000
0000
,
0000
0000
0000
0000
,
0000
0000
0000
0000
,
0000
0000
0000
0000
,
0000
0000
0000
0000
,
0330
0000
0000
0000
;

//---------------dance-single - ----------------
#NOTES:
     dance-single:
     :
     Beginner:
     1:
     0.127371,0.294471,0.065438,0.139056,0.000000,109.000000,101.000000,8.000000,17.000000,0.000000,0.000000,0.127371,0.294471,0.065438,0.139056,0.000000,109.000000,101.000000,8.000000,17.000000,0.000000,0.000000:
0000
0000
0000
0000
,
0000
0000
0000
0000
,
0000
0000
0000
0000
,
0000
0000
0000
0000
,
0000
0000
0000
0000
,
0000
0000
0000
0000
,
0000
0000
0000
0000
,
0000
0000
0000
0000
,
1000
0000
0000
0000
,
0100
0000
0000
0000
,
0001
0000
0000
0000
,
0100
0000
0000
0000
,
0001
0000
0000
0000
,
0010
0000
0000
0000
,
1000
0000
0000
0000
,
0020
0000
0000
0000
,
0000
0000
0130
0000
,
0000
0000
1000
0000
,
0000
0000
0001
0000
,
0000
0000
0100
0000
,
0000
0000
0010
0000
,
0000
0000
1000
0000
,
0000
0000
0001
0000
,
0000
0000
0010
0000
,
0000
0000
0100
0000
,
0000
0000
1001
0000
,
0000
0000
0010
0000
,
0000
0000
0001
0000
,
2000
0000
0000
0000
,
0000
0000
0000
0000
,
3001
0000
0000
0000
,
0110
0000
0000
0000
,
0200
0000
0000
0000
,
0000
0000
0000
0000
,
0310
0000
0000
0000
,
1000
0000
0000
0000
,
0001
0000
0000
0000
,
0100
0000
0000
0000
,
0001
0000
0000
0000
,
0010
0000
0000
0000
,
0100
0000
0000
0000
,
1000
0000
0000
0000
,
0001
0000
0000
0000
,
0001
0000
0000
0000
,
1000
0000
0000
0000
,
1000
0000
0000
0000
,
0010
0000
0000
0000
,
0100
0000
0000
0000
,
2002
0000
0000
0000
,
0000
0000
3003
0000
,
0100
0000
0000
0000
,
0010
0000
0000
0000
,
1000
0000
0000
0000
,
0001
0000
0000
0000
,
0010
0000
0000
0000
,
0100
0000
0000
0000
,
0001
0000
0000
0000
,
1000
0000
0000
0000
,
0100
0000
0000
0000
,
0100
0000
0000
0000
,
0010
0000
0000
0000
,
0010
0000
0000
0000
,
0001
0000
0000
0000
,
0001
0000
0000
0000
,
1000
0000
0000
0000
,
1000
0000
0000
0000
,
0010
0000
0000
0000
,
1000
0000
0000
0000
,
0001
0000
0000
0000
,
0100
0000
0000
0000
,
1000
0000
0000
0000
,
0001
0000
0000
0000
,
0100
0000
0000
0000
,
0010
0000
0000
0000
,
0002
0000
0000
0000
,
0003
0000
0000
0000
,
0200
0000
0000
0000
,
0300
0000
0000
0000
,
0020
0000
0000
0000
,
0030
0000
0000
0000
,
2000
0000
0000
0000
,
3000
0000
0000
0000
,
1001
0000
0000
0000
,
0100
0000
0000
0000
,
0010
0000
0000
0000
,
1001
0000
0000
0000
,
0110
0000
0000
0000
,
0001
0000
0000
0000
,
1000
0000
0000
0000
,
0110
0000
0000
0000
,
0200
0000
0000
0300
,
0020
0000
0000
0030
,
2000
0000
0000
3000
,
0002
0000
0000
0003
,
0010
0000
0010
0000
,
0100
0000
0100
0000
,
0010
0000
0001
0000
,
1000
0000
0100
0000
,
1001
0000
0000
0000
,
1000
0000
0000
0000
,
0100
0000
0000
0000
,
0010
0000
0000
0000
,
0001
0000
0000
0000
,
0100
0000
0000
0000
,
0010
0000
0000
0000
,
1000
0000
0000
0000
,
0001
0000
0000
0000
,
1000
0000
0000
0000
,
0020
0000
0000
0000
,
0000
0000
0000
0000
,
0230
0000
0000
0000
,
0000
0000
0000
0000
,
0302
0000
0000
0000
,
0000
0000
0000
0000
,
2003
0000
0000
0000
,
0000
0000
0000
0000
,
0000
0000
0000
0000
,
0000
0000
0000
0000
,
0000
0000
0000
0000
,
0000
0000
0000
0000
,
3000
0000
0000
0000
;

//---------------dance-single - ----------------
#NOTES:
     dance-single:
     :
     Medium:
     7:
     0.470920,0.883414,0.269932,0.212674,0.032719,403.000000,370.000000,33.000000,26.000000,0.000000,0.000000,0.470920,0.883414,0.269932,0.212674,0.032719,403.000000,370.000000,33.000000,26.000000,0.000000,0.000000:
0000
0000
0000
0000
,
0000
0000
0000
0000
,
0000
0000
0000
0000
,
0000
0000
0000
0000
,
0000
0000
0000
0000
,
0000
0000
0000
0000
,
0000
0000
0000
0000
,
0000
0000
0000
0000
,
0001
0001
0100
0010
,
1000
0010
0100
0001
,
1000
1000
0100
0010
,
0001
0010
0100
1000
,
0010
0010
1000
0001
,
0100
0001
1000
0010
,
0100
0000
0100
0001
0000
0000
0000
1000
,
0000
0000
0000
0010
0000
0000
0000
0001
,
0000
0100
0010
0001
,
1000
1000
0010
0100
,
0000
0100
0010
1000
,
0001
0001
0010
0100
,
1000
1000
0100
0001
,
0100
0100
0010
0000
,
0001
0001
0100
0020
,
0000
2030
0000
0000
3200
0000
0000
0000
,
1300
1000
0100
0010
,
0001
0100
1001
0000
,
0001
0001
0100
0010
,
1000
0100
0110
0000
,
0001
0000
0000
0000
0010
0000
0000
0000
0100
0000
0000
0000
,
1000
0000
0000
0000
0100
0000
0000
0000
0010
0000
0000
0000
,
1000
0100
0010
0001
,
0100
0000
0001
0000
0000
1000
0000
0000
,
0200
0000
1000
0000
,
0010
0000
0001
0300
,
0100
0100
1100
0000
,
1000
0001
0101
0000
,
0100
0100
0101
0000
,
0001
1000
1010
0000
,
0010
0010
1010
0000
,
1000
0001
0011
0000
,
0010
0010
0011
0000
,
0001
0100
1100
0000
,
1000
0100
1000
0001
,
0100
0001
0010
0000
,
0001
0010
0001
1000
,
0010
1000
0100
0000
,
1000
0010
0100
0001
,
0100
0010
1000
0001
,
0010
0000
0100
0000
2000
0000
0000
3002
,
0000
0000
0000
2003
0000
3020
0000
0000
,
0130
0000
0001
0100
,
0000
0010
1000
0000
,
0100
0000
1000
0100
,
0000
0010
0001
0000
,
0100
0000
0001
1000
,
0000
0100
0010
0000
,
0001
0000
0000
0010
0000
0000
0100
0000
,
0000
1000
0000
0000
0010
0000
0100
0000
,
0001
0100
0001
0000
,
1000
0100
1000
0000
,
0010
0100
0010
1000
,
0001
0010
0100
0000
,
0001
0010
0001
0000
,
1000
0010
1000
0000
,
0001
0100
1000
0002
,
0000
0023
0000
0000
2030
0000
0000
0000
,
3010
0100
1000
0001
,
1000
0100
0010
0000
,
0010
0100
0001
1000
,
0001
0100
0010
1000
,
0100
0010
0001
0010
,
0100
1000
0100
0000
,
0010
0000
0000
1010
0000
0000
0000
0101
,
0000
0000
1100
0000
0000
0110
0000
0000
,
0202
0003
0020
0300
,
2000
0030
0200
3000
,
0020
0300
0002
0030
,
2000
0003
3002
0203
,
0310
1000
0100
0001
,
0100
1000
0001
0100
,
1000
0100
0001
0010
,
0100
0010
1001
0000
,
1000
0100
0010
0001
,
1000
0100
0010
0000
,
0001
0100
0010
1000
,
0001
0100
0010
0000
,
1000
0010
0001
0010
,
1000
0001
0010
1000
,
0010
0001
0100
0010
,
1000
0001
1001
0000
,
1000
0000
1000
0100
0000
0000
0110
0000
0000
0000
0001
0000
0100
0000
0000
0000
,
0001
0000
0001
0100
0000
0000
0110
0000
0000
0000
1000
0000
0100
0000
0000
0000
,
0001
0000
0001
0010
0000
0000
0110
0000
0000
0000
0100
0000
1000
0000
0000
0000
,
1000
0000
1000
0010
0000
0000
0110
0000
0000
0000
0100
0000
0001
0000
0000
0000
,
1000
0100
0010
0001
0000
1001
0110
0000
,
0001
0010
0100
1000
0000
0110
1001
0000
,
1000
0100
0010
0001
0010
0100
1000
0001
,
0100
0010
1000
0010
0100
0001
0001
1100
,
0100
0000
0000
0010
0000
0000
0001
0000
,
0000
0010
0000
0000
0100
0000
0000
0100
,
0000
0010
1000
0100
,
1000
0010
0010
0010
,
0100
0100
0001
0100
,
0010
1000
0100
0000
,
0100
0100
1000
0100
,
0010
0001
0100
0000
,
0001
0000
0000
1000
0000
0000
0010
0000
,
0000
0100
0000
0000
0001
0000
1000
0000
,
0010
0010
1000
0100
,
0010
0010
0001
0100
,
0020
0000
0000
0001
,
0000
0100
0000
0000
1030
0000
0000
0000
,
1010
0000
0000
1100
0000
0000
0101
0000
,
0000
0022
0000
0000
0000
0000
0033
0000
,
0110
0000
0000
1001
0000
0000
0220
0000
,
0000
0000
0000
0000
,
0000
0000
0000
0000
,
0000
0000
0000
0000
,
0000
0000
0000
0000
,
0000
0000
0000
0000
,
0330
0000
0000
0000
;

//---------------dance-single - ----------------
#NOTES:
     dance-single:
     :
     Hard:
     10:
     0.788762,1.570514,0.245393,0.343550,0.224943,675.000000,645.000000,30.000000,42.000000,0.000000,0.000000,0.788762,1.570514,0.245393,0.343550,0.224943,675.000000,645.000000,30.000000,42.000000,0.000000,0.000000:
0000
0000
0000
0000
,
0000
0000
0000
0000
,
0000
0000
0000
0000
,
0000
0000
0000
0000
,
0000
0000
0000
0000
,
0000
0000
0000
0000
,
0000
0000
0000
0000
,
0000
0000
0000
0000
,
1000
0000
1000
0100
0000
0100
0010
0001
,
0010
0001
1000
0100
1000
0100
0010
0000
,
0001
0000
0001
0100
0000
0100
0010
1000
,
0010
1000
0001
0100
0001
0100
0010
0000
,
1000
0000
0100
0010
0000
0001
0010
0100
,
1000
0100
0010
0100
1000
0100
0010
0000
,
0001
0000
0001
0100
0000
0010
1000
0010
,
0000
1000
0100
1000
0000
0001
0100
0001
,
0100
0001
1000
0000
0100
1000
0000
1000
,
0001
0000
0001
0100
0000
0100
0010
0000
,
0100
1000
0001
0000
0100
0010
1000
0010
,
0100
0001
0100
0010
1000
0001
1000
0000
,
0010
0001
1000
0000
0100
1000
0000
1000
,
0001
0000
0001
0100
0000
0100
0010
0000
,
0010
1000
0001
0000
0100
0001
0011
0000
,
0000
1010
0000
0000
2002
0000
3003
0000
,
1000
0100
1000
0100
0010
0000
0001
0010
,
0001
0010
0100
0000
1000
0000
0001
0000
,
0100
0001
0100
0001
1000
0000
0010
1000
,
0010
1000
0001
0100
0010
1000
0001
0000
,
1000
0000
1000
0000
0100
0000
0100
0000
0010
0000
0010
0000
,
0001
0000
0001
0000
0010
0000
0010
0000
0100
0000
0100
0000
,
1000
0000
1100
0000
0000
0011
0000
0101
,
0000
1001
0000
0000
0000
0110
0000
0000
,
1001
0000
1000
0100
0010
0001
0010
0100
,
1000
0001
0010
0100
1000
0100
0010
0001
,
0100
0000
0000
0001
0100
0000
0010
0000
,
1000
1000
1100
0000
,
0100
0000
0000
1000
0100
0000
0010
0000
,
0001
0001
0101
0000
,
0010
0000
0000
0010
1000
0000
0001
0000
,
0010
0100
1001
0000
,
0010
0000
0000
0010
0001
0000
0100
0000
,
0010
0000
1000
0001
0000
0200
0000
0000
,
0310
0000
0000
1000
0010
0000
0100
0000
,
0001
0010
1100
0000
,
0010
0000
0000
0001
0010
0000
0100
0000
,
1000
0010
0101
0000
,
0001
0100
0000
0100
1000
0000
0001
0010
,
0000
0010
1000
0000
0001
0000
1000
0000
,
0010
1000
0010
0000
0100
0001
0100
0000
,
0001
0010
0100
1000
0000
1001
0000
0000
,
0001
0100
0010
1000
0010
0100
0001
0100
,
0001
1000
0100
0010
0000
0001
0010
0100
,
1000
0001
0100
0001
1000
0010
0100
0002
,
0000
0000
0000
0003
0000
1000
0010
0100
,
0001
1000
0100
0010
0001
0000
0001
1000
,
0000
1000
0000
0010
0000
0010
0100
0001
,
0020
0000
0000
0032
0000
0000
2003
0000
,
0000
3020
0000
0000
0130
0000
1001
0000
,
1000
0100
1000
0010
0100
0000
0001
0100
,
0001
0000
1000
0001
1000
0000
0110
0000
,
0001
0100
0001
0010
0100
0000
1000
0100
,
1000
0001
0100
0001
0010
0100
1000
0001
,
0010
0001
1000
0010
0100
0000
0001
0100
,
0001
0000
1000
0100
1000
0000
1001
0000
,
0010
1000
0001
0010
0100
0000
2200
0000
,
3300
2002
0000
3003
0202
0000
0000
0303
,
0001
0100
0010
1000
0001
0000
1000
0100
,
0010
0000
0001
0100
0010
0000
0110
0000
,
1000
0100
0010
0001
1000
0000
0001
0100
,
1000
0100
0001
1000
0010
0100
0001
1000
,
0100
1000
0001
0010
0100
0000
1000
0010
,
0100
0000
0001
0010
0100
0000
1001
0000
,
0001
0100
0010
1010
0000
0100
0010
0011
,
0000
0000
1100
0000
0000
0101
0000
0000
,
0001
0010
0100
1000
0001
1000
0001
0010
,
0100
1000
0001
1000
0001
0100
0010
1000
,
0001
1000
0001
0100
0010
1000
0001
1000
,
0001
0100
0010
1000
0001
1000
0001
0010
,
0100
1000
0001
1000
0100
0001
1000
0001
,
0100
0010
0001
1000
0001
0010
0100
1000
,
0001
0000
0001
0000
0001
0000
0010
0000
0010
0000
0010
0000
,
0100
0000
0100
0000
0100
0000
1000
0000
1000
0000
1000
0000
,
0002
0000
0000
0000
0013
0100
1000
0001
,
0010
0100
0001
2000
0000
0000
3100
0001
,
1000
0001
0100
1000
0001
0010
1000
0010
,
0001
1000
0001
0200
0000
0000
0310
0000
,
1000
0000
0100
0000
0000
0001
0100
1000
,
0001
1000
0100
0001
0000
1000
0010
0001
,
1000
0100
0001
1000
0001
0010
0100
1000
,
0001
1000
0020
0000
0000
2030
0000
0000
,
3100
0000
0100
1000
0001
1000
0010
0000
0100
0000
0100
0001
1000
0001
0010
0000
,
0010
0000
0010
1000
0001
1000
0100
0000
0010
0000
0010
0001
1000
0001
0100
0000
,
0001
0000
0001
0010
0100
0010
1000
0000
1000
0000
1000
0100
0010
0100
0001
0000
,
0100
0000
0100
1000
0000
1000
0010
0000
0010
0001
0000
0001
0010
0100
0001
1000
,
0200
0000
0000
2300
0000
3100
0010
0002
0000
0000
0000
0203
0000
0000
0310
0000
,
2000
0000
0000
3002
0000
0000
0103
0000
2000
0000
0000
3002
0000
0000
0013
0000
,
1000
0100
1000
0001
0010
0001
1000
0100
1000
0001
0010
0001
0100
0010
1000
0001
,
0100
0001
1000
0010
1000
0001
0100
0001
1000
0010
1000
0100
0010
0001
1000
0000
,
1000
0000
1000
0100
0000
0100
0001
0000
,
0001
0010
0000
0010
1000
0000
1000
0001
,
0000
1000
0010
0100
0001
1000
0100
0010
,
0001
0000
0001
0100
0000
0100
1000
0000
,
1000
0010
1000
0100
0001
0000
0001
0100
,
1000
0000
0001
0010
1000
0000
0110
0000
,
0001
0010
0001
0100
1000
0000
0100
0001
,
0000
1000
0010
0001
0010
1000
1001
0000
,
0001
0000
0001
0100
0000
0100
1000
0000
,
1000
0010
0000
0010
0001
0000
1000
0000
,
0100
0010
0100
0010
1000
0001
1000
0001
,
0010
0100
1000
0001
0010
0001
0100
0010
,
2000
0000
0000
3200
0000
0000
0302
0000
,
0000
2003
0000
0000
3020
0000
0032
0000
,
0203
0000
0000
2300
0000
0000
3020
0000
,
0000
0032
0000
0000
0203
0000
0000
0000
,
0320
0000
0000
0230
0000
0300
2002
0000
,
0000
0000
0000
0000
,
0000
0000
0000
0000
,
0000
0000
0000
0000
,
0000
0000
0000
0000
,
0000
0000
0000
0000
,
3003
0000
0000
0000
;

//---------------dance-single - ----------------
#NOTES:
     dance-single:
     :
     Challenge:
     12:
     1.064537,1.914063,1.030650,0.368089,0.564403,911.000000,785.000000,126.000000,45.000000,0.000000,0.000000,1.064537,1.914063,1.030650,0.368089,0.564403,911.000000,785.000000,126.000000,45.000000,0.000000,0.000000:
// measure 0
0000
0000
0000
0000
,  // measure 1
0000
0000
0000
0000
,  // measure 2
0000
0000
0000
0000
,  // measure 3
0000
0000
0000
0000
,  // measure 4
0000
0000
0000
0000
,  // measure 5
0000
0000
0000
0000
,  // measure 6
0000
0000
0000
0000
,  // measure 7
0000
0000
0000
0000
,  // measure 8
1010
0001
0100
0011
0000
0001
0100
1000
,  // measure 9
0100
0001
0010
1000
0010
0001
0110
0000
,  // measure 10
0101
1000
0010
1100
0000
1000
0010
0100
,  // measure 11
0001
1000
0100
1000
0001
0000
0100
0000
1010
0000
1000
0000
0100
0000
0010
0000
,  // measure 12
0011
0100
0010
1100
0000
0001
0100
0110
,  // measure 13
1000
0010
0001
0010
1000
0100
0001
0100
,  // measure 14
1000
0010
0100
0202
0003
1300
0010
2200
,  // measure 15
3000
0301
0010
2002
3003
0010
0100
1001
,  // measure 16
1000
0100
0001
0000
0011
0100
0000
1010
,  // measure 17
0100
0000
0101
0100
0000
1100
0100
0000
,  // measure 18
1000
0010
0001
0000
1010
0010
0000
0100
,  // measure 19
0001
0010
0001
0100
0001
0000
1000
0000
1100
0000
0010
0000
0001
0000
0000
0000
,  // measure 20
0001
0100
1000
0000
1010
0100
0000
0011
,  // measure 21
0100
0000
1100
0001
0000
0101
1000
0000
,  // measure 22
0010
1000
0100
0001
0010
0000
0022
0000
,  // measure 23
0030
0200
0000
0003
2000
0000
3300
0000
,  // measure 24
1000
0100
0010
0001
0101
0010
0000
1100
,  // measure 25
0010
0000
0101
1000
0000
1100
0001
0000
,  // measure 26
0001
0010
0100
1000
1010
0000
0010
0100
,  // measure 27
0001
1000
0010
1000
0001
0000
0010
0000
1100
0000
0010
0000
0001
0000
0000
0000
,  // measure 28
1000
0000
0100
0000
0001
0000
0010
0000
0001
0000
0100
0000
,  // measure 29
1000
0000
0001
0000
0010
0000
1000
0001
0010
0100
1000
0000
,  // measure 30
1001
0000
1010
1000
0100
1001
0000
0011
,  // measure 31
0001
0101
0000
0010
1000
1100
0000
0000
,  // measure 32
0110
0001
0010
1000
0100
0001
0010
1000
,  // measure 33
0100
0010
0001
0100
0010
1000
0100
0001
,  // measure 34
1000
0100
1000
0100
0010
0000
0001
0100
,  // measure 35
1010
1100
1001
0110
,  // measure 36
0001
0100
0010
0001
0010
0100
0001
1000
,  // measure 37
0010
0100
0110
1001
,  // measure 38
0001
0100
0001
0100
0010
0000
1000
0100
,  // measure 39
0011
0101
1001
0110
,  // measure 40
0020
0000
1030
0100
0020
0000
0130
1000
,  // measure 41
0020
0000
0032
2003
0000
3200
0000
0000
,  // measure 42
0301
0010
0001
0010
0100
1000
0001
0100
,  // measure 43
1000
0010
1000
0010
0100
0001
1000
0100
,  // measure 44
0010
0001
0010
0100
0001
1000
0100
1000
,  // measure 45
0010
1000
0010
0100
1000
0001
0100
0001
,  // measure 46
0100
1000
0010
1000
0100
0001
0010
0001
,  // measure 47
0100
1000
0001
0100
0010
1000
0001
0010
,  // measure 48
1000
0010
0100
0001
0010
0100
0001
0010
,  // measure 49
0100
1000
0010
0100
1000
0002
0000
0000
,  // measure 50
1003
0100
0001
1000
0010
0001
1000
0100
,  // measure 51
0001
1000
0010
0001
0100
0010
1000
0001
,  // measure 52
0010
0000
0001
0000
0010
0000
0001
0000
1000
0000
0001
0000
1000
0000
0000
0100
0000
0000
0220
0000
0000
0030
0000
0000
,  // measure 53
0002
0003
0320
0000
0000
1000
0000
0130
,  // measure 54
0010
0001
0100
1000
0020
0000
1030
1100
,  // measure 55
0000
0101
0000
1010
0000
0011
1000
0100
,  // measure 56
0010
0000
0001
0000
0010
0000
0001
0000
0000
1000
0000
0010
0000
1000
0000
0010
0000
0000
0100
0000
0010
0000
0100
0000
,  // measure 57
0010
0000
0000
1000
0000
0001
0000
1000
0000
0001
0000
0000
0010
0000
0000
0001
0000
0000
1000
0000
0000
0100
0000
0000
,  // measure 58
0010
1000
0010
0100
1000
0100
0000
0011
,  // measure 59
0100
0000
1010
0100
0000
1001
0100
0000
,  // measure 60
0010
0001
0010
0100
0001
0100
0010
0001
,  // measure 61
1000
0010
0100
0010
1000
0000
0100
0000
0110
0000
0010
0000
0001
0000
1000
0000
,  // measure 62
0010
0001
0010
0100
0001
0100
0000
0011
,  // measure 63
1000
0000
0101
1000
0000
0110
1000
0000
,  // measure 64
1100
0001
0000
1010
0001
0000
0220
0000
,  // measure 65
0030
2000
0000
0300
0002
0000
0000
3003
,  // measure 66
0100
0010
0001
0100
0010
0001
0000
1010
,  // measure 67
0001
0000
0110
0001
0000
0101
0001
0000
,  // measure 68
0100
0010
1000
0100
0010
1000
0100
0010
,  // measure 69
0001
0100
0010
0100
0001
0000
1000
0000
1100
0000
0100
0000
0010
0000
0001
0000
,  // measure 70
0101
0010
1000
0010
0001
1000
0000
1100
,  // measure 71
0010
0000
0101
0010
0000
1001
0110
0000
,  // measure 72
0010
1000
0100
0012
0000
0203
1300
2010
,  // measure 73
0000
3200
0302
0000
0003
0220
0000
0330
,  // measure 74
1000
0000
0010
0000
1000
0000
0010
0000
0100
0000
0010
0000
0100
0000
0001
0000
0100
0000
0001
0000
0000
0010
0000
0000
,  // measure 75
0001
0000
0010
0000
0001
0000
0010
0000
0100
0000
0010
0000
0100
0000
1000
0000
0100
0000
1000
0000
0000
0001
0000
0000
,  // measure 76
0100
0000
0010
0000
0100
0000
0010
0000
1000
0000
0010
0000
1000
0000
0001
0000
1000
0000
0001
0000
0000
0010
0000
0000
,  // measure 77
1000
0000
0100
0000
0010
0000
0001
0000
0010
0000
0100
0000
1000
0000
0010
0000
0100
0000
0001
0000
0000
1000
0000
0000
,  // measure 78
0100
0000
1000
0000
0100
0000
1000
0000
0010
0000
0100
0000
0001
0000
0000
0100
0000
0000
0010
0000
0000
0100
0000
0000
,  // measure 79
0001
0000
0100
0000
0001
0000
0010
0000
0100
0000
1000
0000
0010
0000
0000
0100
0000
0000
0010
0000
0000
1000
0000
0000
,  // measure 80
0100
0000
1100
0000
1010
0000
0011
0000
0101
0000
0110
0000
,  // measure 81
2002
0000
0000
0000
0000
3003
0010
1000
0100
0010
0001
0100
,  // measure 82
0020
0000
0000
0030
1010
0100
0100
0011
,  // measure 83
0100
0100
2200
0000
3000
0302
0010
0013
,  // measure 84
0100
1000
0010
0010
1000
0100
0001
0001
,  // measure 85
0100
0010
1000
2000
0000
0000
3100
0100
,  // measure 86
0010
0000
0011
0000
0001
0100
1000
0010
,  // measure 87
1000
0100
0010
0001
0000
0001
0010
0100
,  // measure 88
0001
1000
0001
0100
1000
0100
0010
0001
,  // measure 89
0010
0000
1000
0000
0001
0000
0020
0000
0000
0000
0000
2000
0030
0000
0000
0000
,  // measure 90
3001
0100
1000
0100
0000
1000
0010
0001
0010
0000
1000
0001
1000
0001
0110
0000
,  // measure 91
1000
0010
0001
0010
0000
0001
0100
1000
0100
0000
0001
1000
0001
1000
0110
0000
,  // measure 92
1000
0001
0010
1001
0000
0001
1000
0010
1001
0000
0100
0010
0100
0010
1001
0000
,  // measure 93
1000
0010
0100
1000
0010
0100
1000
0010
0100
0001
0010
0100
0001
1000
0100
0010
,  // measure 94
0001
0000
0000
1010
0000
1000
0100
0001
0010
0000
0000
0011
0000
0001
0100
1000
,  // measure 95
0010
0000
0000
1100
0000
1000
0100
0001
0010
0000
0000
0101
0000
0001
0100
1000
,  // measure 96
0100
0001
0010
1000
0010
0001
0100
0010
1000
0010
0001
0100
1000
0100
0001
0010
,  // measure 97
1000
0010
1000
0010
1000
0010
0100
0001
0100
0001
0100
0001
1000
0001
1000
0001
1000
0001
0010
0000
0000
1001
0000
0000
,  // measure 98
1010
0000
0010
1001
0000
0010
0011
0000
,  // measure 99
1000
1001
0000
0110
0010
1000
0100
0001
,  // measure 100
0000
0001
0010
1000
0010
0001
0100
1000
,  // measure 101
0001
0010
0100
1100
0000
0010
0100
0101
,  // measure 102
0001
0010
0100
1000
1100
1010
0000
1100
,  // measure 103
1010
0000
0101
0011
0000
0101
0011
0000
,  // measure 104
1000
0010
0100
0001
0011
0101
0000
0011
,  // measure 105
0000
0010
0100
0000
1010
0100
1001
0000
,  // measure 106
0011
0000
1000
0110
0000
0001
1010
0000
,  // measure 107
0010
0101
0000
1100
1000
0100
0001
0100
,  // measure 108
1000
0000
0000
1000
0000
0000
0010
0000
0000
0010
0000
0000
0100
0000
0010
0000
0001
0000
0010
0000
0100
0000
0001
0000
,  // measure 109
0100
0100
0001
0001
1000
0110
0000
0001
,  // measure 110
0110
0000
0000
1100
0000
0001
0100
1000
,  // measure 111
0100
0001
0010
1000
0010
0001
0100
1000
,  // measure 112
0101
0000
0000
1100
0000
0000
0110
0000
,  // measure 113
0000
0000
0000
1001
0000
0000
0000
0000
0000
0000
0000
0000
1000
0000
0010
0000
0100
0000
0001
0000
0100
0000
0010
0000
,  // measure 114
2000
0000
0000
0200
0000
3000
0002
0000
,  // measure 115
0000
0000
0000
0000
,  // measure 116
0000
0000
0000
0000
,  // measure 117
0000
0000
0000
0000
,  // measure 118
0000
0000
0000
0000
,  // measure 119
0000
0000
0000
0000
,  // measure 120
0303
0000
0000
0000
;
