#VERSION:0.83;
#TITLE:Why did you go away;
#SUBTITLE:;
#ARTIST:jun with TAHIRIH;
#TITLETRANSLIT:;
#SUBTITLETRANSLIT:;
#ARTISTTRANSLIT:;
#GENRE:Eurobeat;
#ORIGIN:;
#CREDIT:;
#BANNER:[Falling Apart] - Why did you go away.png;
#BACKGROUND:[Falling Apart] - Why did you go away-bg.png;
#PREVIEWVID:;
#JACKET:[Falling Apart] - Why did you go away-jacket.png;
#CDIMAGE:;
#DISCIMAGE:;
#LYRICSPATH:;
#CDTITLE:;
#MUSIC:[Falling Apart] - Why did you go away.mp3;
#OFFSET:-0.820000;
#SAMPLESTART:48.799103;
#SAMPLELENGTH:12.093750;
#SELECTABLE:YES;
#BPMS:0.000=160.000;
#STOPS:;
#DELAYS:;
#WARPS:;
#TIMESIGNATURES:0.000=4=4;
#TICKCOUNTS:0.000=4;
#COMBOS:0.000=1;
#SPEEDS:0.000=1.000=0.000=0;
#SCROLLS:0.000=1.000;
#FAKES:;
#LABELS:0.000=Song Start;
#BGCHANGES:;
#KEYSOUNDS:;
#ATTACKS:
;

//---------------dance-single - ----------------
#NOTEDATA:;
#CHARTNAME:;
#STEPSTYPE:dance-single;
#DESCRIPTION:;
#CHARTSTYLE:;
#DIFFICULTY:Hard;
#METER:9;
#RADARVALUES:0.716373,0.733027,0.211766,0.016941,0.355766,592.000000,567.000000,25.000000,2.000000,0.000000,0.000000,0.000000,0.000000,0.000000,0.716373,0.733027,0.211766,0.016941,0.355766,592.000000,567.000000,25.000000,2.000000,0.000000,0.000000,0.000000,0.000000,0.000000;
#CREDIT:;
#NOTES:
0000
0000
0000
0000
,
0000
0000
0000
0000
,
1000
0010
0100
0001
0000
0010
0100
1000
,
0000
0001
0100
0010
0000
0100
0001
1000
,
0100
0010
0100
1000
0000
0010
0100
0001
,
0000
1000
0100
0010
0001
0100
0010
1000
,
0000
0001
0010
0001
1000
0100
0010
0001
,
0000
0000
1001
0000
0000
0000
0110
0000
0100
0000
0001
1000
0001
0000
1000
0001
,
1000
0000
0010
0000
0100
0000
0001
0010
0000
0001
1000
0000
0010
0000
1000
0000
,
0100
0010
0000
0010
0001
0000
0001
0100
0000
0010
1000
0000
0100
0000
1000
0000
,
0001
0000
0010
0000
0100
0000
1000
0010
0000
1000
0001
0000
0010
0000
0001
0000
,
0100
0010
0000
0010
1000
0000
1000
0100
0000
0010
0001
0000
0100
0000
0001
0000
,
1000
0000
0100
0000
0010
0000
0100
1000
0000
0001
1000
0000
0010
0000
0100
0000
,
0001
0010
0000
0010
0100
0000
0100
1000
0000
0010
0100
0000
0001
0000
0010
0000
,
0001
0000
0100
0000
0010
0000
0100
0001
0000
1000
0001
0000
0010
0000
0100
0000
,
0110
0000
0000
0000
0000
0000
0000
0000
0000
0000
0001
1000
0001
1000
0001
0000
,
1000
0010
1000
0010
0000
0100
0001
0100
,
0000
0001
0010
0100
0000
1000
0010
1000
,
0001
0010
0100
0010
0001
1000
0010
0100
,
0001
1000
0100
0010
0100
1000
0001
0100
,
0010
1000
0001
1000
0100
1000
0010
0100
,
0001
1000
0001
0100
0001
0010
0001
1000
,
0100
0010
0100
0001
0100
0010
0100
1000
,
0001
0000
0100
0000
0010
0000
0100
0000
1000
0000
0100
0000
0010
0000
0100
0001
,
0100
0001
0010
1000
0010
0001
1000
0000
,
0001
0100
0010
1000
0100
0001
0100
0000
,
1000
0100
0010
1000
0010
0001
0100
0000
,
0001
0100
0010
0001
0010
1000
0100
0010
,
0010
0100
1000
0010
0100
0001
0010
0000
,
0001
0100
1000
0001
0010
0100
0001
0000
,
1001
1000
0001
0000
1001
0001
1000
0000
,
1010
0000
0000
0101
0000
0000
0011
0000
0000
0000
1001
0000
0001
1000
0001
1000
,
0001
0010
0100
1000
0000
0001
0100
0010
,
0000
1000
0100
0010
0000
0010
0001
1000
,
0100
0001
0100
1000
0000
0010
0100
0001
,
0000
0000
0010
0000
0100
0000
1000
0000
0000
0000
0001
0000
1000
0000
0001
1000
,
0001
0100
0010
1000
0000
0001
0010
1000
,
0000
0010
0001
1000
0100
0010
0001
0100
,
0000
0010
1000
0010
0100
0001
0010
0100
,
0000
1100
0000
0101
0000
1000
0001
1000
,
0001
0000
1000
0010
0000
0010
0100
0010
,
0100
0000
0001
1000
0000
1000
0100
1000
,
0100
0000
0010
0001
1000
0001
0100
0010
,
1000
0100
0010
0001
0000
0100
0010
1000
,
0001
0000
1000
0010
1000
0000
0000
0000
0001
0000
0100
0000
0001
0000
0000
0000
,
0010
0000
0000
0000
0100
0000
0000
0000
1000
0000
0000
0010
0000
0000
0100
0000
,
0001
0000
1000
0100
1000
0000
0001
0010
,
1001
0000
1000
0010
0110
0000
1010
0000
,
0101
0000
0001
0000
1000
0000
0001
0010
0000
0001
1000
0000
0010
0000
0100
0000
,
0001
0010
0000
0010
0100
0000
0100
1000
0000
0001
1000
0000
0010
0000
0100
0000
,
0001
0000
1000
0000
0001
0000
1000
0010
0000
1000
0001
0000
0010
0000
0100
0000
,
1000
0010
0000
0010
0100
0000
0100
0001
0000
1000
0001
0000
0010
0000
0100
0000
,
1000
0000
0010
0000
1000
0000
0001
0100
0000
0001
0010
0000
0001
0000
0100
0000
,
0010
1000
0000
1000
0100
0000
0100
0010
0000
0001
0100
0000
0010
0000
1000
0000
,
0001
0000
0010
0000
0001
0000
1000
0100
0000
1000
0010
0000
1000
0000
0100
0000
,
0110
0000
0000
0000
0000
0000
0000
0000
0000
0000
1000
0001
1000
0001
1000
0000
,
2002
0000
0000
0000
,
3003
0000
0000
0000
0000
0000
0000
0000
0000
0000
1000
0010
1000
0000
0001
0000
,
1001
0000
0000
0000
0000
0000
0000
1000
,
0000
0000
0010
0000
0000
0000
0110
0000
0000
0000
0001
0100
0001
0000
1000
0000
,
0001
1000
0001
0000
1000
0000
0100
0010
0100
0000
1000
0000
0001
0000
0010
0000
,
0001
0100
0001
0000
1000
0000
0010
0000
1000
0100
1000
0000
0001
0000
0100
0000
,
0010
1000
0010
0000
0100
0000
0001
0010
0001
0000
1000
0000
0100
0000
0010
0000
,
0001
1000
0001
0000
1000
0000
0100
0010
0100
0000
1000
0000
0001
0000
0010
0000
,
0001
0100
0001
0000
1000
0000
0010
1000
0010
0000
1000
0000
0100
0010
0100
0000
,
0010
0000
0001
0000
0100
0000
0010
0000
1000
0000
0001
0000
1000
0001
1000
0001
,
1000
0100
1000
0000
0001
0000
0100
0010
0100
0000
0001
0000
0010
0000
0100
0000
,
0010
0100
0010
0000
0001
0000
1000
0010
1000
0000
0001
0000
0100
0000
0010
0000
,
1000
0100
1000
0000
0001
0000
0010
0100
0010
0000
0100
0000
1000
0000
1010
0000
,
0000
0101
0000
0011
0001
0010
0100
1000
,
0001
0010
0001
0000
1000
0000
0100
0010
0100
0000
1000
0000
0010
0000
0100
0000
,
0010
1000
0010
0000
1000
0000
0100
0010
0100
0000
0010
0000
0001
0000
0100
0000
,
0001
1000
0001
0000
1000
0000
0010
0100
0010
0000
1000
0000
0100
0010
0100
0000
,
1000
0000
0010
0000
0100
0000
0001
0000
0010
0000
0001
0000
1000
0001
1000
0001
,
1000
0010
0100
0110
0000
1001
0000
0110
,
0000
0000
1000
0001
1000
0000
0000
0000
0000
0000
0000
0000
0000
0000
0000
0000
;

//---------------dance-single - ----------------
#NOTEDATA:;
#CHARTNAME:;
#STEPSTYPE:dance-single;
#DESCRIPTION:;
#CHARTSTYLE:;
#DIFFICULTY:Medium;
#METER:7;
#RADARVALUES:0.450153,0.478061,0.160942,0.042353,0.008471,372.000000,353.000000,19.000000,5.000000,0.000000,0.000000,0.000000,0.000000,0.000000,0.450153,0.478061,0.160942,0.042353,0.008471,372.000000,353.000000,19.000000,5.000000,0.000000,0.000000,0.000000,0.000000,0.000000;
#CREDIT:;
#NOTES:
0000
0000
0000
0000
,
0000
0000
0000
0000
,
1000
0000
0001
0000
0010
0100
0010
0000
,
0100
0000
1000
0000
0001
1000
0001
1000
,
0001
0000
1000
0000
0010
0100
0010
0000
,
0100
0000
0001
0000
0010
0001
1000
0100
,
1000
0000
0001
0000
0010
0001
1000
0001
,
0000
0011
0000
1100
0000
1000
0100
0010
,
0001
0100
0010
1000
,
0100
0010
0001
0100
,
0010
1000
0001
0100
,
0001
0010
0001
0000
1000
0010
1000
0000
,
0100
1000
0010
0100
,
0001
0010
0100
0010
,
0001
1000
0100
1000
,
1001
0000
0000
0000
0000
1001
0000
0000
,
0001
0000
0010
0000
,
0100
0000
1000
0000
,
0001
1000
0010
1000
0000
0100
0000
0010
,
0000
0001
1000
0001
0000
1000
0000
0010
,
0100
0001
0010
0100
0000
1000
0000
0010
,
0000
1000
0100
1000
0000
0001
0100
0001
,
1000
0000
0100
0010
0000
0001
0100
0001
,
0000
1000
0000
0010
0000
1000
0100
0010
,
0001
0000
0100
0000
0001
0000
1000
0010
,
1000
0000
0100
0000
0010
0000
0001
0100
,
0001
0000
0010
0000
0100
0000
1000
0001
,
1000
0000
0010
0000
0100
0001
0100
0010
,
0100
0000
0001
0010
0000
0100
1000
0001
,
1000
0000
0100
0010
0000
0001
1000
0001
,
1000
0000
1001
0000
,
1001
0000
0000
1001
0000
0000
1001
0000
0000
0000
1001
0000
0000
0000
0000
0000
,
1000
0100
0010
0200
0000
2300
0000
3002
,
0000
0003
0000
0100
0000
0010
1000
0010
,
0100
0000
0001
0010
0000
0100
0000
0010
,
0000
0001
1000
0001
1000
0010
1000
0100
,
0010
0000
0001
0100
0000
0010
0000
2000
,
0000
0000
3100
0000
0010
0001
1000
0002
,
0000
0000
0103
0000
0001
0010
0100
0010
,
0000
0011
0000
1001
0000
1000
0001
1000
,
0001
0000
0000
0010
0000
0100
1000
0100
,
1000
0000
0000
0010
0000
0100
0001
0100
,
0001
1000
0001
0100
,
0010
1000
0010
1000
0000
0100
0000
0010
,
0000
0001
1000
0000
0001
0000
1000
0000
,
0100
0000
0000
0000
0010
0000
0000
0000
0001
0000
0000
0001
0000
0000
1000
0000
,
0010
0000
0100
0001
0010
0000
0100
1000
,
0001
0000
0000
1000
0001
0000
1001
0000
,
0110
0010
1000
0100
,
0010
0100
1000
0001
,
0100
0010
1000
0100
,
1000
0010
1000
0000
0001
0010
0001
0000
,
1000
0010
1000
0100
,
0010
0001
0100
0001
,
1000
0100
1000
0010
,
0100
0000
0000
0000
0000
1001
0000
0000
,
1000
0000
0000
0000
,
0001
0000
0000
0100
,
0110
0000
0000
0000
0000
0000
0000
0010
,
0000
0010
0000
0010
0000
0100
0001
0000
,
1000
0010
1000
0000
0001
0100
0000
0001
,
0010
0001
1000
0000
0001
0100
0010
0000
,
1000
0100
0010
0000
0100
1000
0000
0001
,
1000
0001
1000
0000
0010
0100
0000
0001
,
0010
0001
1000
0000
0001
0100
0000
0010
,
1000
0100
1000
0000
0001
0100
0001
1000
,
0001
0000
0000
0100
0000
0010
1000
0010
,
1000
0000
0000
0100
0000
0010
0001
0010
,
0001
0000
1000
0000
0010
0100
0010
0100
,
0000
1001
0000
0110
0000
1000
0001
1000
,
0010
0100
0010
0000
1000
0100
0000
1000
,
0001
1000
0001
0000
0010
0100
0000
0010
,
0001
1000
0001
0000
0100
0010
0000
1000
,
0001
1000
0001
0000
1000
0001
1000
0000
,
0001
0010
0001
0010
0000
0100
0000
1001
,
0000
1010
0000
0000
;

//---------------dance-single - ----------------
#NOTEDATA:;
#CHARTNAME:;
#STEPSTYPE:dance-single;
#DESCRIPTION:;
#CHARTSTYLE:;
#DIFFICULTY:Easy;
#METER:4;
#RADARVALUES:0.272270,0.286837,0.050824,0.000000,0.000000,225.000000,219.000000,6.000000,0.000000,0.000000,0.000000,0.000000,0.000000,0.000000,0.272270,0.286837,0.050824,0.000000,0.000000,225.000000,219.000000,6.000000,0.000000,0.000000,0.000000,0.000000,0.000000,0.000000;
#CREDIT:;
#NOTES:
0000
0000
0000
0000
,
0000
0000
0000
0000
,
1000
0010
1000
0001
,
0010
0100
1000
0010
,
0100
0001
0010
0100
,
0010
0001
1000
0001
,
1000
0010
1000
0001
,
0000
0000
0000
0000
,
1000
0000
0001
0000
,
0010
0000
0100
0000
,
1000
0000
0010
0000
,
1000
0010
1000
0001
,
0010
0000
0100
0000
,
1000
0000
0010
0000
,
0100
0000
0001
0000
,
1001
0000
0000
0000
,
1000
0010
0000
0010
,
0000
0010
0000
0010
,
1000
0100
0010
0001
,
0100
0010
1000
0001
,
1000
0010
1000
0001
,
0010
0001
0010
0100
,
1000
0010
1000
0010
,
0000
0000
0000
0000
,
1000
0001
0000
0100
,
0000
0010
0000
1000
,
0000
0100
0000
0010
,
0000
0001
0000
0010
,
0010
0100
0000
1000
,
0000
0001
0000
0100
,
0110
0000
1001
0000
,
1001
0000
0000
0000
,
1000
0100
0010
0100
,
1000
0010
0100
0001
,
0010
0100
0010
0001
,
0100
0010
1000
0001
,
1000
0010
0100
0010
,
1000
0100
0010
0001
,
0100
0010
0100
0001
,
0010
0100
1000
0001
,
1000
0000
0010
0100
,
0010
0000
1000
0010
,
1000
0000
0001
0100
,
0001
0010
0001
1000
,
0100
1000
0000
0001
,
0001
1000
1000
0010
,
0100
0001
0010
0001
,
1000
0000
0010
0100
,
0010
0000
0100
0000
,
0001
0000
0010
0000
,
0100
0000
1000
0000
,
0001
0100
0010
1000
,
0100
0000
0010
0000
,
0100
0000
1000
0000
,
0010
0000
0100
0000
,
1001
0000
0000
0000
,
1000
0000
0000
0000
,
0000
0000
0000
0010
,
0010
0000
0000
0000
,
0000
0000
0000
0000
,
1000
0100
0010
0100
,
1000
0010
0100
0001
,
0010
0100
0010
0001
,
0100
0010
1000
0010
,
0100
0010
1000
0100
,
0010
0001
0100
0010
,
0100
0001
0010
0100
,
1000
0001
1000
0010
,
1000
0100
0010
0100
,
1000
0001
0100
0001
,
0010
0100
0010
0001
,
1000
0010
1000
0100
,
1000
0010
1000
0001
,
0010
0001
1000
0100
,
1000
0000
0000
0001
0000
1000
0000
0001
,
0000
1001
0000
0000
;

//---------------dance-single - ----------------
#NOTEDATA:;
#CHARTNAME:;
#STEPSTYPE:dance-single;
#DESCRIPTION:;
#CHARTSTYLE:;
#DIFFICULTY:Beginner;
#METER:1;
#RADARVALUES:0.118589,0.159354,0.008471,0.000000,0.000000,98.000000,97.000000,1.000000,0.000000,0.000000,0.000000,0.000000,0.000000,0.000000,0.118589,0.159354,0.008471,0.000000,0.000000,98.000000,97.000000,1.000000,0.000000,0.000000,0.000000,0.000000,0.000000,0.000000;
#CREDIT:;
#NOTES:
// measure 0
0000
0000
0000
0000
,  // measure 1
0000
0000
0000
0000
,  // measure 2
1000
0000
0000
0000
,  // measure 3
0001
0000
0000
0000
,  // measure 4
1000
0000
0000
0000
,  // measure 5
0010
0000
0000
0000
,  // measure 6
0100
0000
0000
0000
,  // measure 7
0001
0000
0000
0000
,  // measure 8
0010
0000
0000
0000
,  // measure 9
0100
0000
0000
0000
,  // measure 10
1000
0000
0000
0000
,  // measure 11
0010
0000
0000
0000
,  // measure 12
0100
0000
0000
0000
,  // measure 13
0001
0000
0000
0000
,  // measure 14
0010
0000
0000
0000
,  // measure 15
0100
0000
0000
0000
,  // measure 16
1000
0000
0000
0000
,  // measure 17
0010
0000
0000
0000
,  // measure 18
0100
0000
0100
0000
,  // measure 19
0010
0000
0010
0000
,  // measure 20
1000
0000
1000
0000
,  // measure 21
0001
0000
0001
0000
,  // measure 22
1000
0000
1000
0000
,  // measure 23
0100
0000
0100
0000
,  // measure 24
0010
0000
0010
0000
,  // measure 25
0001
0000
0001
0000
,  // measure 26
1000
0000
1000
0000
,  // measure 27
0010
0000
0010
0000
,  // measure 28
1000
0000
1000
0000
,  // measure 29
0001
0000
0001
0000
,  // measure 30
0100
0000
0100
0000
,  // measure 31
0001
0000
0000
0000
,  // measure 32
1000
0000
0000
0000
,  // measure 33
0100
0000
0000
0000
,  // measure 34
0010
0000
0000
0000
,  // measure 35
0100
0000
0000
0000
,  // measure 36
1000
0000
0000
0000
,  // measure 37
0010
0000
0000
0000
,  // measure 38
0100
0000
0000
0000
,  // measure 39
0001
0000
0000
0000
,  // measure 40
0010
0000
0000
0000
,  // measure 41
0100
0000
0000
0000
,  // measure 42
1000
0000
0000
0000
,  // measure 43
0001
0000
0000
0000
,  // measure 44
1000
0000
0000
0000
,  // measure 45
0010
0000
0000
0000
,  // measure 46
0100
0000
0000
0000
,  // measure 47
0001
0000
0000
0000
,  // measure 48
1000
0000
0000
0000
,  // measure 49
0010
0000
0000
0000
,  // measure 50
0100
0000
0000
0000
,  // measure 51
0001
0000
0000
0000
,  // measure 52
0010
0000
0000
0000
,  // measure 53
0100
0000
0000
0000
,  // measure 54
1000
0000
0000
0000
,  // measure 55
0010
0000
0000
0000
,  // measure 56
1000
0000
0000
0000
,  // measure 57
0000
0000
0000
0000
,  // measure 58
0001
0000
0000
0000
,  // measure 59
0000
0000
0000
0000
,  // measure 60
1000
0000
1000
0000
,  // measure 61
0010
0000
0010
0000
,  // measure 62
1000
0000
1000
0000
,  // measure 63
0001
0000
0001
0000
,  // measure 64
0100
0000
0100
0000
,  // measure 65
0001
0000
0001
0000
,  // measure 66
1000
0000
1000
0000
,  // measure 67
0100
0000
0100
0000
,  // measure 68
1000
0000
1000
0000
,  // measure 69
0000
0000
0000
0000
,  // measure 70
0010
0000
0010
0000
,  // measure 71
1000
0000
1000
0000
,  // measure 72
0001
0000
0001
0000
,  // measure 73
0010
0000
0010
0000
,  // measure 74
0100
0000
0000
0000
,  // measure 75
0000
0110
0000
0000
;
