#TITLE:Timebomb;
#SUBTITLE:;
#ARTIST:Tove Lo;
#TITLETRANSLIT:;
#SUBTITLETRANSLIT:;
#ARTISTTRANSLIT:;
#GENRE:;
#CREDIT:;
#BANNER:;
#BACKGROUND:;
#LYRICSPATH:;
#CDTITLE:;
#MUSIC:timebomb.mp3;
#OFFSET:0.070582;
#SAMPLESTART:55.619987;
#SAMPLELENGTH:12.000000;
#SELECTABLE:YES;
#BPMS:0.000000=140.000000
;
#STOPS:
;
#BGCHANGES:0.000=[Falling Apart] - Timebomb.avi=1.000=0=0=1=====,
99999=-nosongbg-=1.000=0=0=0 // don't automatically add -songbackground-
;
#KEYSOUNDS:;
#ATTACKS:;

//---------------dance-single - Copied from Copied f----------------
#NOTES:
     dance-single:
     Copied from Copied f:
     Hard:
     8:
     0.365034,0.435874,0.206484,0.086035,0.154863,263.000000,24.000000,10.000000,0.000000,0.000000,0.000000,0.365034,0.435874,0.206484,0.086035,0.154863,263.000000,24.000000,10.000000,0.000000,0.000000,0.000000:
// measure 0
0000
0000
0000
0000
,  // measure 1
0000
0000
0000
0000
,  // measure 2
0000
0000
0000
0000
,  // measure 3
0000
0000
0000
0000
,  // measure 4
0000
0000
0000
0000
,  // measure 5
0000
0000
0000
0000
,  // measure 6
0000
0000
0000
0000
,  // measure 7
0000
0000
0000
0000
,  // measure 8
0000
0000
1000
0100
0010
0001
0000
0001
,  // measure 9
0100
1000
0000
1000
0100
0001
0000
0010
,  // measure 10
0100
0000
1000
0010
0100
0001
0000
1000
,  // measure 11
0010
0001
0000
0001
0010
1000
0000
0010
,  // measure 12
0100
0000
0001
0010
0001
1000
0000
0001
,  // measure 13
0100
1000
0000
1000
0100
0001
0000
0010
,  // measure 14
0001
0000
1000
0100
1000
0010
0000
1000
,  // measure 15
0010
0001
0000
0001
0010
1000
0000
0100
,  // measure 16
1000
0000
0001
0010
0001
1000
0002
0000
,  // measure 17
1003
0000
0010
1000
0010
0100
0020
0000
,  // measure 18
1030
0000
1000
0100
0010
0001
2000
0000
,  // measure 19
3001
0000
0001
0010
0100
1000
0002
0000
,  // measure 20
1003
0000
0001
0100
0010
0100
0002
0000
,  // measure 21
1003
0000
1000
0100
0010
0100
2000
0000
,  // measure 22
3100
0000
1000
0001
1000
0100
0020
0000
,  // measure 23
0031
0000
0001
0100
1000
0100
0001
0010
,  // measure 24
1000
0000
0010
0000
0011
0000
0000
0001
0100
0000
0000
0100
0010
0000
0000
0010
,  // measure 25
1000
0000
0000
1000
0100
0000
0000
0100
0010
0000
0000
0010
0001
0000
0000
0001
,  // measure 26
1000
0010
0100
0010
1000
0000
0000
1000
0100
0000
0000
0100
1000
0000
0000
1000
,  // measure 27
0010
0000
0000
0010
0100
0000
0000
0100
0001
0000
0000
0001
0100
0000
0000
0100
,  // measure 28
0010
1000
0001
1000
0100
0000
0000
0100
1000
0000
0000
1000
0001
0000
0000
0001
,  // measure 29
0010
0000
0000
0010
0001
0000
0000
0001
1000
0000
0000
1000
0100
0000
0000
0100
,  // measure 30
0010
0001
1000
0001
0010
0000
0000
0010
0100
0000
0000
0100
1000
0000
0000
1000
,  // measure 31
0001
0000
0000
0001
0100
0000
0000
0100
0010
0000
0000
0010
0100
0000
0000
0100
,  // measure 32
0001
0100
0010
1000
0001
0000
1000
0000
0001
0000
0010
0000
0100
0000
1000
0000
,  // measure 33
0001
0100
0010
0100
0001
0001
1000
0010
,  // measure 34
0100
0001
0201
0000
0301
1000
0010
1000
,  // measure 35
0100
0010
0100
1000
0001
0100
0010
0010
,  // measure 36
1000
0001
0101
0001
0100
0010
1000
0200
,  // measure 37
0000
0300
1000
0001
1000
0010
0200
0000
,  // measure 38
0301
0000
1000
0100
0001
0100
1000
0010
,  // measure 39
0001
0010
1000
0000
0000
0000
0000
0000
,  // measure 40
0000
0000
1100
0000
0000
0011
0000
0000
,  // measure 41
0101
0000
0000
1010
0000
0010
1000
0001
,  // measure 42
0100
0000
0101
0000
0000
0011
0000
0000
,  // measure 43
0101
0000
0000
1001
0000
0100
0001
0010
,  // measure 44
0100
0000
1010
0000
1000
1100
0000
1000
,  // measure 45
1001
0000
0001
0101
0000
0001
0011
0010
,  // measure 46
0001
1000
1100
0000
1000
1010
0000
0010
,  // measure 47
0110
0000
0101
0001
1001
1000
1010
1000
,  // measure 48
1100
1001
0000
0000
;

//---------------dance-single - ----------------
#NOTES:
     dance-single:
     :
     Medium:
     6:
     0.260563,0.332095,0.223691,0.008603,0.004302,185.000000,26.000000,1.000000,0.000000,0.000000,0.000000,0.260563,0.332095,0.223691,0.008603,0.004302,185.000000,26.000000,1.000000,0.000000,0.000000,0.000000:
0000
0000
0000
0000
,
0000
0000
0000
0000
,
0000
0000
0000
0000
,
0000
0000
0000
0000
,
0000
0000
0000
0000
,
0000
0000
0000
0000
,
0000
0000
0000
0000
,
0000
0000
0000
0000
,
0000
0000
1000
1000
0001
1000
0000
1000
,
0010
1000
0000
1000
0010
1000
0000
0001
,
1000
0000
0001
0001
0100
0001
0000
0001
,
0100
0001
0000
0001
0100
0001
0000
1000
,
0001
0000
1000
0100
0010
0001
0000
0001
,
0100
0010
0000
0001
0100
0010
0000
0010
,
1000
0000
1000
0100
0010
0001
0000
1000
,
0100
0010
0000
1000
0100
0010
0000
1000
,
0001
0001
0001
0100
,
0100
0010
0010
1000
,
1000
0100
0100
0010
,
0010
0001
0001
1000
,
1000
0001
0001
0100
,
0100
0010
0010
1000
,
1000
0001
0001
1000
,
1000
0100
0100
0010
,
0010
0000
0001
1000
0100
1000
0001
2000
,
0000
0000
3001
0100
0010
1000
0100
0010
,
0001
0000
0000
0001
1000
0100
1000
0001
,
0000
0000
0000
0001
0001
1000
0001
0100
,
0010
0000
0000
0010
0010
1000
0010
1000
,
0000
0000
0000
1000
0100
0010
0001
1000
,
0001
0000
0001
0000
0001
1000
0000
1000
,
0010
0000
0100
0000
0001
0000
0000
0100
0000
0000
0001
0000
0100
0000
0000
0000
,
0110
0000
0010
1000
0010
1000
0010
0000
,
1000
0001
1000
0100
,
1000
0000
0001
0100
0001
0100
0001
0000
,
0100
0100
0010
1000
,
0001
1100
0001
0100
,
1000
0100
0010
0001
,
1000
1001
0001
0100
,
0010
0110
0000
0000
,
0000
0000
1100
0000
0000
1100
0000
0000
,
1100
0000
0000
1100
0000
0000
0010
0000
,
0010
0000
0011
0000
0000
0011
0000
0000
,
0011
0000
0000
0011
0000
0000
0001
0000
,
0001
0000
1001
0000
0000
0110
0000
0000
,
1010
0000
0000
0101
0000
0000
1100
0000
,
0011
0000
0101
0000
0000
1010
0000
0000
,
1100
0011
0101
1010
,
1001
1001
0000
0000
;

//---------------dance-single - ----------------
#NOTES:
     dance-single:
     :
     Easy:
     3:
     0.162237,0.290583,0.094638,0.068828,0.000000,113.000000,11.000000,8.000000,0.000000,0.000000,0.000000,0.162237,0.290583,0.094638,0.068828,0.000000,113.000000,11.000000,8.000000,0.000000,0.000000,0.000000:
0000
0000
0000
0000
,
0000
0000
0000
0000
,
0000
0000
0000
0000
,
0000
0000
0000
0000
,
0000
0000
0000
0000
,
0000
0000
0000
0000
,
0000
0000
0000
0000
,
0000
0000
0000
0000
,
0000
1000
0000
0000
,
0000
0000
0000
0000
,
0000
0001
0000
0000
,
0000
0000
0000
0000
,
0000
0100
0000
0000
,
0000
0000
0000
0000
,
0000
0010
0000
0000
,
0000
0000
0000
0000
,
0000
1001
1000
0100
,
0010
0001
1000
0100
,
1000
1010
0010
1000
,
0100
1000
0001
0100
,
0010
1010
0010
1000
,
0001
0100
1000
0100
,
0001
0011
0001
1000
,
0100
1000
1000
0001
,
0001
0100
0100
0010
,
0010
1000
1000
0001
,
0001
0001
0100
0100
,
0010
0010
1000
1000
,
0100
0100
0010
0010
,
0001
0100
1000
0100
,
0001
0010
1000
0010
,
0001
1000
0001
1000
,
0100
2200
3300
0010
,
0010
0001
0001
1000
,
1000
2020
3030
1000
,
1000
0100
0100
0010
,
0010
0022
0033
0001
,
0001
0100
0100
0010
,
0010
1000
0100
0001
,
0100
2002
0000
0000
,
3003
1010
0000
0000
,
0000
0000
0000
0000
,
0000
0101
0000
0000
,
0000
0000
0000
0000
,
0000
0010
1000
0100
,
0010
0001
1000
1000
,
0001
0001
0100
0010
,
1000
0100
0001
0100
,
1000
1001
0000
0000
;
