#VERSION:0.82;
#TITLE:Sorrows;
#SUBTITLE:;
#ARTIST:Asako Yoshihiro;
#TITLETRANSLIT:;
#SUBTITLETRANSLIT:;
#ARTISTTRANSLIT:;
#GENRE:;
#ORIGIN:;
#CREDIT:Akihiro;
#BANNER:[Falling Apart] - Sorrows.png;
#BACKGROUND:[Falling Apart] - Sorrows-bg.png;
#PREVIEWVID:;
#JACKET:[Falling Apart] - Sorrows-jacket.png;
#CDIMAGE:;
#DISCIMAGE:;
#LYRICSPATH:;
#CDTITLE:;
#MUSIC:[Falling Apart] - Sorrows.mp3;
#OFFSET:-0.358050;
#SAMPLESTART:60.702000;
#SAMPLELENGTH:12.000000;
#SELECTABLE:YES;
#BPMS:0.000=92.500,
33.000=30.525,
34.000=185.000,
100.000=92.500,
124.000=185.000;
#STOPS:;
#DELAYS:;
#WARPS:;
#TIMESIGNATURES:0.000=4=4;
#TICKCOUNTS:0.000=4;
#COMBOS:0.000=1;
#SPEEDS:0.000=1.000=0.000=0;
#SCROLLS:0.000=1.000;
#FAKES:;
#LABELS:0.000=Song Start;
#BGCHANGES:;
#KEYSOUNDS:;
#ATTACKS:
;

//---------------dance-single - ----------------
#NOTEDATA:;
#CHARTNAME:;
#STEPSTYPE:dance-single;
#DESCRIPTION:;
#CHARTSTYLE:;
#DIFFICULTY:Beginner;
#METER:1;
#RADARVALUES:0.077686,0.087132,0.000000,0.000000,0.000000,66.000000,0.000000,0.000000,0.000000,0.000000,0.000000,0.000000,0.000000,0.077686,0.087132,0.000000,0.000000,0.000000,66.000000,0.000000,0.000000,0.000000,0.000000,0.000000,0.000000,0.000000;
#CREDIT:;
#NOTES:
0000
1000
0000
0000
,
0000
0001
0000
0000
,
0000
1000
0000
0000
,
0000
0010
0000
0010
,
0000
1000
0000
0000
,
0000
0001
0000
0000
,
0000
1000
0000
0000
,
0000
0100
0000
0000
,
0000
0000
0000
0000
,
1000
0000
0000
0000
,
0000
0000
0000
0000
,
0001
0000
0000
0000
,
0000
0000
0000
0000
,
0010
0000
0000
0000
,
0000
0000
0000
0000
,
0100
0000
0000
0000
,
0000
0000
1000
0000
,
0001
0000
0000
0000
,
0000
0000
0000
0000
,
1000
0000
0000
0000
,
0000
0000
0000
0000
,
0010
0000
0000
0000
,
0000
0000
0000
0000
,
0100
0000
0000
0000
,
0001
0000
0000
0000
,
1000
0000
0000
0000
,
0001
0000
0000
0000
,
1000
0000
0000
0000
,
0010
0000
0000
0000
,
0100
0000
0000
0000
,
0001
0000
0000
1000
,
0001
0000
0000
0000
,
0000
0000
0000
0000
,
1000
0000
0000
0000
,
0010
0000
0000
0000
,
0100
0000
0000
0000
,
0001
0000
0000
0000
,
1000
0000
0000
0000
,
0001
0000
0000
0000
,
0010
0000
0000
0000
,
0100
0000
0000
0000
,
1000
0000
0000
0000
,
0001
0000
0000
0000
,
1000
0000
0000
0000
,
0010
0000
0000
0000
,
0100
0000
0000
0000
,
0001
0000
0000
0000
,
1000
0000
0000
0000
,
0000
0000
1000
0000
,
0001
0000
0000
0000
,
0000
0000
0001
0000
,
1000
0000
0000
0000
,
0000
0000
1000
0000
,
0001
0000
0000
0000
,
0000
0000
0010
0000
,
0100
0000
0000
0000
,
0000
0000
0100
0000
,
1000
0000
0000
0000
,
0000
0000
1000
0000
,
0001
0000
0000
0000
,
0000
0000
0001
0000
,
0010
0000
0000
0000
,
0100
0000
0000
0000
,
1000
0000
0000
0000
,
0000
0000
0010
0000
,
1000
0000
0000
0000
,
0000
0000
0001
0000
,
0100
0000
0000
0000
,
0000
0000
0010
0000
,
1000
0000
0000
0000
,
0001
0000
1000
0000
,
0000
0000
0000
0000
,
0000
0000
0000
0000
,
0000
0000
0000
0000
,
0000
0000
0000
0000
,
0000
0000
0000
0000
,
0000
0000
0000
0000
,
0000
0000
0000
0000
;

//---------------dance-single - ----------------
#NOTEDATA:;
#CHARTNAME:;
#STEPSTYPE:dance-single;
#DESCRIPTION:;
#CHARTSTYLE:;
#DIFFICULTY:Easy;
#METER:2;
#RADARVALUES:0.182444,0.175190,0.032958,0.008239,0.000000,150.000000,4.000000,1.000000,0.000000,0.000000,0.000000,0.000000,0.000000,0.182444,0.175190,0.032958,0.008239,0.000000,150.000000,4.000000,1.000000,0.000000,0.000000,0.000000,0.000000,0.000000;
#CREDIT:;
#NOTES:
0000
0000
0010
0000
0000
0100
0000
0000
,
0000
0000
0010
0000
0000
1000
0000
0000
,
0000
0000
0010
0000
0000
0001
0000
0000
,
0000
1000
0000
0001
,
1000
0000
0010
0000
0000
0100
0000
0000
,
0000
0000
0010
0000
0000
0001
0000
0000
,
0000
0000
0010
0000
0000
1000
0000
0000
,
0000
0000
0001
0000
0000
0100
0000
0000
,
0000
0020
0030
0000
,
1000
0000
0001
0000
,
0000
0100
0001
0000
,
0001
0000
1000
0000
,
0000
0010
1000
0000
,
0100
0000
0010
0000
,
0000
0100
1000
0000
,
0010
0000
0100
0000
,
0000
0100
0001
0000
,
0001
0000
1000
0000
,
0000
0010
1000
0000
,
1000
0000
0001
0000
,
0000
0100
0001
0000
,
0010
0000
0100
0000
,
0000
0010
0001
0000
,
0100
0000
0010
0000
,
0000
0010
1000
0000
,
0001
0000
0100
0000
,
0001
0000
0010
0100
,
1000
0000
0010
0000
,
0100
0000
0001
1000
,
0100
0000
0010
0000
,
0001
0000
0000
1000
0000
0000
0000
0000
,
0010
0000
0010
0000
0010
0000
0000
1000
,
0000
0000
0001
0000
,
0100
0100
0100
0000
,
0010
0000
1000
0000
,
0001
0000
0001
0000
0001
0000
0000
0100
,
0000
0000
0010
0000
,
1000
1000
1000
0000
,
0001
0000
0010
0000
,
0100
0000
0100
0000
0100
0000
0000
1000
,
0000
0000
0001
0000
,
0010
0010
0010
0000
,
0001
0000
1000
0000
,
0001
0000
0001
0000
0001
0000
0000
0010
,
0000
0000
0100
0000
,
1000
0000
0010
0000
,
0100
0000
0001
0000
,
1001
0000
0000
0100
,
0000
0100
0000
0000
0000
0000
0000
0000
,
1001
0000
0000
0010
,
0000
0010
0000
0000
0000
0000
0000
0000
,
1001
0000
0000
0100
,
0000
0100
0000
0000
0000
0000
0000
0000
,
1001
0000
0000
0010
,
0000
0010
0000
0000
1000
0000
0001
0000
,
1000
0000
0010
0000
,
0000
0100
0001
0000
,
1000
0000
0001
0000
,
0000
0010
0100
0000
,
1000
0000
0010
0000
,
0000
0100
0001
0000
,
1000
0000
0100
0000
,
0000
1000
0001
0000
,
0001
0000
0100
0000
,
0000
0010
1000
0000
,
0001
0000
1000
0000
,
0000
0100
0010
0000
,
0001
0000
0100
0000
,
0000
0010
1000
0000
,
0001
0000
0010
0000
,
0000
0000
0001
0000
1000
0000
0000
0010
,
0000
0000
0000
0000
,
0000
0000
0000
0000
,
0000
0000
0000
0000
,
0000
0000
0000
0000
,
0000
0000
0000
0000
,
0000
0000
0000
0000
,
0000
0000
0000
0000
;

//---------------dance-single - ----------------
#NOTEDATA:;
#CHARTNAME:;
#STEPSTYPE:dance-single;
#DESCRIPTION:;
#CHARTSTYLE:;
#DIFFICULTY:Medium;
#METER:4;
#RADARVALUES:0.301327,0.263249,0.000000,0.074155,0.000000,247.000000,0.000000,9.000000,0.000000,0.000000,0.000000,0.000000,0.000000,0.301327,0.263249,0.000000,0.074155,0.000000,247.000000,0.000000,9.000000,0.000000,0.000000,0.000000,0.000000,0.000000;
#CREDIT:;
#NOTES:
0000
0000
0001
1000
0001
0100
0000
0000
,
0000
0000
1000
0001
1000
0010
0000
0000
,
0000
0000
0100
0001
1000
0100
0000
0000
,
0000
0010
0000
0001
,
0010
0000
2000
0000
0000
0020
0000
0000
,
3030
0000
0002
0000
0000
0200
0000
0000
,
0303
0000
2000
0000
0000
0200
0000
0000
,
3300
0000
0002
0000
0000
0020
0000
0000
,
0033
0200
0300
0000
,
0001
0000
0010
0000
0100
0000
0000
1000
,
0000
0010
1000
0000
0001
0000
0000
0000
,
0100
0000
0001
0000
0010
0000
0000
0100
,
0000
1000
0001
0000
0100
0000
0010
0000
,
1000
0000
0100
0000
0010
0000
0000
0001
,
0000
0100
0001
0000
1000
0000
0000
0000
,
0010
0000
1000
0000
0100
0000
0000
0010
,
0000
0001
1000
0000
0010
0000
0100
0000
,
0001
0000
1000
0000
0100
0000
0000
1000
,
0000
0010
0100
0000
0001
0000
0100
0000
,
0001
0000
1000
0000
0100
0000
0000
1000
,
0000
0010
0100
0000
0001
0000
0010
0000
,
0100
0000
1000
0000
0001
0000
0000
0100
,
0000
0010
1000
0000
0001
0000
1000
0000
,
0100
0000
1000
0000
0001
0000
0000
0010
,
0000
0100
1000
0000
0010
0000
0100
0000
,
0001
0000
1000
0000
,
0001
1000
0100
0000
,
1000
0000
0001
0000
,
0010
0000
0000
0100
0000
0000
1000
0000
,
0010
0000
0000
0100
0000
0000
0001
0000
,
1000
0010
0100
0001
0000
0000
0000
0000
,
1000
0000
0010
0000
1000
0000
0001
0100
,
0000
0001
0010
0100
,
1000
0000
0001
0000
1000
0000
0000
0010
,
0000
0100
0000
0001
0000
1000
0000
0000
,
0000
0000
1000
0000
0010
0000
0100
0001
,
0000
0010
0100
1000
,
0001
0000
1000
0000
0010
0000
0000
0100
,
0000
0001
0000
0010
0000
0100
0000
0000
,
1000
0000
0010
0000
1000
0000
0001
0010
,
0000
1000
0010
0100
,
0001
0000
1000
0000
0010
0000
0000
1000
,
0000
0001
0000
0010
0000
0100
0000
0000
,
0010
0000
0001
0000
1000
0000
0010
0100
,
0000
0001
0100
0010
,
1000
0000
0001
0000
0010
0000
0000
0001
,
0000
0100
0000
0010
0000
1000
0000
0000
,
0001
1000
0000
0000
0000
0000
0001
1000
,
0000
0100
0000
0000
0010
0000
0100
0000
,
1000
0001
0000
0000
0000
0000
1000
0001
,
0000
0010
0000
0000
0100
0000
1000
0000
,
0001
0100
0000
0000
0000
0000
0001
0100
,
0000
0010
0000
0000
1000
0000
0100
0000
,
0010
0001
0000
0000
0000
0000
0010
0001
,
0000
1000
0000
0000
0010
0000
1000
0000
,
0001
0000
0010
0000
0100
0000
0000
1000
,
0000
0010
0100
0010
,
1000
0000
0100
0000
0010
0000
0000
0001
,
0000
0100
0001
0010
,
0100
0000
1000
0000
0001
0000
0000
0100
,
0000
0010
1000
0001
,
0010
0000
0100
0000
0010
0000
0000
0001
,
0000
1000
0010
0100
,
0001
0000
0010
0000
1000
0000
0000
0010
,
0000
0001
0100
0010
,
1000
0000
0001
0000
0010
0000
0000
1000
,
0000
0010
0001
1000
,
0010
0000
0100
0000
0001
0000
0000
0100
,
0000
1000
0100
0001
,
0010
0000
0100
0000
1000
0000
0000
0010
,
0000
0100
0001
1000
,
0100
0000
0000
0000
,
0000
0000
0000
0000
,
0000
0000
0000
0000
,
0000
0000
0000
0000
,
0000
0000
0000
0000
,
0000
0000
0000
0000
,
0000
0000
0000
0000
;

//---------------dance-single - ----------------
#NOTEDATA:;
#CHARTNAME:;
#STEPSTYPE:dance-single;
#DESCRIPTION:;
#CHARTSTYLE:;
#DIFFICULTY:Hard;
#METER:8;
#RADARVALUES:0.463761,0.437976,0.115352,0.074155,0.012359,371.000000,14.000000,9.000000,0.000000,0.000000,0.000000,0.000000,0.000000,0.463761,0.437976,0.115352,0.074155,0.012359,371.000000,14.000000,9.000000,0.000000,0.000000,0.000000,0.000000,0.000000;
#CREDIT:;
#NOTES:
// measure 0
0000
0000
0001
0010
0001
1000
0000
0000
,  // measure 1
0000
0000
1000
0100
1000
0001
0000
0000
,  // measure 2
0000
0000
0100
0001
0010
0100
0000
0000
,  // measure 3
0000
1000
0000
0010
,  // measure 4
0100
0000
0002
1000
0010
0200
0000
0000
,  // measure 5
0303
0000
2000
0001
0100
0020
0000
0000
,  // measure 6
3030
0000
0002
1000
0100
0020
0000
0000
,  // measure 7
0033
0000
2000
0001
0010
0200
0000
0000
,  // measure 8
3300
0020
0030
0000
,  // measure 9
1000
0010
0100
0000
0001
0000
1000
0100
,  // measure 10
0000
1000
0010
0000
0110
0000
0100
0000
,  // measure 11
0001
0100
0010
0000
1000
0000
0001
0010
,  // measure 12
0000
0001
0100
0000
0110
0000
0010
0000
,  // measure 13
1000
0001
0100
0000
0001
0000
0010
0100
,  // measure 14
0000
0010
0001
0000
0110
0000
0100
0000
,  // measure 15
0001
1000
0010
0000
1000
0000
0100
0010
,  // measure 16
0000
0100
1000
0000
0001
0100
1000
0000
,  // measure 17
0100
0001
0010
0000
0100
0000
1000
0010
,  // measure 18
0000
0100
0001
0000
0011
0000
1000
0000
,  // measure 19
0010
1000
0100
0000
0010
0000
0001
0100
,  // measure 20
0000
0010
1000
0000
1100
0000
0001
0000
,  // measure 21
1000
0100
0001
0000
0100
0000
1000
0010
,  // measure 22
0000
0001
0010
0000
1100
0000
0010
0000
,  // measure 23
0001
0010
1000
0000
0010
0000
0001
0100
,  // measure 24
0000
1000
0100
0000
0001
0001
1000
0000
,  // measure 25
0001
0010
0100
1000
0001
0000
0000
0001
,  // measure 26
0001
0000
1000
0000
0010
1000
0010
0100
,  // measure 27
0001
0000
0010
0100
1000
0000
0001
0000
,  // measure 28
0100
0000
0000
0010
0100
0001
1000
0100
,  // measure 29
0010
0000
0000
0100
0000
1000
0010
0100
,  // measure 30
0001
1000
0010
0000
1000
0000
0001
0000
0000
0010
0100
0000
1000
0000
0001
0001
,  // measure 31
1000
0000
0010
0000
1000
0000
0001
0100
,  // measure 32
0000
0100
0001
0000
0010
0001
0100
0000
,  // measure 33
0010
0000
1000
0000
0001
0000
0010
0100
,  // measure 34
0000
0100
0010
0001
0000
0100
0000
0000
,  // measure 35
1010
0000
0010
0000
0100
0000
0001
1000
,  // measure 36
0000
1000
0001
0000
0100
0001
0010
0000
,  // measure 37
0100
0000
1000
0001
0100
0000
0010
1000
,  // measure 38
0000
0010
0000
0001
0000
0010
1000
0000
,  // measure 39
1001
0000
0001
0000
0010
0000
0100
1000
,  // measure 40
0000
1000
0100
0000
0010
0001
0100
0000
,  // measure 41
1010
0000
1000
0000
0001
0000
0010
0100
,  // measure 42
0000
0100
0010
0001
0000
1000
0000
0000
,  // measure 43
0101
0000
0010
0000
1000
0000
0001
0100
,  // measure 44
0000
0100
0001
0000
0010
0100
1000
0000
,  // measure 45
0001
0000
1000
0001
0100
0010
0000
1000
,  // measure 46
0000
0100
0000
0001
0100
1000
0000
0010
,  // measure 47
1000
0001
0000
0000
0000
0000
1000
0001
,  // measure 48
0000
0110
0000
0000
0010
0000
0100
0000
,  // measure 49
0001
1000
0000
0000
0000
0000
0001
1000
,  // measure 50
0000
0110
0000
0000
0100
0000
0010
0000
,  // measure 51
1000
0100
0000
0000
0000
0000
1000
0100
,  // measure 52
0000
0011
0000
0000
1000
0000
0010
0000
,  // measure 53
0001
0100
0000
0000
0000
0000
0001
0100
,  // measure 54
0000
1010
0000
0000
0001
0000
0010
0000
,  // measure 55
0100
1000
0001
0100
0000
0010
1000
0100
,  // measure 56
0000
0010
0001
0100
0001
0010
1000
0010
,  // measure 57
0010
0001
1000
0010
0000
0100
0001
0010
,  // measure 58
0000
0100
1000
0010
1000
0100
0001
0100
,  // measure 59
0100
1000
0001
0010
0000
0100
1000
0010
,  // measure 60
0000
0100
0001
0010
0001
0100
1000
0100
,  // measure 61
0100
0001
1000
0100
0000
0010
0001
0100
,  // measure 62
0000
0010
1000
0100
1000
0010
0001
0010
,  // measure 63
0010
1000
0001
0010
0000
0100
1000
0001
,  // measure 64
0000
0010
0100
1000
0010
0001
0010
1000
,  // measure 65
1000
0001
1000
0100
0000
0010
0001
1000
,  // measure 66
0000
0100
0010
0001
0100
1000
0100
0001
,  // measure 67
0001
1000
0001
0100
0000
0010
1000
0001
,  // measure 68
0000
0100
0010
1000
0100
0001
0100
1000
,  // measure 69
1000
0001
1000
0010
0000
0100
0001
1000
,  // measure 70
0000
0010
0100
0001
0010
1000
0010
0001
;
