#VERSION:0.81;
#TITLE:Running;
#SUBTITLE:;
#ARTIST:Kallay Saunders;
#TITLETRANSLIT:;
#SUBTITLETRANSLIT:;
#ARTISTTRANSLIT:;
#GENRE:;
#ORIGIN:;
#CREDIT:;
#BANNER:Running.png;
#BACKGROUND:Running-bg.png;
#PREVIEWVID:;
#JACKET:;
#CDIMAGE:;
#DISCIMAGE:;
#LYRICSPATH:;
#CDTITLE:;
#MUSIC:Running.ogg;
#OFFSET:2.006999;
#SAMPLESTART:47.606503;
#SAMPLELENGTH:14.999971;
#SELECTABLE:YES;
#BPMS:0.000=90.000,
68.000=180.000,
209.000=90.000;
#STOPS:80.000=1.000;
#DELAYS:;
#WARPS:;
#TIMESIGNATURES:0.000=4=4;
#TICKCOUNTS:0.000=4;
#COMBOS:0.000=1;
#SPEEDS:0.000=1.000=0.000=0;
#SCROLLS:0.000=1.000;
#FAKES:;
#LABELS:0.000=Song Start;
#BGCHANGES:;
#KEYSOUNDS:;
#ATTACKS:
;

//---------------dance-single - ----------------
#NOTEDATA:;
#CHARTNAME:;
#STEPSTYPE:dance-single;
#DESCRIPTION:;
#CHARTSTYLE:;
#DIFFICULTY:Beginner;
#METER:1;
#RADARVALUES:0.093877,0.107298,0.051339,0.000000,0.000000,59.000000,5.000000,0.000000,0.000000,0.000000,0.000000,0.000000,0.000000,0.093877,0.107298,0.051339,0.000000,0.000000,59.000000,5.000000,0.000000,0.000000,0.000000,0.000000,0.000000,0.000000;
#CREDIT:;
#NOTES:
0000
0000
0000
0000
,
0100
0000
0000
0000
,
0010
0000
0000
0000
,
1000
0000
0000
0000
,
0001
0000
0000
0000
,
0010
0000
0000
0000
,
0100
0000
0000
0000
,
1000
0000
0000
0000
,
0001
0000
0000
0000
,
1000
0000
1000
0000
,
0001
0000
0001
0000
,
0010
0000
0010
0000
,
0100
0000
0100
0000
,
1000
0000
0001
0000
,
0010
0000
0001
0000
,
0100
0000
0010
0000
,
1000
0000
0001
0000
,
0100
0000
0000
0000
,
0000
0000
0000
0000
,
0010
0000
0000
0000
,
0010
0010
0000
0000
,
0000
0100
0000
0000
,
0000
0001
0000
0000
,
0000
1000
0000
0000
,
0000
0010
0000
0000
,
0000
0100
0000
0000
,
0000
0001
0000
0000
,
0000
1000
0000
0000
,
0000
0010
0000
0000
,
0000
0100
0000
0000
,
0000
0001
0000
0000
,
0000
1000
0000
0000
,
0000
1000
0000
0000
,
0000
0010
0000
0000
,
0000
0100
0000
0000
,
0000
0100
0000
0000
,
0000
0110
0000
0000
,
0000
1001
0000
0000
,
0000
0010
0000
0000
,
0000
0100
0000
0000
,
0000
1001
0000
0000
,
0000
0110
0000
0000
,
0000
1000
0000
0000
,
0000
0100
0000
0000
,
0000
1000
0000
0000
,
0000
0001
0000
0000
,
0000
0010
0000
0000
,
0000
0001
0000
0000
,
0000
0100
0000
0000
,
0000
0010
0000
0000
,
0000
1000
0000
0000
,
0000
0000
0000
0000
,
0000
1001
0000
0000
;

//---------------dance-single - ----------------
#NOTEDATA:;
#CHARTNAME:;
#STEPSTYPE:dance-single;
#DESCRIPTION:;
#CHARTSTYLE:;
#DIFFICULTY:Easy;
#METER:3;
#RADARVALUES:0.196555,0.215623,0.020536,0.071874,0.000000,125.000000,2.000000,7.000000,0.000000,0.000000,0.000000,0.000000,0.000000,0.196555,0.215623,0.020536,0.071874,0.000000,125.000000,2.000000,7.000000,0.000000,0.000000,0.000000,0.000000,0.000000;
#CREDIT:;
#NOTES:
// measure 0
0000
0000
0000
0000
,  // measure 1
0100
0000
0000
0010
0000
0000
0000
0000
,  // measure 2
1000
0000
0000
0010
0000
0000
0000
0000
,  // measure 3
0100
0000
0000
0001
0000
0000
0000
0000
,  // measure 4
0010
0000
0000
0001
0000
0000
0000
0000
,  // measure 5
1000
0000
0000
0100
0000
0000
0000
0000
,  // measure 6
1000
0000
0000
0010
0000
0000
0000
0000
,  // measure 7
0100
0000
0000
0001
0000
0000
0000
0000
,  // measure 8
0010
0000
0000
0001
0000
0000
0000
0000
,  // measure 9
0010
0001
0010
0001
,  // measure 10
1000
0001
1000
0001
,  // measure 11
1000
0100
1000
0100
,  // measure 12
1000
0010
1000
0010
,  // measure 13
0100
0001
1000
0100
,  // measure 14
1000
0010
0100
0001
,  // measure 15
1000
0100
1000
0010
,  // measure 16
0100
0001
1000
0001
,  // measure 17
1000
0000
0000
0001
,  // measure 18
0000
0000
0000
0000
,  // measure 19
0100
0000
0000
0010
,  // measure 20
0010
0010
0000
0100
,  // measure 21
0000
0010
0000
1000
,  // measure 22
0001
2000
0000
0001
,  // measure 23
3001
0000
0001
0100
,  // measure 24
0010
1000
0000
0100
,  // measure 25
0000
1000
0000
0100
,  // measure 26
1000
0002
0000
1000
,  // measure 27
1003
0000
0001
0001
,  // measure 28
0001
0100
0000
0010
,  // measure 29
0000
1000
0000
0100
,  // measure 30
0000
1000
0000
0000
,  // measure 31
0001
0000
0100
0100
,  // measure 32
0000
0001
0000
0010
,  // measure 33
0000
0001
0000
0100
,  // measure 34
0000
0010
0000
0000
,  // measure 35
0010
0000
0000
0100
,  // measure 36
0000
0100
0000
0000
,  // measure 37
0001
0000
0000
1000
,  // measure 38
0000
0100
0000
1000
,  // measure 39
0000
0010
0000
0100
,  // measure 40
0001
1000
0000
0100
,  // measure 41
0000
0010
0000
0001
,  // measure 42
0000
0100
0000
0010
,  // measure 43
0000
1000
0001
0100
,  // measure 44
0001
1000
0000
0100
,  // measure 45
0000
1000
0000
0100
,  // measure 46
1000
0020
0000
0100
,  // measure 47
0130
0000
0001
1000
,  // measure 48
0001
0010
0000
0100
,  // measure 49
0000
1000
0000
0001
,  // measure 50
0000
2002
0000
0000
,  // measure 51
0000
3003
0000
0000
,  // measure 52
0000
0220
0330
0000
;

//---------------dance-single - ----------------
#NOTEDATA:;
#CHARTNAME:;
#STEPSTYPE:dance-single;
#DESCRIPTION:;
#CHARTSTYLE:;
#DIFFICULTY:Medium;
#METER:5;
#RADARVALUES:0.281631,0.323435,0.010268,0.215623,0.000000,170.000000,1.000000,21.000000,0.000000,0.000000,0.000000,0.000000,0.000000,0.281631,0.323435,0.010268,0.215623,0.000000,170.000000,1.000000,21.000000,0.000000,0.000000,0.000000,0.000000,0.000000;
#CREDIT:;
#NOTES:
// measure 0
0000
0000
0000
0000
,  // measure 1
0002
0000
0000
0200
0000
0303
0000
0000
,  // measure 2
0020
0000
0000
2000
0000
3030
0000
0000
,  // measure 3
0200
0000
0000
2000
0000
3300
0000
0000
,  // measure 4
0020
0000
0000
0200
0000
0330
0000
0010
,  // measure 5
0002
0000
0000
0020
0000
0033
0000
0000
,  // measure 6
2000
0000
0000
0002
0000
3003
0000
0000
,  // measure 7
0200
0000
0000
0002
0000
0303
0000
0000
,  // measure 8
0020
0000
0000
2000
0000
3030
0000
0010
,  // measure 9
1000
0100
0010
0001
,  // measure 10
0100
0000
0010
0000
1000
0000
0010
0100
,  // measure 11
0001
1000
0100
1000
,  // measure 12
0010
0000
0100
0000
0001
0000
1000
0001
,  // measure 13
0100
0000
0010
1000
0010
0000
0100
0001
,  // measure 14
0100
0000
0001
1000
0001
0000
0010
0001
,  // measure 15
0010
0000
0100
0010
0100
0000
1000
0100
,  // measure 16
1000
0001
0100
0010
,  // measure 17
1000
0000
0000
0010
0000
0000
0100
0000
,  // measure 18
0000
0001
0000
0000
1000
0000
0000
0000
,  // measure 19
0001
0000
0000
0100
0000
0000
0010
0000
,  // measure 20
1000
0001
0100
0001
,  // measure 21
1000
0001
0010
0100
,  // measure 22
1000
0020
0000
0100
,  // measure 23
0130
0000
0010
1000
,  // measure 24
0001
0100
0001
1000
,  // measure 25
0100
0010
0001
0100
,  // measure 26
0010
2000
0000
0001
,  // measure 27
3001
0000
0001
0100
,  // measure 28
0010
1000
0100
0010
,  // measure 29
0001
0100
0001
0010
,  // measure 30
0100
0000
1000
0000
0000
0001
0000
0000
,  // measure 31
0100
0000
0010
1000
,  // measure 32
0000
0010
0000
0000
0100
0000
0001
0000
,  // measure 33
0000
1000
0000
0000
0100
0000
1000
0000
,  // measure 34
0000
0001
0000
0000
0000
0100
0000
0000
,  // measure 35
0010
0000
0000
1000
0000
0000
0001
0000
,  // measure 36
0100
0000
0001
0000
0000
1000
0000
0000
,  // measure 37
0100
0000
0000
0010
0000
0000
0001
0000
,  // measure 38
0100
0000
0010
1000
,  // measure 39
0100
0010
0001
1000
,  // measure 40
0001
0000
0100
0000
0000
0010
0000
0000
,  // measure 41
1000
0000
0000
0100
0000
0000
1000
0000
,  // measure 42
0001
0000
0100
0001
,  // measure 43
1000
0001
0010
0010
,  // measure 44
0010
0000
0001
0000
0000
0100
0000
0000
,  // measure 45
0010
0000
1000
0010
,  // measure 46
0100
0002
0000
1000
,  // measure 47
1003
0000
0001
0100
,  // measure 48
0010
0000
1000
0000
0000
0100
0000
0000
,  // measure 49
0010
0001
0000
1000
,  // measure 50
0001
0100
0010
1000
,  // measure 51
0001
0100
0000
0000
,  // measure 52
0000
2002
3003
0000
;

//---------------dance-single - ----------------
#NOTEDATA:;
#CHARTNAME:;
#STEPSTYPE:dance-single;
#DESCRIPTION:;
#CHARTSTYLE:;
#DIFFICULTY:Hard;
#METER:8;
#RADARVALUES:0.484053,0.431247,0.318301,0.308034,0.030803,269.000000,31.000000,30.000000,0.000000,0.000000,0.000000,0.000000,0.000000,0.484053,0.431247,0.318301,0.308034,0.030803,269.000000,31.000000,30.000000,0.000000,0.000000,0.000000,0.000000,0.000000;
#CREDIT:;
#NOTES:
// measure 0
0000
0000
0000
0000
,  // measure 1
0102
0000
0000
0200
0000
0000
0303
0000
,  // measure 2
2010
0000
0000
0020
0000
0000
3030
0000
,  // measure 3
2100
0000
0000
0200
0000
0000
3300
0000
,  // measure 4
0021
0000
0000
0000
0000
0000
0002
0000
0000
0000
0000
0000
0033
0000
0010
0001
,  // measure 5
2001
0000
0000
0002
0000
0000
3003
0000
,  // measure 6
0201
0000
0000
0020
0000
0000
0330
0000
,  // measure 7
1020
0000
0000
0200
0000
0000
0330
0000
,  // measure 8
0201
0000
0000
0020
0000
0000
0330
0010
,  // measure 9
2000
0100
0010
0001
,  // measure 10
3020
0000
0100
0000
1000
0000
0100
0130
,  // measure 11
0002
0100
1000
0010
,  // measure 12
2003
0000
0000
0000
0100
0000
0000
0000
0010
0000
0000
0000
3001
0000
0100
0001
,  // measure 13
0000
0000
0100
0000
0001
0000
1000
0100
0000
0000
1000
0000
0100
0000
0010
0000
,  // measure 14
0001
0000
0100
0000
0010
0000
1000
0010
0000
0000
0000
0000
0100
0000
0010
1000
,  // measure 15
0000
0000
0001
0000
0100
0000
0001
0000
0010
0000
0100
0000
1000
0000
0100
0010
,  // measure 16
0000
0001
0010
0100
1000
0001
0100
0001
,  // measure 17
1000
0010
0100
0001
0010
0100
1000
0100
,  // measure 18
0010
0001
1000
0001
0100
0010
1000
0001
,  // measure 19
1000
1000
1000
1000
1000
1000
1000
1000
,  // measure 20
2000
0000
3001
0100
0000
0010
1000
0000
,  // measure 21
0100
0010
0000
0000
0001
0000
1000
0001
,  // measure 22
0010
0100
1000
0100
1000
0100
0010
0001
,  // measure 23
0100
0001
1001
0110
,  // measure 24
1100
0000
0010
0001
0000
0100
0010
0000
,  // measure 25
1000
0100
0000
0000
0010
0000
0001
0010
,  // measure 26
0100
1000
0100
0010
0100
0010
0001
0010
,  // measure 27
0001
1000
0001
0000
0101
0000
1010
0000
,  // measure 28
0101
2000
3002
0203
,  // measure 29
0320
2030
3200
0320
,  // measure 30
0031
0000
1001
0000
0000
0110
0000
0000
,  // measure 31
1010
0000
0010
0000
1000
0100
0010
0001
,  // measure 32
0000
0101
0000
0000
0001
0010
0100
1000
,  // measure 33
0000
1100
0000
0000
0100
0010
0001
1000
,  // measure 34
0000
0001
0101
0000
0000
1010
0000
0000
,  // measure 35
0110
0000
0000
0101
0000
0000
1001
0000
,  // measure 36
0110
0000
1000
0100
0010
0001
0000
0100
,  // measure 37
0001
0010
0100
1000
0000
0010
1000
0010
,  // measure 38
0100
0000
0001
1000
0001
0000
0010
0100
,  // measure 39
1000
0000
0100
0010
0001
0000
1000
0001
,  // measure 40
0100
0000
0001
1000
0100
0010
0000
0100
,  // measure 41
0010
0100
1000
0010
0000
0100
0010
1000
,  // measure 42
0001
0100
0001
1000
0001
0000
0010
0100
,  // measure 43
1000
0000
0100
0010
0011
0000
0101
0000
,  // measure 44
1010
0000
0100
0010
0000
1000
0001
0000
,  // measure 45
0100
0001
0000
0000
0010
0000
0100
1000
,  // measure 46
0100
0010
0001
0100
0001
0100
0010
1000
,  // measure 47
0100
0010
0001
1000
0000
0000
0101
0000
,  // measure 48
1010
0000
1000
0100
0000
0010
0001
0000
,  // measure 49
0100
0001
0000
0000
1000
0000
0100
0010
,  // measure 50
0001
1000
0001
0100
0010
1000
0010
0100
,  // measure 51
0001
1000
0001
0000
0010
0010
0100
1000
,  // measure 52
0000
2002
3003
0000
;
