#TITLE:Runaway;
#SUBTITLE:(Beautiful Tragedy);
#ARTIST:Linda Király;
#TITLETRANSLIT:;
#SUBTITLETRANSLIT:;
#ARTISTTRANSLIT:Linda Kiraly;
#GENRE:;
#CREDIT:;
#BANNER:[Falling Apart] - Runaway (Beautiful Tragedy).png;
#BACKGROUND:[Falling Apart] - Runaway (Beautiful Tragedy)-bg.png;
#LYRICSPATH:[Falling Apart] - Runaway (Beautiful Tragedy).lrc;
#CDTITLE:cdtitle.png;
#MUSIC:[Falling Apart] - Runaway (Beautiful Tragedy).ogg;
#OFFSET:0.000000;
#SAMPLESTART:53.323330;
#SAMPLELENGTH:11.851849;
#SELECTABLE:YES;
#BPMS:0.000000=81.000000
,120.000000=40.500000
,128.000000=81.000000
;
#STOPS:
;
#BGCHANGES:;
#KEYSOUNDS:;
#ATTACKS:;

//---------------dance-single - ----------------
#NOTES:
     dance-single:
     vincentw-BEG:
     Beginner:
     1:
     0.057852,0.093453,0.007788,0.101241,0.000000,52.000000,51.000000,1.000000,13.000000,0.000000,0.000000,0.057852,0.093453,0.007788,0.101241,0.000000,52.000000,51.000000,1.000000,13.000000,0.000000,0.000000:
// measure 0
0000
0000
0000
0000
,  // measure 1
0000
0000
0000
0000
,  // measure 2
0000
0000
0000
0000
,  // measure 3
0000
0000
0000
0000
,  // measure 4
0000
0000
0000
0000
,  // measure 5
0000
0000
0000
0000
,  // measure 6
1000
0000
0000
0000
,  // measure 7
0001
0000
0000
0000
,  // measure 8
1000
0000
0000
0000
,  // measure 9
0001
0000
0001
0000
,  // measure 10
0010
0000
0010
0000
,  // measure 11
0200
0000
0300
0000
,  // measure 12
2000
0000
3000
0000
,  // measure 13
0002
0000
0003
0000
,  // measure 14
0100
0000
0100
0000
,  // measure 15
0020
0000
0030
0000
,  // measure 16
2000
0000
3000
0000
,  // measure 17
0002
0000
0000
0003
,  // measure 18
1001
0000
1000
0000
,  // measure 19
1000
0000
0000
0000
,  // measure 20
0010
0000
0010
0000
,  // measure 21
0100
0000
0000
0000
,  // measure 22
0001
0000
0001
0000
,  // measure 23
0010
0000
0010
0000
,  // measure 24
0100
0000
0100
0000
,  // measure 25
2000
0000
3000
0000
,  // measure 26
0002
0000
0000
0003
,  // measure 27
2000
0000
0000
3000
,  // measure 28
0010
0000
0010
0000
,  // measure 29
0200
0000
0000
0300
,  // measure 30
0001
0000
1000
0000
,  // measure 31
0100
0000
0010
0010
,  // measure 32
0001
0000
0001
0000
,  // measure 33
0100
0000
0100
0000
,  // measure 34
0010
0000
0010
0000
,  // measure 35
2000
0000
0000
3000
,  // measure 36
0100
0000
0100
0000
,  // measure 37
0020
0000
0000
0030
,  // measure 38
0001
0000
1000
0000
,  // measure 39
0002
0000
0000
0000
,  // measure 40
0003
0000
0000
0000
;

//---------------dance-single - ----------------
#NOTES:
     dance-single:
     vincentw-BAS:
     Easy:
     2:
     0.100128,0.171330,0.015575,0.109028,0.000000,90.000000,88.000000,2.000000,14.000000,0.000000,0.000000,0.100128,0.171330,0.015575,0.109028,0.000000,90.000000,88.000000,2.000000,14.000000,0.000000,0.000000:
// measure 0
0000
0000
0000
0000
,  // measure 1
0000
0000
0000
0000
,  // measure 2
1000
0000
0000
0000
,  // measure 3
0100
0000
0000
0000
,  // measure 4
0010
0000
0000
0000
,  // measure 5
0001
0000
0000
0000
,  // measure 6
1000
0000
1000
0000
,  // measure 7
0010
0000
0010
0000
,  // measure 8
0100
0000
0100
0000
,  // measure 9
0002
0000
0003
0001
,  // measure 10
1000
0000
1000
0000
,  // measure 11
0020
0000
0000
0030
,  // measure 12
1000
0000
0001
0000
,  // measure 13
0020
0000
0000
0030
,  // measure 14
0001
0000
1000
1000
,  // measure 15
0200
0000
0000
0300
,  // measure 16
1000
0000
0001
0000
,  // measure 17
0200
0000
0000
0300
,  // measure 18
0110
0010
0000
0100
,  // measure 19
0001
0010
0000
0010
,  // measure 20
0001
1000
0000
1000
,  // measure 21
0001
0100
0000
0100
,  // measure 22
0010
2000
3000
1000
,  // measure 23
0001
0010
0000
0010
,  // measure 24
0100
1000
0000
1000
,  // measure 25
0002
0000
2000
3003
,  // measure 26
1000
2000
0000
3000
,  // measure 27
0010
0020
0000
0130
,  // measure 28
0200
0000
0302
0000
,  // measure 29
0023
0000
0000
0000
,  // measure 30
0130
1000
0001
0100
,  // measure 31
0010
0000
1000
0000
0001
0000
0010
0010
,  // measure 32
0011
0001
0000
0001
,  // measure 33
0100
0010
0000
0010
,  // measure 34
1000
0100
0000
0100
,  // measure 35
0010
0001
0000
0001
,  // measure 36
1000
0010
0000
0010
,  // measure 37
1000
0001
0000
0001
,  // measure 38
0010
0100
1000
0010
,  // measure 39
0200
0000
0000
0000
,  // measure 40
0300
0000
0000
0000
;

//---------------dance-single - ----------------
#NOTES:
     dance-single:
     vincentw-DIF:
     Medium:
     4:
     0.179118,0.295934,0.023363,0.147967,0.077877,161.000000,158.000000,3.000000,19.000000,0.000000,0.000000,0.179118,0.295934,0.023363,0.147967,0.077877,161.000000,158.000000,3.000000,19.000000,0.000000,0.000000:
// measure 0
0000
0000
0000
0000
,  // measure 1
0000
0000
0000
0000
,  // measure 2
1001
0000
0001
0010
,  // measure 3
0000
0100
1000
0010
,  // measure 4
0000
0100
0001
0100
,  // measure 5
0000
0010
1000
0100
,  // measure 6
1000
1000
0001
0001
,  // measure 7
0100
0100
0010
0010
,  // measure 8
1000
0010
1000
0010
,  // measure 9
0200
0000
0000
0000
0000
0000
0301
0000
0000
0001
0000
0000
0001
0000
0000
0000
,  // measure 10
1000
0010
1000
0100
,  // measure 11
1000
0001
1000
1000
,  // measure 12
0001
0100
0001
0010
,  // measure 13
0001
1000
0001
0001
,  // measure 14
1000
0000
0010
0000
1000
0010
1000
0000
,  // measure 15
0001
0000
0100
0000
0001
0100
0001
0000
,  // measure 16
1000
0000
0100
0000
1000
0100
1000
0000
,  // measure 17
0001
0000
0010
0000
0000
0020
0000
0000
0000
0000
0000
0000
0031
0000
0000
0000
,  // measure 18
0011
0000
0001
0010
0000
0000
0010
0100
,  // measure 19
0000
0100
1000
0000
1000
0000
0010
0000
,  // measure 20
0100
0000
0100
0001
0000
0000
0001
0010
,  // measure 21
0000
0010
0100
0000
1000
0000
0010
0000
,  // measure 22
1000
0000
0001
2000
0000
0000
3100
0000
,  // measure 23
0010
0001
0010
0200
0000
0000
1300
1000
,  // measure 24
0000
0000
0001
0001
0000
0000
0100
0200
,  // measure 25
0000
0000
0000
0000
0000
0000
0000
0310
,  // measure 26
1000
0000
1000
0002
0000
0000
0003
0001
,  // measure 27
0010
0000
0000
0000
0010
0000
0200
0000
0000
0000
0000
0000
1300
0000
0000
1000
,  // measure 28
0000
0000
1000
0000
0000
0000
0000
0000
0001
0000
0000
0001
0000
0000
0002
0000
,  // measure 29
0000
0200
0000
0303
,  // measure 30
0000
0000
0100
0010
0000
0000
0010
1000
0000
1000
0100
0000
0100
0000
0001
0000
,  // measure 31
0100
0000
0100
0010
0000
0000
0010
0001
0000
1000
0010
0000
0001
0000
0010
0000
,  // measure 32
1010
0000
1000
0100
1000
0000
0001
0100
,  // measure 33
0001
0000
0000
0000
1000
0000
0000
2000
0000
0000
0000
0000
3001
0000
0000
0002
,  // measure 34
0000
0000
0000
0000
0013
0000
0000
0020
0000
0000
0000
0000
0130
0000
0000
0200
,  // measure 35
0000
0000
0000
0000
0000
0000
0000
0000
0000
0000
0000
0000
1300
0000
0000
2000
,  // measure 36
0000
0000
0000
0000
3010
0000
0000
0020
0000
0000
0000
0000
0130
0000
0000
0200
,  // measure 37
0000
0000
0000
0000
0000
0000
0000
0000
0000
0000
0000
0000
1300
0000
0000
2000
,  // measure 38
0000
0000
0000
0000
3100
0000
0000
0200
0000
0000
0000
0000
0301
0000
0000
0002
,  // measure 39
0000
0010
0000
1000
0000
0100
0000
1000
,  // measure 40
0003
0000
0000
0000
;

//---------------dance-single - ----------------
#NOTES:
     dance-single:
     vincentw-EXP:
     Hard:
     6:
     0.271458,0.389387,0.015575,0.319297,0.179118,244.000000,242.000000,2.000000,41.000000,0.000000,0.000000,0.271458,0.389387,0.015575,0.319297,0.179118,244.000000,242.000000,2.000000,41.000000,0.000000,0.000000:
// measure 0
0000
0000
0000
0000
,  // measure 1
0000
0000
0000
0000
,  // measure 2
1001
0001
1000
0100
,  // measure 3
1000
0010
0100
0001
,  // measure 4
0010
0001
1000
0100
,  // measure 5
1000
0000
0000
1000
0000
0000
0001
0000
0000
0001
0000
0000
0001
0000
0000
0000
,  // measure 6
0100
0100
0001
0000
0001
0001
1000
0000
,  // measure 7
1000
1000
0010
0000
0010
0010
1000
0000
,  // measure 8
0100
1000
0100
0000
0010
0001
0010
0000
,  // measure 9
0002
0000
0000
0203
0000
0000
0320
0000
0000
2030
0000
0000
3001
0000
0000
0000
,  // measure 10
1000
0000
1000
0000
0010
0100
0001
0100
,  // measure 11
0010
0000
0000
0020
0000
0000
0000
0000
0000
0000
0000
0000
1030
0000
0100
0000
,  // measure 12
1000
0002
0000
1000
1000
0203
0000
1000
,  // measure 13
0010
0302
0000
1000
0010
0100
1003
0001
,  // measure 14
1000
0000
0001
0000
0100
0010
1000
0010
,  // measure 15
0100
0000
0000
0200
0000
0000
0000
0000
0000
0000
0000
0000
0301
0000
0010
0000
,  // measure 16
0001
2000
0000
0001
0001
3020
0000
0001
,  // measure 17
0100
0000
2030
0000
0000
3002
0000
0000
0100
0000
0010
0000
1003
0000
0000
0000
,  // measure 18
1001
0001
1000
0100
0000
1000
0001
0100
,  // measure 19
0000
0010
1000
0100
0000
0010
0001
0100
,  // measure 20
0010
0000
1000
0100
0000
0001
0100
1000
,  // measure 21
0000
0001
0100
0010
1000
0100
0010
0001
,  // measure 22
1000
0010
0001
0010
1000
0002
0003
0002
,  // measure 23
1003
0000
0100
0000
0001
0000
0100
0000
1000
0000
0002
0000
0103
0000
0002
0020
,  // measure 24
0003
0000
0000
0000
0130
0000
1000
0020
0000
0000
0000
0000
1030
0000
1000
0002
,  // measure 25
0000
0200
0300
0020
0030
0200
0300
2003
,  // measure 26
3001
0000
0001
1000
0100
0000
0200
0000
0000
0000
0000
0000
1300
0000
0000
0000
,  // measure 27
0010
0000
0010
1000
0001
0000
0002
0000
0000
0000
0000
0000
0103
0001
0000
2000
,  // measure 28
0000
0000
3001
0000
0010
0000
0000
0100
1000
0000
1000
0010
0000
0000
0002
0000
,  // measure 29
0000
0023
2030
0000
0000
0001
0100
3001
,  // measure 30
0000
0000
1000
0000
0100
0000
0010
0000
0000
0000
0010
0000
0100
0000
1000
0000
0000
0000
0001
0000
0100
0000
0000
0010
0000
0000
0100
0000
0001
0000
0000
0000
,  // measure 31
0010
0000
0100
1000
0000
0010
0100
0001
0000
1000
0001
0010
0100
0010
1000
0010
,  // measure 32
0001
0000
1000
0000
0010
0000
0010
0100
0000
0000
0002
0000
0003
0000
0020
0000
,  // measure 33
0130
0000
0100
0000
1000
0000
0001
2000
0000
0000
3020
0000
1030
0000
0100
1000
,  // measure 34
0000
0000
0000
0000
0001
0000
0010
0100
0000
0000
0000
0100
1000
0000
1000
0020
,  // measure 35
0000
0000
0001
0000
0000
0000
0100
0000
0000
0000
1030
0000
0010
0000
1000
0100
,  // measure 36
0000
0000
0000
0000
0001
0000
0100
1000
0000
0000
0000
1000
0010
0000
0010
0200
,  // measure 37
0000
0000
1000
0000
0000
0000
0010
0000
0000
0000
0301
0000
1000
0001
1000
0001
,  // measure 38
0000
0000
0000
0000
0100
0010
0100
0010
0000
0000
0000
0100
0001
0000
0001
2000
,  // measure 39
0000
0002
0003
0020
0030
0002
0003
0200
,  // measure 40
3300
0000
0000
0000
;

//---------------dance-single - ----------------
#NOTES:
     dance-single:
     vincentw-CHA:
     Challenge:
     8:
     0.480615,0.654170,0.249208,0.366024,0.595762,432.000000,400.000000,32.000000,47.000000,0.000000,0.000000,0.480615,0.654170,0.249208,0.366024,0.595762,432.000000,400.000000,32.000000,47.000000,0.000000,0.000000:
// measure 0
0000
0000
0000
0000
,  // measure 1
0000
0000
0000
0000
,  // measure 2
1001
0000
0000
0000
0001
0000
0000
1000
0000
0000
1000
0000
0001
0000
0000
0000
,  // measure 3
0100
0000
0000
0000
0010
0000
0000
0100
0000
0000
0100
0000
0010
0000
0000
0000
,  // measure 4
1000
0000
0000
0000
0100
0000
0000
0010
0000
0000
0010
0000
0001
0000
0000
0000
,  // measure 5
1000
0000
0000
0000
0010
0000
0000
0100
0000
0000
0100
0000
0001
0000
0000
0000
,  // measure 6
1000
0000
0100
0000
1000
0000
0001
0100
0000
0100
0001
0000
0010
0000
0000
0000
,  // measure 7
0100
0000
1000
0000
0100
0000
0010
0001
0000
0001
0100
0000
0010
0000
0000
0000
,  // measure 8
0010
0000
1000
0000
0100
0000
1000
0001
0000
1000
0001
0000
0100
0000
0000
0000
,  // measure 9
0001
0000
0010
0000
1000
0000
0010
0001
0010
0100
0000
1000
0100
0000
1000
0000
,  // measure 10
0001
0000
0010
0001
0000
0100
0001
0000
1000
0001
0100
0010
0001
0000
0010
0000
,  // measure 11
1000
0000
0001
1000
0000
0010
1000
0000
0100
1000
0010
0001
1000
0000
0100
0000
,  // measure 12
0001
0010
0002
0000
0003
1000
0100
1000
0001
1000
0010
0000
0100
0000
0001
0010
,  // measure 13
1000
0010
0001
1000
0100
0000
1000
0010
0001
0100
0000
0001
0010
0000
1000
0000
,  // measure 14
0100
0000
0001
0100
0000
0010
0100
0000
1000
0100
0010
0001
0100
0000
0001
0000
,  // measure 15
0010
0000
1000
0010
0000
0100
0010
0000
0001
0010
0100
1000
0010
0000
0001
0000
,  // measure 16
0010
1000
2000
0000
3000
0001
0100
0001
1000
0001
0010
0000
0100
1000
0010
0001
,  // measure 17
0010
0000
0000
0000
1000
0000
0000
0000
0000
0000
1000
0000
0000
0000
0001
1000
0001
0000
1000
0000
0010
0000
0100
0000
0220
0000
0000
0000
0330
0000
0000
0000
,  // measure 18
1001
0000
0001
0010
0022
0000
0033
0000
1001
0000
1000
0100
2200
0000
3300
0000
,  // measure 19
1000
0000
0010
0100
0001
0000
0010
1000
0000
0010
0001
0000
0100
0000
0010
0000
,  // measure 20
0110
0000
0010
1000
2020
0000
3030
0000
0110
0000
0100
0001
0202
0000
0303
0000
,  // measure 21
0100
0000
0010
1000
0010
0000
0100
0001
0010
1000
0000
0001
0100
1000
0010
0000
,  // measure 22
1010
0000
0001
0000
0011
0000
1000
0000
1100
0000
0001
0000
0101
0000
1000
0010
,  // measure 23
1000
0000
0001
0100
0001
0000
0010
0001
0000
0001
0010
0000
0100
1000
0100
1000
,  // measure 24
0001
0000
1000
0001
2002
0000
3003
0000
0010
0000
0100
0010
0220
0000
0330
0000
,  // measure 25
1000
0000
0000
0000
0000
0000
0000
0000
0000
0000
0000
0000
0100
0000
0000
0000
0000
0000
0000
0000
0000
0000
0000
0000
0010
0000
0000
0000
0000
0000
0000
0000
0000
0000
0000
0000
0000
0000
0000
0000
0000
0000
0000
0000
0000
0000
0000
0000
0001
0000
0000
0000
0000
0000
0000
0000
0000
0000
0000
0000
0100
0000
0000
0000
0000
0000
0000
0000
0000
0000
0000
0000
0010
0000
0000
0000
0000
0000
0000
0000
0000
0000
0000
0000
1000
0000
0000
0000
0000
0000
0000
0000
0000
0000
0000
0000
0000
0000
0000
0000
0000
0000
0000
0000
0000
0000
0000
0000
0100
0000
0000
0000
0000
0000
0000
0000
0000
0000
0000
0000
0001
0000
0000
0000
0000
0000
0000
0000
0000
0000
0000
0000
0100
0000
0000
0000
0000
0000
0000
0000
0000
0000
0000
0000
1000
0000
0000
0000
0000
0000
0000
0000
0000
0000
0000
0000
0000
0000
0000
0000
0000
0000
0000
0000
0000
0000
0000
0000
0002
0000
0000
0000
0000
0000
0000
0000
0000
0000
0000
0000
0100
0000
0000
0000
0000
0000
0000
0000
0000
0000
0000
0003
,  // measure 26
0001
0000
0010
0100
1000
0000
0010
1000
0100
0001
0100
1000
0010
0000
1000
0100
,  // measure 27
1000
0000
0010
0100
0001
0000
0010
0001
0100
1000
0100
0001
0010
0100
0000
0100
,  // measure 28
1000
0010
1000
0000
0001
0000
0100
0010
1000
0100
0010
1000
0010
0000
0002
0003
,  // measure 29
0200
0000
0000
0000
0320
0000
0000
0000
0031
0000
0000
0000
0010
0000
1000
0010
1000
0000
1010
0000
0001
0000
0100
0000
0101
0000
0000
0000
2000
0000
0000
0000
,  // measure 30
3001
1000
0001
1000
0000
0000
0000
0000
0010
0100
0010
0100
0000
0000
0000
0000
0001
0100
0001
0100
0001
0000
1000
0010
0000
0010
1000
0000
0100
0000
0010
0000
,  // measure 31
0001
0100
0010
1000
0200
0000
0000
0000
1300
0010
0100
0001
0020
0000
0000
0000
0031
0000
1000
0100
1000
0000
0001
0010
1000
0010
0000
0001
0100
1000
0100
0000
,  // measure 32
0001
0100
0001
0000
0120
0000
1030
0000
0010
0100
0010
0000
1002
0000
0013
0000
,  // measure 33
0001
0010
0100
1000
1100
0000
1000
0010
0000
0100
0001
0000
0101
0000
0100
0000
,  // measure 34
0001
0100
0010
1000
2020
0000
3030
0000
1000
0100
0010
0001
0022
0000
0033
0000
,  // measure 35
1000
0010
0002
0000
1003
0100
0002
1000
0003
0010
0200
0000
0301
0010
0200
0000
,  // measure 36
1300
0001
0100
0010
0220
0000
0330
0000
0010
0100
0001
1000
2002
0000
3003
0000
,  // measure 37
0001
0010
2000
0000
3001
0100
2000
0001
3000
0100
0020
0000
0031
0010
0200
0000
,  // measure 38
1300
0100
0001
0010
0022
0000
0003
0000
1030
0010
0001
0100
0202
0000
0303
0000
,  // measure 39
0100
0000
0011
0000
0100
0000
1010
0100
0000
0010
1100
0000
0010
0000
0202
0000
,  // measure 40
0303
0000
0000
0000
;
