#VERSION:0.81;
#TITLE:Patience;
#SUBTITLE:(Mike Rizzo Funk Generation Remix);
#ARTIST:Nick Lachey;
#TITLETRANSLIT:;
#SUBTITLETRANSLIT:;
#ARTISTTRANSLIT:;
#GENRE:;
#ORIGIN:;
#CREDIT:;
#BANNER:Patience (Remix) - Nick Lacheybn.png;
#BACKGROUND:Patience (Remix) - Nick Lacheybg.png;
#PREVIEWVID:;
#JACKET:Patience (Remix) - Nick Lacheyjacket.png;
#CDIMAGE:;
#DISCIMAGE:;
#LYRICSPATH:Patience (Remix) - Nick Lachey.lrc;
#CDTITLE:encorerebirth.png;
#MUSIC:Patience (Remix) - Nick Lachey.ogg;
#OFFSET:0.002;
#SAMPLESTART:38.401;
#SAMPLELENGTH:15.484;
#SELECTABLE:YES;
#BPMS:0.000=124.000;
#STOPS:;
#DELAYS:;
#WARPS:;
#TIMESIGNATURES:0.000=4=4;
#TICKCOUNTS:0.000=4;
#COMBOS:0.000=1;
#SPEEDS:0.000=1.000=0.000=0;
#SCROLLS:0.000=1.000;
#FAKES:;
#LABELS:0.000=Song Start;
#BGCHANGES:;
#KEYSOUNDS:;
#ATTACKS:
;

//---------------dance-single - Spork!----------------
#NOTEDATA:;
#CHARTNAME:;
#STEPSTYPE:dance-single;
#DESCRIPTION:Spork!;
#CHARTSTYLE:;
#DIFFICULTY:Beginner;
#METER:1;
#RADARVALUES:0.080,0.098,0.065,0.016,0.000,59.000,8.000,2.000,0.000,0.000,0.000,0.000,0.000,0.080,0.098,0.065,0.016,0.000,59.000,8.000,2.000,0.000,0.000,0.000,0.000,0.000;
#CREDIT:Spork!;
#NOTES:
// measure 0
0000
0000
0000
0000
,  // measure 1
0000
0000
0000
0000
,  // measure 2
0000
0000
0000
0000
,  // measure 3
0000
0000
0000
0000
,  // measure 4
1000
0000
0000
0000
,  // measure 5
1000
0000
0000
0000
,  // measure 6
0020
0000
0000
0000
,  // measure 7
0230
0000
0000
0000
,  // measure 8
0301
0000
0000
0000
,  // measure 9
0001
0000
0000
0000
,  // measure 10
1000
0000
0001
0000
,  // measure 11
0100
0000
0001
0000
,  // measure 12
1000
0000
0000
0000
,  // measure 13
1000
0000
0000
0000
,  // measure 14
0001
0000
1000
0000
,  // measure 15
0100
0000
0000
1000
,  // measure 16
0000
0100
0000
0010
,  // measure 17
0000
0001
0000
1000
,  // measure 18
0000
0010
0000
0100
,  // measure 19
0100
0000
0000
0000
,  // measure 20
1001
0000
0000
0000
,  // measure 21
0000
0000
0000
0000
,  // measure 22
1001
0000
0000
0000
,  // measure 23
0000
0000
0000
0000
,  // measure 24
0010
0000
0000
0000
,  // measure 25
0100
0000
0000
0000
,  // measure 26
1001
0000
0000
0000
,  // measure 27
0000
0000
0000
0000
,  // measure 28
1000
0000
0000
0000
,  // measure 29
1000
0000
0000
0000
,  // measure 30
0001
0000
0000
0000
,  // measure 31
0001
0000
0000
0000
,  // measure 32
1000
0000
0010
0000
,  // measure 33
1000
0000
0001
0000
,  // measure 34
0010
0000
0000
0000
,  // measure 35
0010
0000
0000
0000
,  // measure 36
0110
0000
0000
0000
,  // measure 37
0000
0000
0000
0000
,  // measure 38
1000
0000
0000
0000
,  // measure 39
0000
0000
0000
0000
,  // measure 40
1001
0000
0000
0000
,  // measure 41
0000
0000
0000
0000
,  // measure 42
1001
0000
0000
0000
,  // measure 43
0000
0000
0000
0000
,  // measure 44
0010
0000
0000
0000
,  // measure 45
0100
0000
0000
0000
,  // measure 46
1001
0000
0000
0000
,  // measure 47
0000
0000
0000
0000
,  // measure 48
0100
0000
0000
0000
,  // measure 49
0010
0000
1000
0000
,  // measure 50
0100
0000
0000
0000
,  // measure 51
0010
0000
0001
0000
,  // measure 52
1000
0000
0000
0000
,  // measure 53
0001
0000
0000
0000
,  // measure 54
1001
0000
0000
0000
,  // measure 55
0000
0000
0000
0000
,  // measure 56
0001
0000
0000
0000
,  // measure 57
0001
0000
0000
0000
,  // measure 58
1000
0000
0000
0000
,  // measure 59
1000
0000
0000
0000
,  // measure 60
0100
0000
0000
0000
;

//---------------dance-double - Spork!----------------
#NOTEDATA:;
#CHARTNAME:;
#STEPSTYPE:dance-double;
#DESCRIPTION:Spork!;
#CHARTSTYLE:;
#DIFFICULTY:Challenge;
#METER:9;
#RADARVALUES:0.467,0.428,0.236,0.154,0.280,354.000,29.000,19.000,102.000,0.000,2.000,0.000,0.000,0.467,0.428,0.236,0.154,0.280,354.000,29.000,19.000,102.000,0.000,2.000,0.000,0.000;
#CREDIT:Spork!;
#NOTES:
00000000
00M0M000
00000000
00000000
00000000
00000000
00000000
00000000
,
00000000
00000000
000M00M0
00000000
00000000
00000000
00000000
0000M000
00000000
00000000
0M000000
000M0000
00000000
00000M00
0000M000
00000000
,
00000000
000M000M
00000000
00000000
00000000
00000000
00000000
00000000
,
00000000
00000000
M000M000
00000000
00000000
00000000
00000000
000M0000
00000000
00000000
000000M0
00000M00
00000000
0M000000
00M00000
00000000
,
00010000
001000M0
01000000
00000000
00010000
01000000
10000000
00100000
,
01000000
000010M0
00010000
00000000
00100000
00010000
00001000
00000100
,
00000010
00M10000
00001000
00000000
00000010
00001000
00010000
01000000
,
00100000
00000000
00001M00
00000000
00010000
00000000
00000000
0000000M
01000000
00000000
M0010000
00000000
00001000
00M00000
0M000100
00000000
,
00000001
00000000
00001100
00000000
00000000
00000000
00000000
00010100
00000000
00000000
00001010
00000000
00000000
00001001
00000000
00000000
,
00001000
00000000
00000101
00000000
00000000
00000000
00000000
00000010
00000000
00000010
00001000
00000000
00000010
00000000
00010000
00000000
,
00001000
00000000
00000021
00000100
00000000
00020030
00000000
00230000
,
00001000
00000000
00300000
00000000
00011000
00000000
00000000
00010000
00000000
00010000
00100000
00000000
01000000
00000000
00010000
00000000
,
10000000
00000000
00110000
00000000
00000000
00000000
00000000
00101000
00000000
00000000
01010000
00000000
00000000
10010000
00000000
00000000
,
00010000
00000000
11000000
00000000
00000000
00000000
00000000
00100000
00000000
00100000
00010000
00000000
00100000
00000000
00001000
00000000
,
00010000
00000000
10200000
01000000
00000000
00302000
00000000
00003020
,
00001000
00000000
00000030
00000000
00011000
00000000
00000000
00010000
00000000
00010000
01000000
00000000
00100000
00000000
00010000
00000000
,
00000000
10000000
00100000
00010000
00000000
00000001
00000010
00001000
,
00000000
00000001
00000100
00001000
00000000
10000000
01000000
00010000
,
00000000
00000010
00000100
00001000
00000001
00000100
00000010
00001001
,
00000000
00011000
00000000
10010000
00000000
00011000
00000000
00010000
,
00100000
00000000
1000M000
00000000
00000000
00000000
01000000
00100000
00000000
00000000
00002000
00000000
00000000
00000000
00013000
00000000
,
01000000
00000000
1000000M
00000000
00001000
00000000
000100M0
00100M00
00000000
00000000
0M010000
00001000
00000000
00M10000
M0001000
00000000
,
00000010
00000000
000M0001
00000000
00000000
00000000
00001000
00000010
00000000
00000000
00020000
00000000
00000000
00000000
00031000
00000000
,
00000010
00000000
M0000001
00000000
00010000
00000000
00M01000
0M000000
00000100
00000000
000M0010
00000000
00001000
0M000000
M0000001
00000000
,
00000010
00M01000
00010000
01000000
00100000
00000000
00001000
00010000
,
00100000
10000M00
00010000
00100000
01000000
00000000
00010000
00001000
,
00000100
00000000
000M0001
00000000
00000000
00000000
00000010
00000100
00000000
00000000
00020000
00000000
00000000
00000000
00031000
00000000
,
00000010
00000000
M0000001
00000000
00010000
00000000
00M01000
0M000000
00000100
00000000
000000M1
00000000
00001000
00M00000
00000100
00000000
,
00000000
00000000
0000M110
00000000
00000000
00000000
00000000
00000000
00000100
00000000
00001000
00000000
00000010
00000000
00000000
00100M00
,
00000000
00000000
1M010000
00000000
00000000
00000000
00000000
00000000
01000000
00000000
00010000
00000000
00100000
00000000
00000000
0M000010
,
00000000
00000000
00001M01
00000000
00000000
00000000
00000000
00000000
00000010
00000000
00001000
00000000
00000100
00000000
00000000
010000M0
,
00000000
00000000
10M10000
00000000
00000000
00000000
00000000
00100000
00000000
00100000
00010000
00000000
01000000
00000000
00100000
00000000
,
10000000
01000000
00010000
01000000
00001000
00010000
00000010
00001000
,
00000010
00000001
00000010
00001000
00000010
00010000
00001000
01000000
,
10000000
00100000
00010000
00100000
00001000
00010000
00000100
00001000
,
00000100
00000001
00000100
00001000
00000100
00010000
00001000
00100000
,
20000000
00000000
00000000
00010000
00000000
00010000
00000000
00000000
,
00000000
00000000
00000000
00000000
30000000
00000000
01000000
00100000
,
00040000
00000000
00000000
01000000
00000000
01000000
00000000
00000000
,
00000000
40000000
00000000
00000000
00000000
00000000
00000000
00000000
00000000
00000000
00000000
30000000
00030000
00000000
00010000
00000000
,
00100000
00000000
0M001000
00000000
00000000
00000000
00010000
00100000
00000000
00000000
20000000
00000000
00000000
01000000
00000000
00000000
,
30010000
00000000
00100M00
00000000
00001000
00000000
M1000000
0001000M
00000000
00000000
00M00100
00000000
00000001
0000M000
00000010
00000000
,
00000100
00000000
0M010000
00000000
00001000
00000000
00001000
00000010
00000000
00000000
00000002
00000000
00000000
00000100
00000000
00000000
,
00001003
00000000
000M0100
00000000
00000001
00000000
00M00010
M0000000
00000100
00000000
000000M1
00000000
00000100
0M000000
0000100M
00000000
,
00000010
00M10000
00001000
00000100
00000010
00000000
00010000
00001000
,
00010000
01000M00
00100000
00010000
01000000
00000000
01000000
00010000
,
00100000
00000000
0M001000
00000000
00000000
00000000
00010000
00100000
00000000
00000000
00200000
00000000
00000000
01000000
00000000
00000000
,
10300000
00000000
0010M000
00000000
00010000
00000000
M0001000
00000M00
01000000
00000000
00M10000
00000000
01000000
00000000
00001000
00000000
,
00000200
00000000
000M0000
00000000
00000001
00000000
00000301
00001000
00000000
00000000
00000010
00000000
00000000
00001000
00000000
00000000
,
00000100
00000000
0M000010
00000000
00010000
00000000
0010000M
00000M00
00001000
00000000
0M010000
00000000
00100000
00000M00
10000000
00000000
,
02000000
00000000
0000M000
00000000
10000000
00000000
13000000
00010000
00000000
00000000
01000000
00000000
00100000
00000000
00010000
00000000
,
00000010
00000000
0M000100
00000000
00001000
00000000
00M00001
00000M00
00000000
00000000
000M1000
00000010
00000000
0M000010
00000100
00000000
,
00000001
00000M10
00001000
00010000
00001000
00000000
00100000
00010000
,
10000000
01M00000
00010000
00001000
00010000
00000000
00000010
00001000
,
00000100
00000000
0001000M
00000000
00000000
00000000
00001000
00000100
00000000
00000000
00000001
00000000
00001200
00000000
00000000
00000000
,
00010300
00000000
0M001000
00000000
00000000
00000000
00010M00
0010M000
00000000
00000000
100000M0
00000000
00210000
0M000000
00000000
00000000
,
00300000
00000000
0101M000
00000000
00000000
00000000
00000000
00100000
00000000
00000000
00001000
00000000
00000000
00000100
00000000
000M0010
,
00000000
00000000
00001M10
00000000
00000000
00000000
00000000
00000001
00000000
00000001
00000010
00000000
00000100
00000000
00000000
000000M1
,
00000000
00000000
000M1100
00000000
00000000
00000000
00000000
00000010
00000000
00000000
00001000
00000000
00000000
01000000
00000000
0010M000
,
00000000
00000000
110M0000
00000000
00000000
00000000
00000000
10000000
00000000
10000000
00100000
00000000
01000000
00000000
00001000
00000000
,
00202000
00000000
00000000
00000000
,
00000000
00000000
00000000
00000000
,
00303000
00000000
00000000
00000000
;

//---------------dance-double - Spork!----------------
#NOTEDATA:;
#CHARTNAME:;
#STEPSTYPE:dance-double;
#DESCRIPTION:Spork!;
#CHARTSTYLE:;
#DIFFICULTY:Easy;
#METER:4;
#RADARVALUES:0.253,0.277,0.138,0.154,0.000,182.000,17.000,19.000,0.000,0.000,0.000,0.000,0.000,0.253,0.277,0.138,0.154,0.000,182.000,17.000,19.000,0.000,0.000,0.000,0.000,0.000;
#CREDIT:Spork!;
#NOTES:
00000000
00000000
00000000
00000000
,
00000000
00000000
00000000
00000000
,
00000000
00000000
00000000
00000000
,
00000000
00000000
00000000
00000000
,
00001000
00100000
01000000
01000000
,
10000000
00010000
01000000
00001000
,
00010000
00000010
00000100
00000100
,
00000001
00001000
00000100
00010000
,
00002000
00003000
00002000
00003000
,
00002000
00003000
00001000
00100000
,
01000000
01000000
00010000
00001000
,
00000100
00000000
00000100
00000010
,
00020000
00030000
00020000
00030000
,
00020000
00030000
00010000
00000100
,
00000010
00000010
00001000
00010000
,
00100000
00000000
00100000
01100000
,
00000000
00011000
00000000
00000110
,
00000000
00011000
00000000
00001001
,
00000000
00000010
00000100
00000100
,
00000002
00000023
00000230
00002300
,
00003001
00000001
00000001
00000001
,
00000100
00001000
00010000
01000000
,
10000000
10000000
10000000
10000000
,
00100000
00010000
00001000
00011000
,
00001000
00100000
01000000
01100000
,
00100000
00010000
01000000
10010000
,
10000000
10000000
10000000
10000000
,
01000000
00100000
00001000
00010000
,
00010000
00000000
00010000
00001000
,
00100000
00000000
00001000
00010000
,
00000010
00000000
00010000
00001000
,
01000000
00000000
00001000
00010000
,
00000100
00010000
00001000
00100000
,
00010000
01000000
00001000
00010000
,
00000010
00000000
00000010
00000000
,
00000100
00000000
00000100
00000100
,
00002002
00000000
00000000
00000000
,
00000000
00000000
00003003
00000000
,
20020000
00000000
00000000
00000000
,
00000000
00000000
30030000
00000000
,
00001000
00001000
00001000
00001000
,
01000000
00100000
00010000
00001000
,
00010000
00010000
00010000
00010000
,
00000100
00000010
00001000
00011000
,
00010000
00000010
00000100
00000110
,
00000010
00001000
00000100
00001001
,
00000001
00000001
00000001
00000001
,
00000010
00000100
00010000
00000010
,
00000200
00000000
00000000
00000000
,
00000301
00000100
00001000
01000000
,
00200000
00000000
00000000
00000000
,
10300000
00010000
10000000
10010000
,
00010000
01000000
00001000
00011000
,
00010000
00000100
00000010
00011000
,
00001000
00001000
00001000
00001000
,
00020000
00000000
00000000
00000000
,
00031000
01000000
00100000
00100000
,
10000000
00010000
01000000
00001000
,
00010000
00000100
00000010
00000010
,
00000001
00001000
00000100
00010000
,
00022000
00000000
00000000
00000000
,
00000000
00000000
00000000
00000000
,
00033000
00000000
00000000
00000000
;

//---------------dance-single - Spork!----------------
#NOTEDATA:;
#CHARTNAME:;
#STEPSTYPE:dance-single;
#DESCRIPTION:Spork!;
#CHARTSTYLE:;
#DIFFICULTY:Medium;
#METER:6;
#RADARVALUES:0.312,0.327,0.260,0.252,0.024,206.000,32.000,31.000,0.000,0.000,0.000,0.000,0.000,0.312,0.327,0.260,0.252,0.024,206.000,32.000,31.000,0.000,0.000,0.000,0.000,0.000;
#CREDIT:Spork!;
#NOTES:
// measure 0
0000
0000
0000
0000
,  // measure 1
0000
0000
0000
0000
,  // measure 2
0000
0000
0000
0000
,  // measure 3
0000
0000
0000
0000
,  // measure 4
0000
0101
0000
0000
0001
0010
0100
0000
,  // measure 5
0000
1010
0000
0000
1000
0100
0010
0000
,  // measure 6
0000
1001
0000
0000
0010
0000
0011
0000
,  // measure 7
0000
1001
0000
0000
0010
0000
1010
0000
,  // measure 8
0020
1000
0000
1030
,  // measure 9
0200
0001
0000
0301
,  // measure 10
0010
1000
0010
0001
,  // measure 11
1000
0100
0010
0011
,  // measure 12
0020
0001
0000
0031
,  // measure 13
0200
1000
0000
1300
,  // measure 14
0010
0001
0010
1000
,  // measure 15
0001
0000
0000
0000
0000
0010
0001
0000
,  // measure 16
0000
0001
0100
0000
0000
0100
0010
0000
,  // measure 17
0000
0010
1000
0000
0000
1000
0001
0000
,  // measure 18
0010
0001
1000
0100
,  // measure 19
0020
0000
0000
0000
0000
0000
0030
0100
,  // measure 20
1000
0000
1100
0000
1000
0001
0000
0202
,  // measure 21
0000
0303
0100
0000
0100
0001
1000
0000
,  // measure 22
0001
0000
0101
0000
0001
1000
0000
2200
,  // measure 23
0000
3300
0010
0000
0010
0001
1000
0000
,  // measure 24
0010
0100
0002
1003
,  // measure 25
0010
0100
2000
3001
,  // measure 26
1000
0000
1010
0000
1000
0001
0000
0022
,  // measure 27
0000
0033
0100
0000
0010
0000
0001
0000
,  // measure 28
0000
0000
1100
0000
0000
0000
0000
0000
0000
0000
0000
0000
0000
0000
0000
0001
,  // measure 29
0000
0000
0101
0000
0000
0000
0000
0000
0000
0000
0000
0000
0000
0000
0000
0010
,  // measure 30
0000
0000
1001
0000
0000
0000
0000
0000
0000
0000
0000
0000
0000
0000
0000
1000
,  // measure 31
0000
0110
0000
0000
0000
0010
0100
0010
,  // measure 32
0000
0010
1000
0010
0000
0100
0010
0100
,  // measure 33
0000
0100
0001
0100
0000
0001
0000
0000
,  // measure 34
1000
0000
0100
0000
0010
0100
1000
0000
,  // measure 35
0001
0000
0100
0000
0010
0100
0001
0000
,  // measure 36
2000
0000
0000
0000
,  // measure 37
0000
0000
3000
0000
,  // measure 38
0002
1000
1000
1000
,  // measure 39
1000
1000
1000
0000
1003
1000
1000
0000
,  // measure 40
0001
0000
0011
0000
0010
0100
0000
0022
,  // measure 41
0000
0033
0100
0000
0100
0001
1000
0000
,  // measure 42
1000
0000
1100
0000
0100
0010
0000
2200
,  // measure 43
0000
3300
0010
0000
0010
1000
0001
0000
,  // measure 44
0010
0001
0200
0301
,  // measure 45
0010
1000
0200
0310
,  // measure 46
1000
0000
1010
0000
0010
0100
0000
2020
,  // measure 47
0000
3030
0100
0000
0100
1000
0001
0000
,  // measure 48
1002
0100
0000
0103
,  // measure 49
0001
1000
0010
0000
0100
0001
1000
0000
,  // measure 50
2001
0100
0000
3100
,  // measure 51
1000
0001
0100
0001
0000
1000
0001
0000
,  // measure 52
0100
0001
0020
0030
,  // measure 53
0100
1000
0020
0030
,  // measure 54
0100
0000
1001
0000
0100
1000
0000
0202
,  // measure 55
0000
0303
0010
0000
0010
0001
1000
0000
,  // measure 56
0000
0000
0011
0000
0000
0000
0000
0000
0000
0000
0000
0000
0000
0000
0000
1000
,  // measure 57
0000
0000
1010
0000
0000
0000
0000
0000
0000
0000
0000
0000
0000
0000
0000
0100
,  // measure 58
0000
0000
1001
0000
0000
0000
0000
0000
0000
0000
0000
0000
0000
0000
0000
0001
,  // measure 59
0000
0110
0000
0000
0000
0000
0000
0000
,  // measure 60
2002
0000
0000
0000
,  // measure 61
0000
0000
0000
0000
,  // measure 62
3003
0000
0000
0000
;

//---------------dance-single - Spork!----------------
#NOTEDATA:;
#CHARTNAME:;
#STEPSTYPE:dance-single;
#DESCRIPTION:Spork!;
#CHARTSTYLE:;
#DIFFICULTY:Easy;
#METER:4;
#RADARVALUES:0.259,0.247,0.179,0.187,0.000,178.000,22.000,23.000,0.000,0.000,0.000,0.000,0.000,0.259,0.247,0.179,0.187,0.000,178.000,22.000,23.000,0.000,0.000,0.000,0.000,0.000;
#CREDIT:Spork!;
#NOTES:
// measure 0
0000
0000
0000
0000
,  // measure 1
0000
0000
0000
0000
,  // measure 2
0000
0000
0000
0000
,  // measure 3
0000
0000
0000
0000
,  // measure 4
2002
0000
0000
3003
,  // measure 5
0010
0010
0100
0000
,  // measure 6
0001
1000
0100
0000
,  // measure 7
0010
0010
0100
0000
,  // measure 8
1001
1000
0001
0000
,  // measure 9
0100
0001
1000
0000
,  // measure 10
0010
1000
0001
0000
,  // measure 11
0010
0001
1000
0000
,  // measure 12
0001
0010
0100
0000
,  // measure 13
1000
0010
0100
0000
,  // measure 14
0010
1000
0100
0000
,  // measure 15
0010
0001
1000
1001
,  // measure 16
0000
0110
0000
0101
,  // measure 17
0000
1100
0000
0110
,  // measure 18
0000
1000
0100
0010
,  // measure 19
0001
0001
1000
1000
,  // measure 20
2001
0010
0001
0100
,  // measure 21
3001
0000
0010
0100
,  // measure 22
1002
0010
1000
0100
,  // measure 23
1003
0000
0010
0100
,  // measure 24
0001
2000
3001
0000
,  // measure 25
0010
0200
0310
0000
,  // measure 26
0210
1000
0010
1300
,  // measure 27
0001
0000
1000
0001
,  // measure 28
2002
0000
0000
3003
,  // measure 29
0010
0100
0001
0000
,  // measure 30
1000
1000
0100
0000
,  // measure 31
0010
0100
1000
0000
,  // measure 32
0001
0100
1000
0100
,  // measure 33
0001
0100
1000
0100
,  // measure 34
0001
0010
1000
0010
,  // measure 35
0001
0010
1000
0010
,  // measure 36
0002
0000
0000
0003
,  // measure 37
2000
0000
0000
3000
,  // measure 38
2002
0000
0000
3003
,  // measure 39
0010
0010
0100
0100
,  // measure 40
1002
0010
0100
1000
,  // measure 41
0103
0000
0010
0100
,  // measure 42
2001
0100
0010
0001
,  // measure 43
3010
0000
1000
0001
,  // measure 44
1001
0100
0010
0000
,  // measure 45
0110
1000
0010
0000
,  // measure 46
0210
0001
0010
0301
,  // measure 47
1000
0010
1000
0100
,  // measure 48
1001
0100
0010
1000
,  // measure 49
0001
0010
0100
0010
,  // measure 50
1001
0100
0010
0001
,  // measure 51
0100
0001
1000
0010
,  // measure 52
0100
0020
1030
0000
,  // measure 53
0001
0020
0130
0000
,  // measure 54
2001
0100
0010
0100
,  // measure 55
3001
0100
0010
1000
,  // measure 56
2002
0000
0000
3003
,  // measure 57
1000
0100
0010
0001
,  // measure 58
0100
0001
1000
0010
,  // measure 59
0100
0001
0010
0100
,  // measure 60
2002
0000
0000
3003
;

//---------------dance-double - Spork!----------------
#NOTEDATA:;
#CHARTNAME:;
#STEPSTYPE:dance-double;
#DESCRIPTION:Spork!;
#CHARTSTYLE:;
#DIFFICULTY:Hard;
#METER:8;
#RADARVALUES:0.411,0.403,0.203,0.236,0.089,300.000,25.000,29.000,0.000,0.000,0.000,0.000,0.000,0.411,0.403,0.203,0.236,0.089,300.000,25.000,29.000,0.000,0.000,0.000,0.000,0.000;
#CREDIT:Spork!;
#NOTES:
00000000
00000000
00000000
00000000
,
00000000
00000000
00000000
00000000
,
00000000
00000000
00000000
00000000
,
00000000
00000000
00000000
00000000
,
00022000
00000000
00000000
00033000
,
00100000
00020000
01000000
00030000
10000000
00000000
01010000
00000000
,
01000000
00002000
00010000
00003000
00100000
00000000
00011000
00000000
,
00000010
00002000
00000100
00003000
00000010
00000000
00001001
00000000
,
00000001
00000000
00001000
00000000
00000010
00000000
00000000
00010000
00000000
00000000
00000100
00000000
00000000
00001000
00000000
00000000
,
00000100
00000000
00010000
00000000
00001000
00000000
00000000
01000000
00000000
01000000
00100000
00000000
01000000
00000000
00010000
00000000
,
00010000
00000000
10000000
00000000
00100000
00000000
00000000
10000000
00000000
00000000
00010000
00000000
00000000
10000000
00000000
00000000
,
01000000
00000000
00100000
00000000
00001000
00000000
00000000
00010000
00000000
00010000
00000010
00000000
00000100
00000000
00000001
00000000
,
00000001
00000000
00001000
00000000
00000100
00000000
00000000
00000010
00000000
00000000
00000100
00000000
00000000
00010000
00000000
00000000
,
00001000
00000000
01000000
00000000
00100000
00000000
00000000
10000000
00000000
10000000
01000000
00000000
00100000
00000000
00010000
00000000
,
00010000
00000000
10000000
00000000
00010000
00000000
00000000
00100000
00000000
00000000
00001000
00000000
00000000
00010000
00000000
00000000
,
00000010
00000000
00001000
00000000
00000001
00000000
00000000
00000010
00000000
00000010
00000100
00000000
00001000
00000000
00000010
00000000
,
00000000
00000100
00000001
00001000
00000000
00000010
00001000
00000100
,
00000000
00010000
00001000
01000000
00000000
00100000
10000000
00010000
,
00000000
10000000
01000000
00100000
00010000
00000000
01000000
00001000
,
00000000
00010000
00000000
00000010
00000000
00010000
00000000
00001000
,
00012000
00100000
10000000
01000000
,
00013000
00000000
00001000
00010000
00001000
00000000
01010000
00000000
,
00021000
00000010
00000001
00000100
,
00031000
00000000
00010000
00001000
00010000
00000000
00010000
00000010
,
00000100
00000100
00000001
00000010
00001100
00000000
00000100
00010000
,
00001000
00001000
01000000
00100000
10010000
00000000
10000000
00100000
,
02100000
00010000
10000000
00100000
,
03020000
00100000
10000000
01000000
,
20000000
00000000
00000000
00000000
00000000
00000000
00000000
00000000
00000000
00000000
00000000
00000000
30030000
00000000
00000000
01100000
,
00000000
00000000
00010000
00000000
10000000
00000000
00000000
00000000
00010000
00000000
01000000
00000000
00001000
00000000
00000000
00101000
,
00000000
00000000
00001000
00000000
00010000
00000000
00000000
00000000
00000100
00000000
00001000
00000000
00000010
00000000
00000000
00001001
,
00000000
00000100
00000010
00000000
00000010
00001000
00000100
00010000
,
00000000
00001000
01000000
00100000
00000000
01000000
00010000
10000000
,
00000000
00010000
10000000
01000000
00000000
00100000
00000000
00001000
,
00020000
00000000
00000100
00000000
00000010
00000000
00001000
00031000
,
00002000
01000000
00100000
00013000
,
00022000
00000000
00000000
00000000
,
00000000
00000000
00033000
00000000
,
00200020
00000000
00000000
00300030
,
00001000
01000000
00100000
10000000
00010000
00100000
00001000
00010000
,
00021000
00000000
00000010
00000000
00000001
00000000
00030100
00000010
,
00000001
00000000
00001000
00000010
00000100
00000000
00000010
00010000
,
00012000
00000000
00100000
00000000
10000000
00000000
01003000
00100000
,
10000000
00000000
01000000
00000000
00100000
01000000
00100000
00010000
,
01000000
01000000
00100000
10000000
01010000
00000000
01000000
00001000
,
00010000
00010000
00000100
00000010
00001100
00000000
00000010
00000100
,
00000210
00000001
00001000
00000010
,
00000302
00001000
00000100
00000013
,
00001001
00000000
00000001
00002000
00000000
00000000
00000000
00003010
,
00000000
00000100
00000010
00010000
00001000
01000000
00100000
10000000
,
00010000
00000000
10000000
00020000
00000000
00000000
00030000
00100000
,
00000000
01000000
00100000
00001000
00000000
00010000
00000010
00000100
,
00000001
00000001
00001000
00000100
00000011
00000000
00000001
00001000
,
00000100
00000100
00000010
00000100
00011000
00000000
01000000
00001000
,
00012000
00203000
00300020
02000030
,
03000200
00000300
00000000
00000000
,
00011000
00000000
00001000
00000000
01000000
00000000
00000000
00000000
00100000
00000000
01000000
00000000
00010000
00000000
00000000
10000000
,
00000000
00000000
00100000
00000000
10000000
00000000
01000000
00000000
00100000
00000000
00001000
00000000
00010000
00000000
00000000
00000010
,
00000000
00000000
00000100
00000000
00000001
00000000
00000010
00000000
00000100
00000000
00010000
00000000
00001000
00000000
00000000
01000000
,
00000000
00100000
01000000
00010000
00100000
00001000
00000010
00001000
,
00020000
00000000
00000100
00000200
00000000
00000000
00000000
00000000
,
00000000
00000000
00000000
00000300
00000000
00000000
00000000
00000000
,
00030000
00000000
00000000
00000000
;

//---------------dance-double - Spork!----------------
#NOTEDATA:;
#CHARTNAME:;
#STEPSTYPE:dance-double;
#DESCRIPTION:Spork!;
#CHARTSTYLE:;
#DIFFICULTY:Medium;
#METER:7;
#RADARVALUES:0.390,0.403,0.414,0.349,0.012,242.000,51.000,43.000,0.000,0.000,0.000,0.000,0.000,0.390,0.403,0.414,0.349,0.012,242.000,51.000,43.000,0.000,0.000,0.000,0.000,0.000;
#CREDIT:Spork!;
#NOTES:
00000000
00000000
00000000
00000000
,
00000000
00000000
00000000
00000000
,
00000000
00000000
00000000
00000000
,
00000000
00000000
00000000
00000000
,
20020000
00000000
00000000
30030000
,
00100000
20100000
00000000
00000000
30010000
00000000
10000000
00000000
,
01000000
01200000
00000000
00000000
00301000
00000000
00010000
00000000
,
00000010
00000210
00000000
00000000
00000301
00000000
00001000
00000000
,
00001001
00000100
00010000
00001000
,
01000000
00100000
10000000
01000000
,
00100000
01000000
10000000
00010000
,
01000000
00000000
00001000
00000000
00010000
00000000
00000100
00001000
,
00000010
00000100
00000001
00000000
00001000
00000000
00000100
00000000
,
00000010
00000010
00000100
00000000
00010000
00000000
00001000
01000000
,
00010000
00100000
01000000
00000000
10000000
00000000
00100000
00000000
,
01000000
01000000
00010000
00000000
00010000
10000000
00200000
00000000
,
10300000
01000000
00200000
00000000
00301000
00010000
00000200
00000000
,
00000310
00000100
00002000
00000000
00003010
00001000
00000002
00000000
,
00000103
00000010
00000110
00001001
,
00000010
00010000
00001000
00100000
,
00110000
01001000
00110000
11000000
,
01100000
00000000
01000000
00100000
00010000
00000000
10000000
00010000
,
10010000
00101000
10010000
01001000
,
00011000
00000000
00010000
00001000
00010000
00000000
00000100
00000000
,
00000020
00000000
00000032
00000000
00000203
00000000
00000310
00000100
,
00000002
00002003
00003200
00000310
,
00000110
00010100
00101000
01100000
,
00010000
01000000
10000000
00000000
10000000
01000000
00010000
00000000
,
20020000
00000000
00000000
00000000
00000000
00000000
00000000
00000000
00000000
00000000
00000000
00000000
30030000
00000000
00000000
10000000
,
00000000
00000000
10020000
00000000
00000000
00000000
00000000
00000000
00130000
00000000
00000000
00000000
00001000
00000000
00000000
00010000
,
00000000
00000000
00010200
00000000
00000000
00000000
00000000
00000000
00000310
00000000
00000000
00000000
00000100
00000000
00000000
00000010
,
00000000
00000012
00000000
00000000
00000103
00000000
00000010
00010000
,
00001000
00000000
01000000
00010000
01000000
00000000
00100000
10000000
,
00010000
00000000
00100000
00001000
00010000
00000000
00000100
00000000
,
00002200
00000000
00000300
00003010
,
00000202
00000000
00000000
00000300
,
00002000
00000000
00000000
00000000
,
00000000
00000000
00003003
00000000
,
00000110
00001000
00011000
01000000
,
01100000
00100000
10010000
01000000
,
11000000
00110000
01001000
10010000
,
01100000
00000000
01000000
00001000
00010000
00000000
00000100
00001000
,
00001100
00010010
00001001
00000110
,
00001100
00000000
00000010
00000100
00001000
00000000
00000010
00000000
,
00000200
00000000
00000320
00000000
00020030
00000000
00031000
01000000
,
00020000
00230000
02300000
13000000
,
10100000
01010000
00101000
10010000
,
00011000
00000000
00010000
00001000
00010000
00000000
00000100
00000000
,
00001002
00000000
00000010
00000000
00001000
00000000
00000103
00000001
,
00000000
00010000
00001000
01000000
,
20010000
00000000
00100000
00000000
00010000
00000000
31000000
10000000
,
00000000
00010000
00100000
00001000
00010000
00000000
00000010
00001000
,
00000200
00000000
00000320
00000000
00000032
00000000
00001003
00000001
,
00002000
00003020
00000230
00000301
,
00002001
00000000
00000010
00000000
00000100
00000000
00003010
00000100
,
00000000
00000000
00000001
00000000
00001000
00000000
00000100
00010000
,
00011000
00000000
01000000
00100000
01000000
00000000
00010000
00000000
,
10000000
01000000
00100000
00000000
01000000
00000000
10000000
00000000
,
00100000
01000000
00010000
00000000
00100000
00000000
00001000
00000000
,
00010000
00000010
00001000
00000000
00000100
00000000
00000010
00000000
,
00002002
00000000
00000000
00000000
,
00000000
00000000
00000000
00000000
,
00003003
00000000
00000000
00000000
;

//---------------dance-single - Spork!----------------
#NOTEDATA:;
#CHARTNAME:;
#STEPSTYPE:dance-single;
#DESCRIPTION:Spork!;
#CHARTSTYLE:;
#DIFFICULTY:Hard;
#METER:8;
#RADARVALUES:0.486,0.453,0.187,0.268,0.138,363.000,23.000,33.000,0.000,0.000,0.000,0.000,0.000,0.486,0.453,0.187,0.268,0.138,363.000,23.000,33.000,0.000,0.000,0.000,0.000,0.000;
#CREDIT:Spork!;
#NOTES:
// measure 0
0000
0000
0000
0000
,  // measure 1
0000
0000
0000
0000
,  // measure 2
0000
0000
0000
0000
,  // measure 3
0000
0000
0000
0000
,  // measure 4
0100
1002
0000
0003
0010
0001
0100
0001
,  // measure 5
0010
2001
0000
3000
0100
1000
0010
1000
,  // measure 6
0001
0210
0000
0300
0010
1000
0100
1000
,  // measure 7
0001
0000
0120
0000
0000
0000
0031
0100
0000
0000
0100
0001
0000
0001
1000
0000
,  // measure 8
0001
0010
0100
0000
0010
0100
0001
0100
,  // measure 9
1000
0010
0100
0000
0010
0100
1000
0100
,  // measure 10
0002
0000
0010
0200
0003
1000
0000
0302
,  // measure 11
0000
0000
0000
0000
1003
0000
0000
0001
0000
1000
0001
0000
0100
0000
0010
0000
,  // measure 12
1000
0100
0010
0000
0001
0010
1000
0010
,  // measure 13
0001
0100
0010
0000
1000
0010
0001
0010
,  // measure 14
2000
0000
0100
0020
3000
0001
0000
0230
,  // measure 15
0000
0000
0301
0000
0010
0001
0100
0100
,  // measure 16
0000
0100
0001
0010
0000
0100
1000
0010
,  // measure 17
0000
0010
1000
0100
0000
0010
0001
0100
,  // measure 18
0000
0010
0010
1000
0001
0000
0001
0020
,  // measure 19
0000
0032
0000
0203
0000
0320
0000
0130
,  // measure 20
1010
1000
0100
0010
0001
0100
0001
0010
,  // measure 21
0200
0000
0310
0000
0100
0010
0001
1000
,  // measure 22
0101
0001
0010
0100
1000
0010
1000
0100
,  // measure 23
0020
0000
0130
0000
1000
0010
0100
0100
,  // measure 24
0001
0010
1000
0010
0002
0000
0103
0001
,  // measure 25
1000
0010
0001
0010
2000
0000
3100
0010
,  // measure 26
1100
1000
0010
0100
0001
0010
0001
0100
,  // measure 27
0020
0000
1000
0000
0030
0000
1000
0001
0000
0000
0010
0100
0000
0010
0100
0000
,  // measure 28
0000
0000
1100
0000
0000
0000
0000
0100
0000
0000
1000
0000
0000
0010
0000
0100
,  // measure 29
0000
0000
0101
0000
0000
0000
0000
1000
0000
0001
0100
0000
0001
0000
0010
0000
,  // measure 30
0100
0000
1100
0000
0000
0000
0000
0001
0000
0000
1000
0000
0000
0001
0000
0100
,  // measure 31
0000
0000
0110
0000
0000
0000
0000
0010
0000
1000
0001
0000
1000
0000
0010
0000
,  // measure 32
1000
0100
1000
0100
0010
0001
0010
0001
,  // measure 33
0100
0010
0100
0010
1000
0001
1000
0001
,  // measure 34
0010
0001
0100
0100
0010
1000
0100
0100
,  // measure 35
1000
0001
0010
0001
1000
0010
1000
0100
,  // measure 36
0220
0000
0000
0000
,  // measure 37
0000
0000
0330
0000
,  // measure 38
0001
0010
0100
1000
0001
0010
0100
1000
,  // measure 39
0001
0100
0010
0100
1000
0100
0001
1000
,  // measure 40
0110
0010
1000
0100
0010
0001
0100
0001
,  // measure 41
0020
0000
0100
0000
0000
0000
0130
1000
0000
0000
0010
0000
1000
0000
0001
0000
,  // measure 42
0110
0010
0001
0100
0010
1000
0100
1000
,  // measure 43
0020
0000
0100
0000
0000
0000
0130
0001
0000
0000
1000
0001
0000
0001
1000
0000
,  // measure 44
0001
0100
1000
0100
0002
0000
0013
0001
,  // measure 45
1000
0010
0001
0010
2000
0000
3001
1000
,  // measure 46
0110
0100
0010
1000
0001
0010
0100
0010
,  // measure 47
0002
0000
0000
0000
1003
0000
0000
0000
0010
0000
0000
0010
1000
0000
0100
0000
,  // measure 48
1200
0000
0010
0000
0001
0001
0301
0000
,  // measure 49
0100
1000
0010
0000
0100
0001
0010
0000
,  // measure 50
0021
0000
0100
0000
1000
1000
1030
0000
,  // measure 51
0010
0001
1000
0010
0100
0001
0010
0010
,  // measure 52
0100
1000
0010
0001
0020
0000
1030
0100
,  // measure 53
0010
0000
0001
0000
0100
0000
1000
0000
0200
0000
0000
0300
0001
0000
0010
0000
,  // measure 54
1100
0100
1000
0010
0100
0001
0010
0100
,  // measure 55
0020
0000
0031
0000
1000
0010
1000
0001
,  // measure 56
0010
0000
1100
0000
0000
0000
0000
0001
0000
0000
0100
0000
0000
0001
0000
0010
,  // measure 57
0000
0000
0110
0000
0000
0000
0000
0100
0000
1000
0001
0000
0100
0000
0010
0100
,  // measure 58
0000
0000
1010
0000
0000
0000
0000
1000
0000
0000
0010
0000
0000
1000
0000
0100
,  // measure 59
0000
0000
0110
0000
0000
0000
0000
0010
0000
0010
0100
0000
0010
0000
0001
0000
,  // measure 60
2002
0000
0000
0000
,  // measure 61
0000
0000
0000
0000
,  // measure 62
3003
0000
0000
0000
;

//---------------dance-single - Spork!----------------
#NOTEDATA:;
#CHARTNAME:;
#STEPSTYPE:dance-single;
#DESCRIPTION:Spork!;
#CHARTSTYLE:;
#DIFFICULTY:Challenge;
#METER:10;
#RADARVALUES:0.570,0.806,0.252,0.512,0.544,389.000,31.000,63.000,58.000,29.000,0.000,0.000,0.000,0.570,0.806,0.252,0.512,0.544,389.000,31.000,63.000,58.000,29.000,0.000,0.000,0.000;
#CREDIT:Spork!;
#NOTES:
0000
0000
0000
0000
,
0000
0000
0000
0000
,
0000
0000
0000
0000
,
0000
0000
0000
0000
,
0000
0000
M111
0000
0000
0000
0000
0M00
0000
0000
000M
0000
0000
00M0
0000
0000
,
0000
0000
11M1
0000
0000
0000
0000
0M00
0000
0000
00M0
0000
0000
M000
0000
0000
,
0000
0000
111M
0000
0000
0000
M000
00M0
0000
0000
000M
0000
0000
0M00
0000
0000
,
0000
0000
1M11
0000
0000
0000
000M
1M00
0000
0000
00M1
0000
0000
M100
0000
0000
,
0001
0000
0020
0000
1000
0000
0000
0130
0000
0000
0010
0000
0001
1000
0000
0000
,
1000
0000
0020
0000
0001
0000
0000
0130
0000
0001
0100
0000
0010
1000
0001
1000
,
0200
0000
1000
0020
0300
1000
0000
0032
,
0100
0000
0000
0000
1003
0000
0000
0010
0000
0100
0010
0000
1000
0001
0100
0010
,
1000
0000
0200
0000
0001
0000
0000
0310
0000
0000
0100
0000
1000
0010
0000
1000
,
0001
0000
0200
0000
1000
0000
0000
0310
0000
0010
1000
0010
0100
0001
0100
0001
,
0020
0000
0001
0200
0030
0001
0000
2300
,
0001
0000
0000
0000
3010
0000
0000
0100
0000
0100
0010
1000
0010
1000
0002
0000
,
0013
0000
0001
0010
0001
0010
0200
0000
1300
0000
0010
1000
0010
1000
0200
0000
,
1300
0000
0010
0100
0010
0100
0002
0000
0013
0000
0001
0100
0001
0100
0020
0000
,
1030
0100
0010
0001
0100
0010
1000
0200
,
0000
0000
2300
0000
0000
0000
3002
0000
0000
0000
1003
0100
1000
0010
0100
0001
,
0020
M000
0200
0000
1000
0000
0001
0000
,
1000
0000
033M
0000
0000
0000
0100
0010
0000
0000
0100
0000
1000
0000
0001
0000
,
0200
000M
0020
0000
0001
0000
1000
0000
,
0001
0000
M000
0330
0000
0000
0100
0010
0000
0000
0100
0000
0001
0000
1000
0000
,
0100
1000
001M
1000
0100
1000
0002
0000
0200
0000
0303
0000
0110
0000
0010
0000
,
0100
0001
M010
0001
0100
0001
2000
0000
0200
0000
3300
0000
0110
0000
0010
0000
,
0200
000M
0020
0000
1000
0000
0001
0000
,
1000
0000
033M
0000
0000
0000
0010
0100
0000
0000
0100
0000
0000
0100
0000
0000
,
1000
0000
2100
0000
0100
0000
3000
0010
0000
0000
0100
0000
0000
0100
0000
0002
,
0000
0003
0021
0000
0001
0000
0030
0100
0000
0010
0100
0000
0010
0000
0001
0200
,
0000
0300
0120
0000
0100
0000
0030
1000
0000
0000
0100
0000
0000
1000
0000
0020
,
0000
0030
2010
0000
0001
0000
3000
0100
0000
0010
0001
0000
0100
0000
0001
0000
,
1001
0000
0100
1000
0010
0000
0100
0001
0010
0000
0100
1000
0001
0000
0100
0001
,
1000
0000
0010
1000
0100
0000
0010
0001
0100
0000
0010
1000
0001
0000
0010
0001
,
1000
0000
1100
0000
0000
0000
0000
0110
0000
0000
1001
0000
0000
0101
0000
0000
,
0001
0000
0011
0000
0000
0000
0000
1001
0000
0000
1010
0000
0000
0110
0000
0000
,
0020
0100
0000
0100
0000
0100
0000
0100
,
0000
0100
0000
0100
0000
0100
0000
0130
,
0100
0001
0100
0001
1000
0100
1000
0100
0010
0001
0010
0001
1000
0010
1000
0010
,
0100
0001
0010
0100
1000
0010
0100
0001
0100
0010
1000
0100
0010
0001
0100
0001
,
0020
M000
0002
0000
0100
0000
1000
0000
,
0100
0000
M033
0000
0000
0000
0001
1000
0000
0000
1000
0000
0100
0000
1000
0000
,
0020
000M
2000
0000
0100
0000
0001
0000
,
0100
0000
303M
0000
0000
0000
1000
0001
0000
0000
0001
0000
0100
0000
0001
0000
,
0010
0001
1M00
0001
0010
0001
0200
0000
0020
0000
0330
0000
0101
0000
0100
0000
,
0010
1000
0M01
1000
0010
1000
0200
0000
0020
0000
0330
0000
1100
0000
1000
0000
,
0020
000M
0200
0000
0001
0000
1000
0000
,
0001
0000
M330
0000
0000
0000
0100
0010
0000
0000
0000
0010
0100
0010
0100
0010
,
0000
0000
2010
0000
3000
0000
1000
0001
0000
0000
0010
0000
0000
0100
0000
0000
,
0010
0000
0021
0000
0030
0000
0200
0020
0300
0030
0002
0000
1003
0100
1000
0010
,
0000
0000
1020
0000
0130
0000
0001
0010
0000
0000
0001
0000
0000
1000
0000
0000
,
0100
0000
0210
0000
0010
0000
2300
0020
3000
0030
0100
0001
0000
1000
0001
0000
,
0010
0001
M100
0001
0010
0001
2000
0000
0200
0000
3300
0000
1001
0000
1000
0000
,
0010
1000
010M
1000
0010
1000
0002
0000
0200
0000
0303
0000
0011
0000
0001
0000
,
0200
000M
0020
0000
0001
0000
1000
0000
,
0001
0000
M330
0000
0000
0000
0100
0010
0000
0000
0010
1000
0000
1000
0100
0000
,
0000
0000
111M
0000
0000
0000
0000
00M0
0000
0000
M000
0000
0000
000M
0000
0100
,
0000
0000
11M1
0000
0000
0000
0000
000M
0000
0M00
00M0
0000
M000
0000
00M0
0M01
,
0000
0000
M111
0000
0000
0000
0000
00M0
0000
0000
0M00
0000
0000
000M
0000
0010
,
0000
0000
1M11
0000
0000
0000
0000
M000
0000
0M00
000M
0000
0100
0010
010M
0010
,
2000
0000
0100
0002
0000
0000
0000
0000
,
0000
0000
0000
0003
0000
0000
0000
0000
,
3000
0000
0000
0000
;
