#TITLE:Pain;
#SUBTITLE:;
#ARTIST:Jimmy Eat World;
#TITLETRANSLIT:;
#SUBTITLETRANSLIT:;
#ARTISTTRANSLIT:;
#GENRE:;
#CREDIT:mf32892;
#BANNER:Pain-bn.png;
#BACKGROUND:Pain-bg.png;
#LYRICSPATH:;
#CDTITLE:;
#MUSIC:Pain.ogg;
#OFFSET:-0.197572;
#SAMPLESTART:21.500000;
#SAMPLELENGTH:14.000000;
#SELECTABLE:YES;
#BPMS:0.000000=168.000000
;
#STOPS:
;
#BGCHANGES:;
#KEYSOUNDS:;
#ATTACKS:;

//---------------dance-single - ----------------
#NOTES:
     dance-single:
     :
     Hard:
     8:
     0.568331,0.627150,0.330079,0.130294,0.108579,405.000000,38.000000,15.000000,0.000000,0.000000,0.000000,0.568331,0.627150,0.330079,0.130294,0.108579,405.000000,38.000000,15.000000,0.000000,0.000000,0.000000:
// measure 0
0000
0000
0000
0000
,  // measure 1
0000
0000
0000
0000
,  // measure 2
0000
0000
0000
0000
,  // measure 3
0000
0000
0000
0000
,  // measure 4
0010
0010
0010
0010
,  // measure 5
0100
0000
0100
0000
0100
0100
0000
0100
,  // measure 6
1000
1000
1000
1000
,  // measure 7
0010
0101
0010
1100
,  // measure 8
0001
0000
1100
0000
0001
0100
0010
0000
,  // measure 9
0100
0000
0101
0000
1000
0100
0010
0100
,  // measure 10
0100
0000
1100
0000
0001
1000
0100
0000
,  // measure 11
0010
0000
0011
0000
1000
0001
0100
0100
,  // measure 12
0010
0000
0101
0000
0010
0100
0001
0000
,  // measure 13
0010
0000
0011
0000
0100
1000
0001
0100
,  // measure 14
0100
0000
0110
0000
0010
1000
0001
0000
,  // measure 15
0011
1010
0101
1100
,  // measure 16
1000
0001
0100
0000
0010
0100
0001
0000
,  // measure 17
1000
0100
0010
0000
0100
1000
0001
0000
,  // measure 18
0100
0010
1000
0000
0100
0010
0001
0000
,  // measure 19
0011
1010
0101
1100
,  // measure 20
0001
0010
0100
0000
1000
0001
0100
0000
,  // measure 21
0010
1000
0100
0000
0001
0100
1000
0000
,  // measure 22
0001
0100
0010
0000
0001
0010
1000
0000
,  // measure 23
1010
0011
1100
0101
,  // measure 24
0001
0100
1000
0000
0100
0001
0010
0100
,  // measure 25
0000
0100
0010
0000
0001
0100
0010
1000
,  // measure 26
0000
0001
0010
0100
0000
0100
0010
0000
,  // measure 27
0002
0000
0010
0000
0023
0000
0130
1000
,  // measure 28
0001
0000
0100
0000
1000
0100
0001
0000
,  // measure 29
1000
0100
0000
0100
0010
0000
0010
0001
,  // measure 30
0000
0200
0000
0000
0010
0000
0310
0000
,  // measure 31
1000
0000
0100
0000
1000
0000
0100
0000
0010
0001
0010
0000
0001
0100
0001
0000
,  // measure 32
0100
0010
0100
0000
0001
1000
0100
0000
,  // measure 33
0010
0001
0100
0000
0010
0100
0001
1000
,  // measure 34
0100
0010
0100
0000
1000
0001
0100
0000
,  // measure 35
0010
0100
0001
0000
1000
0100
0010
0001
,  // measure 36
0100
0010
1000
0000
0001
0010
0100
0000
,  // measure 37
0010
0001
1000
0000
0010
0100
0001
1000
,  // measure 38
0100
0010
0100
0000
1000
0001
0100
0000
,  // measure 39
0020
0000
0000
0000
0100
0000
0000
0000
1030
0001
1000
0001
1000
0000
0000
0000
,  // measure 40
0010
0100
0001
1000
0000
1000
0100
0010
,  // measure 41
0001
0100
0000
0100
1000
0100
0001
1000
,  // measure 42
0100
0000
0000
0100
0010
0000
0000
0010
0001
0000
0000
0001
1000
0000
0000
1000
,  // measure 43
0010
0200
0000
0302
0000
2003
0000
3100
,  // measure 44
0010
0100
1000
0001
0000
0001
0100
1000
,  // measure 45
0100
0010
0000
0010
1000
0100
0001
0100
,  // measure 46
0010
0000
0000
0010
0001
0000
0000
0001
1000
0000
0000
1000
0010
0000
0000
0010
,  // measure 47
0100
0000
0001
0000
0100
0000
0001
0000
1000
0000
0100
0000
1000
0100
1000
0100
,  // measure 48
0010
0100
1000
0001
0000
0001
0100
0010
,  // measure 49
1000
0100
0000
0100
0001
0100
1000
0001
,  // measure 50
0100
0000
0000
0100
0010
0000
0000
0010
1000
0000
0000
1000
0001
0000
0000
0001
,  // measure 51
0010
0000
0000
0010
0100
0000
0000
0100
0001
0000
0000
0001
0100
0000
0000
0100
,  // measure 52
1000
0000
0100
1000
0100
0000
1000
0100
1000
0000
0100
1000
0100
0000
1000
0000
,  // measure 53
1100
0101
1010
0011
,  // measure 54
0001
1000
0100
0000
0010
0100
1000
0000
,  // measure 55
0001
0100
0010
0000
0100
0001
1000
0000
,  // measure 56
0100
0010
0001
0000
0100
0010
1000
0000
,  // measure 57
1010
0011
1100
0101
,  // measure 58
1000
0010
0100
0000
0001
1000
0100
0000
,  // measure 59
0010
0001
0100
0000
1000
0100
0001
0000
,  // measure 60
1000
0100
0010
0000
1000
0010
0001
0000
,  // measure 61
0011
1010
0101
1100
,  // measure 62
1000
0100
0001
0000
0100
1000
0010
0100
,  // measure 63
0000
0100
0010
0000
1000
0100
0010
0001
,  // measure 64
0000
1000
0010
0100
0000
0100
0010
0000
,  // measure 65
2000
0000
0100
0000
3200
0000
0310
0001
,  // measure 66
1000
0000
0010
0000
0001
0010
1000
0000
,  // measure 67
0001
0010
0000
0010
0100
0000
1000
0001
,  // measure 68
0201
0000
1000
0000
0301
0000
1000
0100
,  // measure 69
0021
0000
1000
0000
0031
0000
0001
0010
,  // measure 70
1200
0000
0001
0000
1300
0000
0001
0100
,  // measure 71
1020
0000
0001
0000
1030
0001
0010
0000
,  // measure 72
2002
0000
0000
0000
,  // measure 73
0000
0000
0000
0000
,  // measure 74
0000
0000
0000
0000
,  // measure 75
0000
0000
0000
0000
,  // measure 76
3003
0000
0000
0000
;

//---------------dance-single - ----------------
#NOTES:
     dance-single:
     :
     Medium:
     6:
     0.471541,0.528126,0.390883,0.191098,0.000000,313.000000,45.000000,22.000000,0.000000,0.000000,0.000000,0.471541,0.528126,0.390883,0.191098,0.000000,313.000000,45.000000,22.000000,0.000000,0.000000,0.000000:
// measure 0
0000
0000
0000
0000
,  // measure 1
0000
0000
0000
0000
,  // measure 2
0000
0000
0000
0000
,  // measure 3
0000
0000
0000
0000
,  // measure 4
0001
0001
1000
1000
,  // measure 5
0010
0000
0010
0000
0100
0010
0000
0010
,  // measure 6
0100
0100
0001
1000
,  // measure 7
0001
0100
1000
0100
,  // measure 8
0001
0000
0001
0000
1000
0100
0010
0000
,  // measure 9
0100
0000
0100
0000
1000
0001
1000
0001
,  // measure 10
0100
0000
0100
0000
0010
1000
0001
0000
,  // measure 11
0010
0000
0010
0000
0100
1000
0100
1000
,  // measure 12
0001
0000
0100
0000
0010
0100
0001
0000
,  // measure 13
0010
0000
0010
0000
0100
0010
0100
0010
,  // measure 14
0001
0000
1000
0000
0001
0100
0010
0000
,  // measure 15
1010
1010
0101
0101
,  // measure 16
1000
0000
0100
0000
0010
0100
0000
0010
,  // measure 17
0000
0000
0001
0000
0100
0010
0000
0100
,  // measure 18
0000
0001
0000
2000
0000
0000
3100
0000
,  // measure 19
0012
0000
0103
0000
0010
1000
0000
0100
,  // measure 20
0010
0000
0001
0000
1000
0001
0100
0000
,  // measure 21
0010
0100
0000
0001
0000
0100
0010
1000
,  // measure 22
0000
0200
0000
0000
0010
0000
0310
0000
,  // measure 23
0011
0011
1100
1100
,  // measure 24
0001
0000
0100
0000
0010
1000
0000
0200
,  // measure 25
0000
0000
0310
0000
0001
1000
0000
0001
,  // measure 26
0000
0100
0000
0020
0000
0000
0130
0001
,  // measure 27
2000
0000
3010
0000
0020
0000
0130
0001
,  // measure 28
1000
0000
0100
0000
0010
0100
0010
0000
,  // measure 29
0001
0100
0000
0010
0100
0000
0001
0100
,  // measure 30
0000
0020
0000
0000
1000
0000
1030
0000
,  // measure 31
0001
0000
0001
0000
0010
0100
0010
0000
,  // measure 32
0100
0100
1000
1000
,  // measure 33
0001
0000
0001
0000
0100
0010
0100
0010
,  // measure 34
0100
0100
0001
0001
,  // measure 35
1000
0000
1000
0000
0100
0010
0100
0010
,  // measure 36
0001
0001
1000
1000
,  // measure 37
0010
0000
0010
0000
0100
0001
0100
0001
,  // measure 38
1000
1000
0100
0100
,  // measure 39
0020
0000
0000
0000
0130
0010
0100
0000
,  // measure 40
1000
0000
0100
0010
0000
0010
0001
0000
,  // measure 41
1000
0010
0000
0010
0100
0000
0001
0000
,  // measure 42
1000
0100
0001
0100
,  // measure 43
1000
0002
0000
0203
0000
0320
0000
0130
,  // measure 44
0001
0000
0010
0100
0000
0100
1000
0000
,  // measure 45
1000
0010
0000
0010
0100
0000
0001
0000
,  // measure 46
1000
0010
0001
0010
,  // measure 47
1010
1010
0101
0101
,  // measure 48
1000
0000
0001
0010
0000
0010
0100
0000
,  // measure 49
1000
0100
0000
0100
0010
0000
0001
0000
,  // measure 50
1000
1010
1001
1010
,  // measure 51
0001
0011
1001
0011
,  // measure 52
1001
1001
1100
1100
,  // measure 53
1010
1010
0101
1100
,  // measure 54
0001
0000
0100
0000
0010
0100
0000
0020
,  // measure 55
0000
0000
1030
0000
0100
0010
0000
0100
,  // measure 56
0000
1000
0000
0002
0000
0000
0103
0000
,  // measure 57
2010
0000
3100
0000
0010
0001
0000
0100
,  // measure 58
0010
0000
1000
0000
0001
1000
0100
0000
,  // measure 59
0010
0100
0000
1000
0000
0100
0010
0001
,  // measure 60
0000
0200
0000
0000
0010
0000
0310
0000
,  // measure 61
1010
1010
0101
0101
,  // measure 62
1000
0000
0100
0000
0010
0001
0000
0200
,  // measure 63
0000
0000
0310
0000
1000
0001
0000
1000
,  // measure 64
0000
0100
0000
0020
0000
0000
0130
1000
,  // measure 65
0002
0000
0013
0000
0020
0000
0130
1000
,  // measure 66
0001
0000
0100
0000
0010
0100
0010
0000
,  // measure 67
1000
0100
0000
0010
0100
0000
1000
0100
,  // measure 68
1100
1100
1100
0010
,  // measure 69
0101
0101
0101
0010
,  // measure 70
1010
1010
1010
0100
,  // measure 71
0011
0011
0011
0100
,  // measure 72
2002
0000
0000
0000
,  // measure 73
0000
0000
0000
0000
,  // measure 74
0000
0000
0000
0000
,  // measure 75
0000
0000
0000
0000
,  // measure 76
3003
0000
0000
0000
;

//---------------dance-single - ----------------
#NOTES:
     dance-single:
     :
     Easy:
     4:
     0.240734,0.257114,0.008686,0.112922,0.000000,180.000000,1.000000,13.000000,0.000000,0.000000,0.000000,0.240734,0.257114,0.008686,0.112922,0.000000,180.000000,1.000000,13.000000,0.000000,0.000000,0.000000:
0000
0000
0000
0000
,
0000
0000
0000
0000
,
0000
0000
0000
0000
,
0000
0000
0000
0000
,
1000
0000
0000
0000
,
0001
0000
0000
0000
,
1000
0000
0000
0000
,
0001
0000
0001
0000
,
1000
0000
0100
0000
,
1000
0000
0001
0000
,
0100
0000
0010
0000
,
1000
0000
0001
0000
,
0010
0000
0001
0000
,
0100
0000
0010
0000
,
1000
0000
0001
0000
,
1000
1000
1000
1000
,
0001
0000
0100
0100
,
0010
0000
1000
0000
,
0001
1000
0001
0000
,
0010
0010
0010
0000
,
0100
0000
1000
0000
,
0001
0100
0001
0000
,
1000
0100
1000
0000
,
0010
0010
0010
0010
,
1000
0000
0001
0010
,
0001
0000
0100
0000
,
0001
1000
0100
0000
,
0020
0000
0230
0000
,
1300
0001
0100
0000
,
0010
0010
0010
0000
,
1000
0010
0100
0000
,
0002
0000
1003
1000
,
0001
0000
1000
0000
,
0001
0000
0100
0010
,
1000
0000
0100
0000
,
1000
0000
0100
0010
,
0001
0000
1000
0000
,
0001
0000
0100
0010
,
1000
0000
0001
0000
,
0020
0000
0230
0000
,
1300
1000
0000
1000
,
0001
0000
0001
0100
,
0020
0000
0000
0000
,
1030
0001
0100
0001
,
1000
0100
0000
0100
,
0010
0000
0010
0001
,
2000
0000
0000
0000
,
3002
0000
0203
0000
,
0310
0010
0000
1000
,
1000
0000
0001
0001
,
0010
0010
0010
0000
,
0010
0010
0010
0000
,
0100
0100
0100
0100
,
1000
0001
1000
0001
,
1000
0000
0010
0010
,
0100
0000
0001
0000
,
1000
0001
1000
0000
,
0100
0100
0100
0000
,
0010
0000
0001
0000
,
1000
0010
1000
0000
,
0001
0010
0001
0000
,
0100
0100
0100
0100
,
0001
0000
1000
0100
,
1000
0000
0010
0000
,
1000
0001
0010
0000
,
0200
0000
0320
0000
,
0031
1000
0010
0000
,
0100
0100
0100
0000
,
0001
0001
0001
0000
,
0010
0010
0010
0000
,
1000
1000
1000
0000
,
0100
0100
0100
0100
,
2002
0000
0000
0000
,
0000
0000
0000
0000
,
3003
0000
0000
0000
;
