#VERSION:0.82;
#TITLE:Myosotis;
#SUBTITLE:;
#ARTIST:M2U;
#TITLETRANSLIT:;
#SUBTITLETRANSLIT:;
#ARTISTTRANSLIT:;
#GENRE:;
#ORIGIN:;
#CREDIT:;
#BANNER:[Falling Apart] - Myosotis.png;
#BACKGROUND:[Falling Apart] - Myosotis-bg.png;
#PREVIEWVID:;
#JACKET:[Falling Apart] - Myosotis-jacket.png;
#CDIMAGE:;
#DISCIMAGE:;
#LYRICSPATH:;
#CDTITLE:cdtitle.png;
#MUSIC:Myosotis.ogg;
#OFFSET:-1.537000;
#SAMPLESTART:109.522911;
#SAMPLELENGTH:12.000000;
#SELECTABLE:YES;
#BPMS:0.000=160.000;
#STOPS:;
#DELAYS:;
#WARPS:;
#TIMESIGNATURES:0.000=4=4;
#TICKCOUNTS:0.000=4;
#COMBOS:0.000=1;
#SPEEDS:0.000=1.000=0.000=0;
#SCROLLS:0.000=1.000;
#FAKES:;
#LABELS:0.000=Song Start;
#BGCHANGES:;
#KEYSOUNDS:;
#ATTACKS:
;

//---------------dance-single - ----------------
#NOTEDATA:;
#CHARTNAME:;
#STEPSTYPE:dance-single;
#DESCRIPTION:;
#CHARTSTYLE:;
#DIFFICULTY:Hard;
#METER:9;
#RADARVALUES:0.492209,0.661662,0.354581,0.140495,0.130459,441.000000,53.000000,21.000000,0.000000,0.000000,10.000000,0.000000,0.000000,0.492209,0.661662,0.354581,0.140495,0.130459,441.000000,53.000000,21.000000,0.000000,0.000000,10.000000,0.000000,0.000000;
#CREDIT:;
#NOTES:
// measure 0
0000
0000
0000
0000
,  // measure 1
0000
0000
0000
0000
,  // measure 2
0000
0000
0000
0000
,  // measure 3
0000
0000
0000
0000
,  // measure 4
0000
0000
0000
0000
,  // measure 5
0000
0000
0000
0000
,  // measure 6
0000
0000
0000
0000
,  // measure 7
0000
0000
0000
0000
,  // measure 8
0000
0000
0000
0000
,  // measure 9
0000
0000
0000
0000
,  // measure 10
0000
0000
0000
0000
,  // measure 11
0000
0000
0000
0000
,  // measure 12
1001
0001
0100
0010
,  // measure 13
1010
0000
1000
0000
0001
0000
0010
0100
,  // measure 14
1100
1000
0001
0010
,  // measure 15
0011
0000
0001
0000
0100
0010
1000
0100
,  // measure 16
0110
0010
0100
1000
,  // measure 17
1010
0010
0100
0001
,  // measure 18
1001
1000
0100
0010
,  // measure 19
0022
0000
0000
0000
,  // measure 20
0030
0000
0000
0000
,  // measure 21
1003
0000
1000
0000
,  // measure 22
0010
0000
0010
0000
,  // measure 23
0100
0000
0100
0000
,  // measure 24
0001
0000
0001
0000
,  // measure 25
0101
0000
0010
0000
1100
0000
0010
0100
,  // measure 26
0101
0000
0010
0000
1001
0000
0100
0010
,  // measure 27
1010
0100
0011
0100
,  // measure 28
1010
0000
0010
0100
0001
0000
0010
0000
,  // measure 29
0110
0000
0100
1000
0010
0000
0100
0000
,  // measure 30
0101
0000
0001
1000
0100
0000
0010
0000
,  // measure 31
0011
0000
0001
0100
0010
0000
1000
0000
,  // measure 32
1100
0000
0100
0010
0001
0000
0100
0000
,  // measure 33
0110
0000
0010
1000
0100
0000
0010
0000
,  // measure 34
0011
0000
0001
0100
0010
0000
1000
0000
,  // measure 35
1001
0000
0000
0000
0001
0000
0001
0000
0100
0000
0010
1000
0010
0000
0100
0000
,  // measure 36
0101
0000
0001
0010
0100
0000
1000
0000
,  // measure 37
0110
0000
0001
1000
0100
0000
0010
0000
,  // measure 38
1001
0000
0100
0001
1000
0000
0100
0000
,  // measure 39
0011
0000
1000
0100
0010
0000
0001
0000
,  // measure 40
0110
0000
1000
0001
0010
0000
0100
0000
,  // measure 41
1010
0000
0001
1000
0100
0000
0010
0000
,  // measure 42
1001
0000
0100
0010
1000
0000
0100
0000
,  // measure 43
0011
0010
0100
1000
0100
0001
0100
1000
,  // measure 44
0100
0010
0001
0100
0010
1000
0100
0010
,  // measure 45
0001
0010
0100
0010
0001
0010
0100
1000
,  // measure 46
0010
0100
0010
0100
0010
0100
0010
0100
0010
0100
0010
0100
0010
0000
0000
0000
,  // measure 47
1001
0001
0010
0100
1000
0001
0100
0010
,  // measure 48
0100
0001
1000
0010
0100
0001
0010
0100
,  // measure 49
2000
0000
0000
0000
,  // measure 50
0000
0000
0000
0000
,  // measure 51
3040
0000
0000
0000
0000
0000
0000
0000
0230
0000
0000
0000
0301
0000
0001
1000
,  // measure 52
0000
1000
0100
0000
0110
0000
0001
0000
0110
0000
1000
0000
0102
0000
0000
0000
,  // measure 53
4003
0000
3200
0000
0310
0001
0010
0100
,  // measure 54
0000
1000
0001
0000
0100
0000
0100
0001
0010
0000
0010
0100
1000
0000
0010
0000
,  // measure 55
0102
0000
0000
4000
0003
0000
3010
0000
0010
0000
0100
0001
1000
0000
0001
0010
,  // measure 56
0000
0010
0100
1000
0010
0000
0100
0000
0010
0000
0001
0000
0010
0000
1000
0000
,  // measure 57
0410
0000
0000
0000
0301
0000
0001
0100
0000
0100
0020
0000
0000
0000
2030
0000
,  // measure 58
3100
0210
0000
0000
0310
0010
0100
0100
,  // measure 59
0040
0000
0000
0000
0034
0000
0000
0000
1003
0001
1000
0000
0010
0100
0010
0100
,  // measure 60
0001
1000
0001
0000
0020
0000
0100
0000
0230
0000
1000
0000
4300
0000
0000
0000
,  // measure 61
3004
0000
0000
0000
0103
0010
0100
0000
0001
1000
0001
1000
0100
0000
0020
0000
,  // measure 62
0030
0010
0100
0000
1000
0000
1100
0000
0001
0000
0100
0001
0100
0001
1000
0000
,  // measure 63
4001
0000
0000
0002
3000
0103
0010
0000
1010
0000
1000
0000
0001
0100
0000
0100
,  // measure 64
0010
1000
0101
0010
1100
0001
0102
0000
,  // measure 65
4000
0003
0000
0000
0000
0000
0000
0000
3010
0000
0100
0000
0001
1000
0001
0000
,  // measure 66
0011
0200
0000
0000
2300
0000
0000
0000
,  // measure 67
3001
0000
0100
0000
0001
0000
0010
0001
0100
0000
0000
0000
0010
0000
0000
0000
,  // measure 68
1000
0100
0010
0001
1000
0001
0010
0001
,  // measure 69
1000
0000
0010
0000
0100
0000
0001
1000
0001
0000
0010
0000
0100
0000
0010
0000
,  // measure 70
0001
0100
1000
0100
0010
1000
0100
0010
,  // measure 71
0001
0010
1000
0010
0001
0100
1000
0100
,  // measure 72
0101
0000
0001
0000
0010
0000
0100
1000
0010
0000
0100
0000
0001
0000
0100
0000
,  // measure 73
1001
0001
0100
0010
0001
0010
1000
0010
,  // measure 74
0110
0000
0100
0000
0001
0000
1000
0001
0100
0000
0100
0000
0010
0000
1000
0000
,  // measure 75
1001
0001
0010
1000
0010
0001
0010
0100
,  // measure 76
0110
0000
0010
0000
0001
0000
0100
0010
1000
0000
0100
0000
0010
0000
0001
0000
,  // measure 77
2001
0000
0000
0000
0002
0000
0000
3000
,  // measure 78
1003
0100
0001
0100
1000
0100
0010
0100
,  // measure 79
1000
0010
0001
0010
1000
0010
0100
0010
,  // measure 80
1000
0001
0010
0001
1000
0001
0100
0001
,  // measure 81
1000
0100
0010
0100
1000
0010
0100
0010
,  // measure 82
1010
1000
0100
0010
0100
1000
0010
0100
,  // measure 83
0110
0010
0001
0010
0100
0001
0010
0100
,  // measure 84
2200
0000
0000
0000
,  // measure 85
0000
0000
0000
0000
,  // measure 86
3300
0000
0000
0000
;

//---------------dance-single - ----------------
#NOTEDATA:;
#CHARTNAME:;
#STEPSTYPE:dance-single;
#DESCRIPTION:;
#CHARTSTYLE:;
#DIFFICULTY:Medium;
#METER:6;
#RADARVALUES:0.353626,0.489055,0.173946,0.107043,0.020071,328.000000,26.000000,16.000000,0.000000,0.000000,0.000000,0.000000,0.000000,0.353626,0.489055,0.173946,0.107043,0.020071,328.000000,26.000000,16.000000,0.000000,0.000000,0.000000,0.000000,0.000000;
#CREDIT:;
#NOTES:
0000
0000
0000
0000
,
0000
0000
0000
0000
,
0000
0000
0000
0000
,
0000
0000
0000
0000
,
0000
0000
0000
0000
,
0000
0000
0000
0000
,
0000
0000
0000
0000
,
0000
0000
0000
0000
,
0000
0000
0000
0000
,
0000
0000
0000
0000
,
0000
0000
0000
0000
,
0000
0000
0000
0000
,
1001
0000
0010
0000
,
1000
0000
0100
0010
,
0011
0000
0001
0000
,
0100
0000
0010
1000
,
1001
0000
0001
0000
,
0010
0000
0100
1000
,
1010
0000
0010
0000
,
0210
0000
0000
0000
,
0000
0000
0000
0000
,
0301
0000
0010
0000
,
1000
0000
0010
0000
,
0100
0000
1000
0000
,
0010
0000
0100
0000
,
0010
1000
0010
0001
,
0010
0100
0001
0010
,
0100
1000
0100
0010
,
0011
0001
0100
0010
,
1010
1000
0100
0010
,
0011
0001
0100
0010
,
0110
0100
0001
1000
,
1001
0001
0100
0010
,
1010
1000
0100
0010
,
0011
0001
1000
0100
,
1100
0000
1000
0100
0010
0001
0100
0010
,
0110
0100
0001
0010
,
0011
0001
0100
0010
,
1010
1000
0100
0010
,
0011
0001
0100
0010
,
0110
0100
0001
0010
,
0110
0100
1000
0001
,
1001
1000
0010
0100
,
0110
0010
1000
1000
,
0001
0001
0010
0010
,
0010
0001
0010
0100
1000
0010
0100
0001
,
2000
0000
0000
3000
,
0110
0100
0001
0010
,
0110
0100
1000
0010
,
0210
0000
0000
0000
,
0000
0000
0000
0000
,
0302
0000
0000
0000
0013
0000
0100
1000
,
0010
0001
0010
0100
0001
0010
0100
1000
,
0020
0000
0130
0000
0001
0010
1000
0010
,
0001
0100
0010
0100
0001
0001
1000
1000
,
1010
0000
0000
0010
0000
1000
0100
0000
0010
0000
0001
0000
0100
0000
1000
0000
,
0100
0001
0010
0100
1000
0010
0001
0010
,
0200
0000
0301
1000
0010
0200
0000
0000
,
0301
2000
0000
0000
0010
0010
3010
1000
,
0002
0000
0103
0000
1000
0100
0001
0010
,
0100
1000
0010
0001
0010
0100
0001
0010
,
0200
0000
0000
0000
1300
1000
0001
0002
,
0003
1000
0100
0000
0001
0000
0100
0000
1000
0000
0010
0000
0100
0000
0001
0000
,
0010
0000
0000
0100
0000
1000
0001
0000
0010
0000
1000
0000
0010
0000
0001
0000
,
0100
0010
0001
0010
1000
0010
0001
0010
,
0200
0000
0000
0000
0301
0010
1000
1000
,
0010
0020
0000
0000
0032
0000
0000
0000
,
0103
0000
0000
0000
0010
0000
0000
1000
0001
0000
0000
0000
0010
0000
0000
0000
,
0100
1000
0100
0010
0100
1000
0010
0001
,
0010
1000
0100
0001
0100
1000
0010
0100
,
0001
1000
0001
1000
0010
0100
0010
0100
,
0001
0010
1000
0010
0001
0100
0010
1000
,
1100
0000
0000
1000
0001
0010
1000
0010
,
0100
1000
0010
0100
0001
0010
0100
1000
,
0001
0000
0000
1000
0010
0001
0010
0100
,
0001
0010
0100
1000
0010
0100
0001
0010
,
0100
0000
0000
1000
0100
0001
0100
1000
,
0020
0000
0000
0000
,
0130
0100
0001
0001
,
1000
1000
0100
0100
,
0010
0010
0001
0001
,
0100
0100
1000
1000
,
0100
0001
0010
1000
,
0010
0001
0100
0010
,
2000
0000
0000
0000
,
0000
0000
0000
0000
,
3000
0000
0000
0000
;

//---------------dance-single - ----------------
#NOTEDATA:;
#CHARTNAME:;
#STEPSTYPE:dance-single;
#DESCRIPTION:;
#CHARTSTYLE:;
#DIFFICULTY:Easy;
#METER:4;
#RADARVALUES:0.274299,0.402751,0.200706,0.046832,0.000000,250.000000,30.000000,7.000000,0.000000,0.000000,0.000000,0.000000,0.000000,0.274299,0.402751,0.200706,0.046832,0.000000,250.000000,30.000000,7.000000,0.000000,0.000000,0.000000,0.000000,0.000000;
#CREDIT:;
#NOTES:
0000
0000
0000
0000
,
0000
0000
0000
0000
,
0000
0000
0000
0000
,
0000
0000
0000
0000
,
0000
0000
0000
0000
,
0000
0000
0000
0000
,
0000
0000
0000
0000
,
0000
0000
0000
0000
,
0000
0000
0000
0000
,
0000
0000
0000
0000
,
0000
0000
0000
0000
,
0000
0000
0000
0000
,
1000
0000
0100
1000
,
0010
0000
0100
0100
,
0001
0000
0010
0100
,
1000
0000
0010
0010
,
0100
0000
0001
0010
,
0100
0000
1000
1000
,
0001
0000
0100
0010
,
2000
0000
0000
0000
,
0000
0000
0000
0000
,
3001
0000
0000
0000
,
0001
0000
0000
0000
,
0100
0000
0000
0000
,
0100
0000
0000
0000
,
0010
0100
0010
1000
,
0010
0100
0001
0010
,
0100
1000
0001
1000
,
1001
0000
0101
0000
,
1000
0100
0110
0000
,
0011
0000
1100
0000
,
0100
0010
0011
0000
,
1010
0000
0101
0000
,
0100
0010
1010
0000
,
1001
0000
0110
0000
,
0100
0000
0001
0010
0001
0100
0010
1000
,
0100
0000
1001
0000
,
0100
0001
0011
0000
,
1100
0000
0011
0000
,
0010
0100
1100
0000
,
0011
0000
1100
0000
,
0100
1000
1001
0000
,
0110
0000
1001
0000
,
0001
0001
0100
0100
,
0010
0010
1000
1000
,
0100
0100
0010
0010
,
0002
0000
0000
0103
,
0101
0000
1010
0010
,
0100
0001
0011
0010
,
0200
0000
0000
0000
,
0000
0000
0000
0000
,
2300
0000
0000
0000
3010
0000
0100
0001
,
0000
0010
0100
1000
0001
0000
1000
0000
,
1001
0000
0000
0000
0100
0010
0100
0010
,
0000
1000
0001
0100
0010
0000
1000
0000
,
1001
0000
0010
0100
0010
1000
0001
0010
,
0100
1000
0001
1000
,
0010
0000
0100
0001
0000
0010
0100
1000
,
0001
0100
0000
0000
0010
1000
0010
1000
,
0001
0000
0100
0000
0001
0010
0100
1000
,
0010
0100
0001
0000
0001
0000
1000
0000
,
1000
0000
0100
0010
0100
1000
0010
0100
,
0000
0001
1000
0001
0100
0010
1000
0100
,
0010
0000
0001
1000
0010
0100
0001
0010
,
0100
1000
0001
1000
,
0001
0000
0110
0000
,
0100
0001
0000
0000
2000
0000
0000
0000
,
3010
0100
0101
0001
,
1000
0100
0001
0100
,
1000
0010
0001
0010
,
1000
0100
0010
0100
,
1000
0100
0010
0001
,
0010
0100
0010
0001
,
1000
0010
0001
0010
,
1000
0001
0010
0100
,
1000
0001
1000
0010
,
0100
0001
0010
0100
,
0200
0000
0000
0000
,
1300
1000
0001
0001
,
0100
0100
0010
0010
,
1000
0001
1000
0001
,
0100
0010
0100
0010
,
1010
1000
0100
0010
,
0011
0001
0010
0100
,
2000
0000
0000
0000
,
0000
0000
0000
0000
,
3000
0000
0000
0000
;
