#TITLE:My Foreskin Won't Come Off;
#SUBTITLE:;
#ARTIST:Rwr4539;
#TITLETRANSLIT:;
#SUBTITLETRANSLIT:;
#ARTISTTRANSLIT:;
#CREDIT:;
#BANNER:;
#BACKGROUND:;
#LYRICSPATH:My Foreskin Won't Come Off.lrc;
#CDTITLE:;
#MUSIC:My Foreskin Won't Come Off.mp3;
#OFFSET:-0.040;
#SAMPLESTART:30.980;
#SAMPLELENGTH:15.520;
#SELECTABLE:YES;
#DISPLAYBPM:62.000;
#BPMS:0.000=62.000,32.000=65.000,33.000=62.000,126.000=40.000,127.000=33.000,129.000=28.000;
#STOPS:;
#BGCHANGES:;

//---------------dance-single - ----------------
#NOTES:
     dance-single:
     :
     Medium:
     4:
     0.192,0.206,0.088,0.220,0.000: // measure 1
0000
0000
0000
0000
,  // measure 2
0000
0000
0000
0000
,  // measure 3
1000
0000
0001
0100
0001
0020
0000
0100
,  // measure 4
0230
0000
0000
0000
1300
0010
0100
0001
,  // measure 5
1000
0000
0001
0010
0100
0010
0001
0000
,  // measure 6
1000
0001
1000
0000
0020
0000
1030
0000
,  // measure 7
0100
0000
0010
0001
1000
0002
0000
0100
,  // measure 8
0203
1000
0020
0330
,  // measure 9
1001
0000
0001
0100
0020
0000
1030
0100
,  // measure 10
0010
0100
0010
0001
1000
0000
0001
1000
,  // measure 11
0100
0000
1000
0001
0100
0020
0000
1000
,  // measure 12
2030
0010
3001
1001
,  // measure 13
0120
0000
0100
0000
1030
0000
0010
1000
,  // measure 14
0001
0010
0100
1000
0001
0000
0010
0001
,  // measure 15
0100
0000
0010
1000
0001
0010
0010
0001
,  // measure 16
1000
0010
0000
0100
0001
0000
1010
0000
,  // measure 17
1002
0000
0000
0000
,  // measure 18
2003
0000
3200
0000
,  // measure 19
0320
0000
0032
0000
,  // measure 20
2003
0000
3010
1010
,  // measure 21
1001
0000
0110
0000
0100
0001
1000
0100
,  // measure 22
0020
0000
0130
0010
0002
0000
1003
0001
,  // measure 23
0100
0000
0010
0100
0001
1000
0100
0010
,  // measure 24
0002
0010
1000
0103
,  // measure 25
1001
0000
1000
0010
0100
0000
0001
0010
,  // measure 26
0100
1000
0001
0100
0020
0000
1030
0010
,  // measure 27
0200
0000
0301
1000
0100
0010
0000
0100
,  // measure 28
0010
0001
0000
1000
1010
0000
0101
0000
,  // measure 29
2002
0000
3000
0000
,  // measure 30
2003
0000
3200
0000
,  // measure 31
0320
0000
0032
0000
,  // measure 32
2003
0000
0000
3020
,  // measure 33
0000
0200
0000
0000
,  // measure 34
0330
0000
0000
0000
;

//---------------dance-single - ----------------
#NOTES:
     dance-single:
     :
     Beginner:
     1:
     0.047,0.071,0.029,0.000,0.000: // measure 1
0000
0000
0000
0000
,  // measure 2
0000
0000
0000
0000
,  // measure 3
0000
0000
0000
0000
,  // measure 4
0000
0000
0000
0000
,  // measure 5
1000
0000
0000
0000
,  // measure 6
0001
0000
0001
0000
,  // measure 7
1000
0000
0000
0000
,  // measure 8
0010
0000
0000
0000
,  // measure 9
0100
0000
0100
0000
,  // measure 10
0100
0000
0100
0000
,  // measure 11
0001
0000
1000
0000
,  // measure 12
0001
0000
0000
0000
,  // measure 13
0010
0000
0010
0000
,  // measure 14
0010
0000
0010
0000
,  // measure 15
0010
0000
0001
0000
,  // measure 16
1000
0000
0001
0000
,  // measure 17
1001
0000
0000
0000
,  // measure 18
1000
0000
0000
0000
,  // measure 19
0001
0000
0000
0000
,  // measure 20
0100
0000
0010
0000
,  // measure 21
0110
0000
0100
0000
,  // measure 22
0001
0000
0000
0000
,  // measure 23
1000
0000
0001
0000
,  // measure 24
0010
0000
0000
0000
,  // measure 25
0100
0000
0010
0000
,  // measure 26
0001
0000
1000
0000
,  // measure 27
0001
0000
0100
0000
,  // measure 28
0010
0000
0100
0000
,  // measure 29
0110
0000
0000
0000
,  // measure 30
0000
0000
0000
0000
,  // measure 31
0000
0000
0000
0000
,  // measure 32
0000
0000
0000
0000
,  // measure 33
0000
1001
0000
0000
;

//---------------dance-single - ----------------
#NOTES:
     dance-single:
     :
     Easy:
     1:
     0.086,0.106,0.037,0.015,0.000: // measure 1
0000
0000
0000
0000
,  // measure 2
0000
0000
0000
0000
,  // measure 3
1000
0000
0001
0100
,  // measure 4
0001
0000
1000
0000
,  // measure 5
0100
0010
0100
0000
,  // measure 6
0010
0001
1000
1000
,  // measure 7
0001
0000
1000
0010
,  // measure 8
1000
0000
0001
0000
,  // measure 9
0110
0000
0010
0000
,  // measure 10
1000
0100
1000
0000
,  // measure 11
0001
0000
0010
0000
,  // measure 12
0001
0000
0100
0000
,  // measure 13
0020
0000
0230
0000
,  // measure 14
0301
0000
1000
0000
,  // measure 15
0001
0010
0001
0000
,  // measure 16
1000
0000
0001
1000
,  // measure 17
1001
0000
0001
0000
,  // measure 18
0100
0000
0000
0000
,  // measure 19
0001
0000
1000
0000
,  // measure 20
0100
0000
1000
0001
,  // measure 21
1001
0000
0110
0000
,  // measure 22
0010
1000
0001
0010
,  // measure 23
0100
0000
0010
0000
,  // measure 24
0001
0000
1000
0001
,  // measure 25
0100
0000
0001
0000
,  // measure 26
1000
0100
1000
0000
,  // measure 27
0001
0010
0100
0010
,  // measure 28
0001
0000
1000
0001
,  // measure 29
1000
0000
0000
0000
,  // measure 30
0001
0000
1000
0000
,  // measure 31
0100
0000
0010
0000
,  // measure 32
0100
0000
0000
0010
,  // measure 33
0000
1001
0000
0000
;

//---------------dance-single - ----------------
#NOTES:
     dance-single:
     :
     Hard:
     6:
     0.248,0.266,0.110,0.257,0.103:
0000
0000
0000
0000
,
0000
0000
0000
0000
,
0001
0000
0000
0100
0001
0000
0000
0000
2000
0000
0010
0000
0010
0000
0000
0000
,
3002
0000
0000
0000
1003
0000
0001
0100
,
0001
0000
0000
0010
0001
0000
0000
0001
1000
0000
0010
0000
1000
0000
0100
0000
,
0010
0100
0000
0010
0001
0000
1000
0001
,
0100
0000
0000
0010
1000
0000
0100
0000
0010
0000
0002
0000
0103
0000
0001
0000
,
2000
0010
0002
3003
,
1001
0000
0000
0001
0100
0000
0000
0100
0010
0000
1000
0000
0100
0000
0010
0000
,
0002
0000
0000
0000
0103
0000
0001
0010
0001
0000
1000
0000
0100
0000
0010
0000
,
2001
0000
3010
0100
1000
0100
0010
1000
,
0002
0000
0000
0000
0013
0000
0000
0010
0100
0000
0010
0001
1000
0000
0001
0000
,
0201
0000
1000
0010
0301
0000
1000
0100
,
0020
0000
0000
0000
1000
0000
0100
0000
0031
0000
0001
1000
0001
0000
1000
0000
,
1020
0000
0130
0001
0010
0100
0010
0001
,
1000
2000
0000
3010
0100
0000
1001
0000
,
0120
0000
0000
0000
0000
0000
0000
0000
0032
0000
0000
0000
0000
0000
1003
0001
,
0200
0000
0320
0000
0000
0000
2030
0000
3200
0000
0000
0000
0300
0000
0010
0001
,
2000
0000
0000
0000
0000
0000
0000
0000
3020
0000
0000
0000
0030
0000
1000
0001
,
2000
0000
0000
0000
3010
0000
0000
0000
1000
0100
0000
0010
0001
0000
1001
0000
,
0110
0000
0010
1000
1001
0000
0001
0010
,
0200
0000
0000
0000
0310
0000
0001
1000
0001
0000
1000
0000
1010
0000
0101
0000
,
1002
0000
0000
0000
0103
0000
0001
0010
0100
0000
0010
0000
0001
0000
1000
0000
,
0200
0000
0000
0000
0310
0000
0001
0000
0100
0010
0000
0010
1000
0000
0001
1000
,
0200
0000
0310
0001
2000
0000
3010
0100
,
0001
0100
0010
1000
0200
0000
0310
0001
,
1001
0000
0000
1000
0010
0000
0100
0001
0100
0000
0001
0000
0010
0000
0100
0010
,
0100
0010
0001
1000
1200
0000
0310
0100
,
2002
0000
0000
0000
,
0000
0000
0000
0000
0000
0000
0000
0000
0000
0000
0000
0000
3003
0000
0001
0100
,
0020
0000
0000
0000
0030
0000
1000
0100
0010
0002
0000
0000
0000
0000
0003
1000
,
0100
2000
0000
0000
0000
0000
0000
0000
0000
0000
0000
0000
3002
0000
0000
0000
,
0000
2000
0000
0000
,
3003
0000
0000
0000
;
