#VERSION:0.82;
#TITLE:Master of Puppets;
#SUBTITLE:;
#ARTIST:Metallica;
#TITLETRANSLIT:;
#SUBTITLETRANSLIT:;
#ARTISTTRANSLIT:;
#GENRE:;
#ORIGIN:;
#CREDIT:;
#BANNER:[Falling Apart] - Master of Puppets.png;
#BACKGROUND:[Falling Apart] - Master of Puppets-bg.png;
#PREVIEWVID:;
#JACKET:[Falling Apart] - Master of Puppets-jacket.png;
#CDIMAGE:;
#DISCIMAGE:;
#LYRICSPATH:;
#CDTITLE:cdtitle.png;
#MUSIC:[Falling Apart] - Master of Puppets.ogg;
#OFFSET:1.136000;
#SAMPLESTART:78.149353;
#SAMPLELENGTH:16.221565;
#SELECTABLE:YES;
#DISPLAYBPM:215.000000;
#BPMS:0.000=215.000,
8.000=214.600,
9.000=211.000,
10.000=214.000,
16.000=215.000,
20.000=204.000,
21.000=213.000,
22.000=215.000,
24.000=213.000,
32.000=207.000,
39.000=211.000,
40.000=215.000,
44.000=210.000,
45.000=221.000,
46.000=215.000,
54.000=205.000,
55.000=211.000,
56.000=215.000,
61.000=210.000,
63.000=202.000,
65.000=209.000,
66.000=206.000,
67.000=199.000,
68.000=214.000,
69.000=209.000,
71.000=210.000,
74.000=218.000,
75.000=191.000,
76.000=215.000,
77.500=240.000,
79.000=186.000,
80.000=234.000,
81.500=255.000,
83.000=212.000,
84.000=209.000,
91.000=222.000,
92.000=210.000,
104.500=235.000,
107.000=207.000,
111.000=215.000,
112.500=220.000,
114.000=215.000,
115.000=208.000,
119.500=255.000,
121.000=215.000,
122.000=210.000,
134.500=245.000,
136.000=230.000,
137.000=210.000,
141.000=204.000,
145.000=210.000,
149.500=235.000,
151.000=220.000,
152.000=210.000,
156.000=205.000,
160.000=208.000,
164.500=235.000,
166.000=220.000,
167.000=210.000,
179.500=235.000,
181.000=220.000,
182.000=210.000,
189.000=215.000,
190.000=212.000,
194.500=237.500,
196.000=220.000,
197.000=210.000,
209.500=230.000,
212.000=205.000,
216.000=210.000,
225.000=215.000,
226.000=220.000,
228.000=210.000,
232.000=205.000,
240.000=210.000,
250.000=205.000,
260.000=210.000,
264.000=205.000,
268.000=210.000,
272.000=215.000,
276.000=210.000,
278.000=205.000,
279.000=200.000,
280.000=205.000,
281.000=210.000,
282.000=205.000,
283.000=210.000,
290.000=215.000,
298.000=210.000,
302.000=215.000,
304.000=225.000,
305.000=220.000,
314.000=215.000,
328.000=220.000,
334.000=210.000,
335.000=220.000,
336.000=210.000,
338.000=215.000,
342.000=210.000,
351.000=195.000,
353.000=220.000,
354.000=205.000,
355.000=220.000,
356.000=215.000,
358.000=210.000,
364.000=215.000,
372.000=210.000,
378.000=215.000,
387.000=205.000,
389.500=235.000,
391.000=220.000,
392.000=215.000;
#STOPS:281.000=0.571,
283.000=0.571,
335.000=0.545,
337.000=0.571,
353.000=0.558,
355.000=0.585;
#DELAYS:;
#WARPS:;
#TIMESIGNATURES:0.000=4=4;
#TICKCOUNTS:0.000=4;
#COMBOS:0.000=1;
#SPEEDS:0.000=1.000=0.000=0;
#SCROLLS:0.000=1.000,
8.000=1.002,
9.000=1.019,
10.000=1.005,
16.000=1.000,
20.000=1.054,
21.000=1.009,
22.000=1.000,
24.000=1.009,
32.000=1.039,
39.000=1.019,
40.000=1.000,
44.000=1.024,
45.000=0.973,
46.000=1.000,
54.000=1.049,
55.000=1.019,
56.000=1.000,
61.000=1.024,
63.000=1.064,
65.000=1.029,
66.000=1.044,
67.000=1.080,
68.000=1.005,
69.000=1.029,
71.000=1.024,
74.000=0.985,
75.000=1.126,
76.000=1.000,
77.500=0.896,
79.000=1.156,
80.000=0.919,
81.500=0.843,
83.000=1.014,
84.000=1.029,
91.000=0.968,
92.000=1.024,
104.500=0.915,
107.000=1.039,
111.000=1.000,
112.500=0.977,
114.000=1.000,
115.000=1.034,
119.500=0.843,
121.000=1.000,
122.000=1.024,
134.500=0.878,
136.000=0.935,
137.000=1.024,
141.000=1.054,
145.000=1.024,
149.500=0.915,
151.000=0.977,
152.000=1.024,
156.000=1.049,
160.000=1.034,
164.500=0.915,
166.000=0.977,
167.000=1.024,
179.500=0.915,
181.000=0.977,
182.000=1.024,
189.000=1.000,
190.000=1.014,
194.500=0.905,
196.000=0.977,
197.000=1.024,
209.500=0.935,
212.000=1.049,
216.000=1.024,
225.000=1.000,
226.000=0.977,
228.000=1.024,
232.000=1.049,
240.000=1.024,
250.000=1.049,
260.000=1.024,
264.000=1.049,
268.000=1.024,
272.000=1.000,
276.000=1.024,
278.000=1.049,
279.000=1.075,
280.000=1.049,
281.000=1.024,
282.000=1.049,
283.000=1.024,
290.000=1.000,
298.000=1.024,
302.000=1.000,
304.000=0.956,
305.000=0.977,
314.000=1.000,
328.000=0.977,
334.000=1.024,
335.000=0.977,
336.000=1.024,
338.000=1.000,
342.000=1.024,
351.000=1.103,
353.000=0.977,
354.000=1.049,
355.000=0.977,
356.000=1.000,
358.000=1.024,
364.000=1.000,
372.000=1.024,
378.000=1.000,
387.000=1.024,
389.500=0.915,
391.000=0.977,
392.000=1.000;
#FAKES:;
#LABELS:0.000=Song Start;
#BGCHANGES:;
#KEYSOUNDS:;
#ATTACKS:
;

//---------------dance-single - S-EXPERT----------------
#NOTEDATA:;
#CHARTNAME:xRGTMx-ESP;
#STEPSTYPE:dance-single;
#DESCRIPTION:S-EXPERT;
#CHARTSTYLE:;
#DIFFICULTY:Hard;
#METER:10;
#RADARVALUES:0.870993,1.000000,0.778868,0.611370,0.133999,562.000000,93.000000,73.000000,0.000000,0.000000,0.000000,0.000000,0.000000,0.870993,1.000000,0.778868,0.611370,0.133999,562.000000,93.000000,73.000000,0.000000,0.000000,0.000000,0.000000,0.000000;
#CREDIT:xRGTMx;
#DISPLAYBPM:215.000000;
#NOTES:
// measure 0
0000
0000
0000
0000
,  // measure 1
0000
0000
0000
0000
,  // measure 2
0000
0000
0000
0000
,  // measure 3
0000
0000
0000
0000
,  // measure 4
1001
0000
0000
0000
,  // measure 5
1010
0101
2200
0000
,  // measure 6
3300
0000
0000
0000
,  // measure 7
0000
0000
0000
0110
,  // measure 8
1001
0000
0000
0000
,  // measure 9
0011
0000
1100
0000
0102
0000
1000
1003
,  // measure 10
0001
0010
0001
0010
0100
1000
0100
1000
,  // measure 11
0001
0100
0001
0100
0010
0000
1000
0000
0100
0000
1000
0000
0001
0000
0010
0000
,  // measure 12
0011
0001
0100
0000
0010
1000
0000
0100
,  // measure 13
0010
0000
0001
0010
0000
0100
1000
0001
,  // measure 14
1000
0010
0100
0000
0001
0100
0000
0010
,  // measure 15
1000
0000
0100
0010
0000
0001
2001
0000
,  // measure 16
3010
1000
0001
0000
0010
0100
0000
1000
,  // measure 17
0001
0100
0001
0100
0010
1000
1001
0001
,  // measure 18
0010
0001
0100
0000
0010
1000
0100
0000
,  // measure 19
1100
0000
0000
0101
0000
0000
0110
0000
,  // measure 20
1010
0000
0000
0011
0000
0000
0110
0000
,  // measure 21
1001
0000
0000
0000
,  // measure 22
0000
0000
0000
0000
,  // measure 23
1001
1000
0010
1000
0001
1000
0100
1000
,  // measure 24
0001
0200
0310
1000
0200
0310
0021
0000
,  // measure 25
0031
0100
0001
1000
0001
0010
0001
0100
,  // measure 26
0010
2020
0000
3030
0021
0000
0031
1000
,  // measure 27
0010
1000
0001
1000
0100
1000
0010
0200
,  // measure 28
0301
0001
2000
3100
0200
0310
1001
0001
,  // measure 29
0100
0001
0010
0001
1000
0010
0100
0202
,  // measure 30
0000
0303
1200
0000
1300
0010
0100
0001
,  // measure 31
0100
0010
1000
0001
0010
0200
1300
0100
,  // measure 32
0020
0031
0201
0000
0310
1000
0010
0100
,  // measure 33
0001
0100
0010
1000
0100
2200
0000
3300
,  // measure 34
0201
0000
0310
1000
0010
0100
0001
0010
,  // measure 35
0100
1000
0001
0200
0310
1000
0002
0013
,  // measure 36
0210
0000
1300
0010
0100
0001
1000
0100
,  // measure 37
0010
0001
1000
0220
0000
0330
1002
0000
,  // measure 38
1003
0010
0001
0010
0100
1000
0100
0001
,  // measure 39
1000
0002
0013
1000
0002
0103
2100
0000
,  // measure 40
3010
1000
0001
0010
1000
0010
0100
1000
,  // measure 41
0010
2020
0000
3030
0012
0000
0103
0001
,  // measure 42
0010
1000
0010
0100
1000
0010
0100
2000
,  // measure 43
3100
0001
2000
3100
0120
0000
0031
0010
,  // measure 44
0100
1000
0001
0100
0010
0001
0010
2020
,  // measure 45
0000
3030
0102
0000
1003
0100
0001
0100
,  // measure 46
1000
0100
0001
0100
1000
0010
0110
0000
,  // measure 47
0100
0001
0010
0010
0001
0100
1000
0100
,  // measure 48
0001
0100
1000
0100
0001
0220
0000
0330
,  // measure 49
1001
0000
1000
0010
0001
0010
1000
0010
,  // measure 50
0001
0010
1000
0100
0110
0000
0010
0001
,  // measure 51
0100
0100
0001
0010
1000
0010
0001
0010
,  // measure 52
1000
0010
0001
0220
0000
0330
1001
0000
,  // measure 53
1000
0010
0001
1000
0100
0001
1000
0100
,  // measure 54
0010
0000
0000
0000
0000
0000
0000
0000
0000
0000
0000
0000
0000
0000
0000
0000
0001
0000
0000
0000
0000
0000
0000
0000
0000
0000
0010
0000
0000
0100
0000
0000
0010
0000
0000
0000
0000
0000
0000
0000
0000
0000
0000
0000
0000
0000
0000
0000
1001
0000
0000
0000
0000
0000
0000
0000
0000
0000
0000
0000
0000
0000
0000
0000
,  // measure 55
1000
0010
0001
0010
0200
0000
0001
0000
,  // measure 56
0310
0100
0010
1000
1001
0000
0011
0000
,  // measure 57
0001
0100
0000
0000
0001
1000
0000
0000
1000
0100
0000
0000
1000
0001
0000
0000
,  // measure 58
0010
0000
0001
1000
0110
0000
1001
0000
,  // measure 59
1000
0000
0000
0000
0000
0000
0000
0000
0100
0000
0000
0000
0000
0000
0000
0000
0010
0000
0000
0000
0000
0000
0000
0000
0000
0000
0001
0000
0000
0100
0000
0000
0002
0000
0000
0000
0000
0000
0000
0000
0000
0000
0000
0000
0000
0000
0000
0000
0010
0000
0000
0000
0000
0000
0000
0000
0000
0000
0000
0000
0000
0000
0000
0000
,  // measure 60
1003
0010
0100
0001
0011
0000
1100
0000
,  // measure 61
1000
0010
0000
0000
0100
0001
0000
0000
0001
0000
0010
0000
0100
0000
1000
0000
,  // measure 62
0001
0000
0010
0100
0110
0000
1001
0000
,  // measure 63
1000
0010
0100
0001
0020
0000
1000
0000
,  // measure 64
0031
0000
0000
0000
0000
0000
0000
0000
0010
0000
0000
0000
0000
0000
0000
0000
0100
0000
0000
0000
0000
0000
0000
0000
0000
0000
1000
0000
0000
0010
0000
0000
1000
0000
0000
0000
0000
0000
0000
0000
0000
0000
0000
0000
0000
0000
0000
0000
1001
0000
0000
0000
0000
0000
0000
0000
0000
0000
0000
0000
0000
0000
0000
0000
,  // measure 65
0001
0010
0000
0000
0001
1000
0000
0000
1000
0010
0000
0000
1000
0001
0000
0000
,  // measure 66
0010
0000
0001
1000
0110
0000
1001
0000
,  // measure 67
1000
0000
0000
0000
0000
0000
0000
0000
0001
0000
0000
0000
0000
0000
0000
0000
0010
0000
0000
0000
0000
0000
0000
0000
0000
0000
0100
0000
0000
0010
0000
0000
0200
0000
0000
0000
0000
0000
0000
0000
0000
0000
0000
0000
0000
0000
0000
0000
0001
0000
0000
0000
0000
0000
0000
0000
0000
0000
0000
0000
0000
0000
0000
0000
,  // measure 68
1300
0000
0000
0000
0000
0000
0000
0000
0010
0000
0000
0000
0000
0000
0000
0000
0100
0000
0000
0000
0000
0000
0000
0000
0000
0000
0001
0000
0000
1000
0000
0000
0001
0000
0000
0000
0000
0000
0000
0000
0000
0000
0000
0000
0000
0000
0000
0000
1001
0000
0000
0000
0000
0000
0000
0000
0000
0000
0000
0000
0000
0000
0000
0000
,  // measure 69
1000
0010
1000
0010
0100
0000
0000
0000
0001
0010
0001
0010
0100
0000
0000
0000
,  // measure 70
0110
0000
0000
0000
2002
3003
0000
0000
0110
0000
0000
0000
2002
3003
0000
0000
,  // measure 71
1002
0000
0010
0000
0103
0001
0010
0100
,  // measure 72
1100
0000
1000
0001
0201
0000
0010
0010
,  // measure 73
0000
1000
1000
0000
0310
1000
0001
0000
,  // measure 74
0010
0000
0100
1000
0001
0000
0000
0000
2001
0000
0000
0000
0010
0000
0000
0000
,  // measure 75
3100
0000
1000
0000
0010
0000
0100
0000
0101
0000
0000
0001
0000
1000
0000
0000
,  // measure 76
1200
0000
0010
0010
0000
0001
0001
0000
,  // measure 77
0300
0100
1000
0100
1000
0001
0100
0010
,  // measure 78
1002
0000
0100
0000
0013
0001
0100
0010
,  // measure 79
1010
0000
1000
0100
0021
0000
1000
1000
,  // measure 80
0000
0001
0031
0000
1002
0000
0100
0000
,  // measure 81
1003
0001
0010
0100
1100
0000
1000
0010
,  // measure 82
0201
0000
1000
1000
0000
0001
0301
0000
,  // measure 83
0100
0000
0010
0000
1000
0000
0000
0000
1001
0000
0000
0000
0220
0330
0000
0000
,  // measure 84
1001
0000
0000
0000
0220
0330
0000
0000
2001
0000
0000
0000
0100
0000
0000
0000
,  // measure 85
3001
0010
1000
0010
0011
0000
0001
0100
,  // measure 86
0120
0000
0001
0100
0000
0100
1030
0000
,  // measure 87
0010
0000
1000
0000
0001
0000
0000
0000
0010
0000
0100
1000
0001
0000
1000
0000
,  // measure 88
0110
0000
0000
0000
2002
3003
0000
0000
0110
0000
0000
0000
2002
3003
0000
0000
,  // measure 89
1001
1000
0010
0000
0100
0001
0000
0010
,  // measure 90
0100
0000
1000
0001
0000
0100
0010
0010
,  // measure 91
1000
0001
0010
0000
0100
1000
0000
0001
,  // measure 92
0100
0000
0100
0010
0000
1000
1002
0000
,  // measure 93
0013
0001
0100
0000
1000
0100
0000
0001
,  // measure 94
0010
0000
0000
0000
0100
0000
0001
0000
0100
1000
0100
1000
0001
0000
1000
0000
,  // measure 95
0010
0100
0001
0000
0100
0010
1000
0100
,  // measure 96
1100
0000
0000
0101
0000
0000
0011
0000
,  // measure 97
1010
0000
0000
0101
0000
0000
1100
0000
,  // measure 98
2002
0000
0000
0000
,  // measure 99
0000
0000
0000
0000
,  // measure 100
0000
0000
0000
0000
,  // measure 101
0000
0000
0000
0000
,  // measure 102
0000
0000
0000
0000
,  // measure 103
0000
3003
0000
0000
;

//---------------dance-single - S-DIFFICULT----------------
#NOTEDATA:;
#CHARTNAME:xRGTMx-DSP;
#STEPSTYPE:dance-single;
#DESCRIPTION:S-DIFFICULT;
#CHARTSTYLE:;
#DIFFICULTY:Medium;
#METER:8;
#RADARVALUES:0.616156,0.907947,0.527620,0.435496,0.000000,400.000000,63.000000,52.000000,0.000000,0.000000,0.000000,0.000000,0.000000,0.616156,0.907947,0.527620,0.435496,0.000000,400.000000,63.000000,52.000000,0.000000,0.000000,0.000000,0.000000,0.000000;
#CREDIT:xRGTMx;
#DISPLAYBPM:215.000000;
#NOTES:
0000
0000
0000
0000
,
0000
0000
0000
0000
,
0000
0000
0000
0000
,
0000
0000
0000
0000
,
1001
0000
0000
0000
,
1010
0110
0202
0000
,
0303
0000
0000
0000
,
0000
0000
0000
0110
,
1001
0000
0000
0000
,
0011
0110
2200
3000
,
0310
0010
0001
0001
,
0100
0001
0100
0001
1000
0000
0100
0000
,
0010
0000
0001
0000
0001
1000
0000
1000
,
0010
0000
0010
0100
0000
0100
0001
0000
,
1000
0000
0001
0000
1000
0100
0000
0100
,
0010
0000
0010
0001
0000
0001
1000
0000
,
0010
0000
0100
0000
0001
0010
0000
0100
,
0010
0000
0001
1000
0000
1000
0010
0000
,
0100
0000
0001
0000
1000
0100
1000
0000
,
0010
0000
0000
0110
0000
0000
1001
0000
,
0010
0000
0000
0110
0000
0000
1001
0000
,
0010
0000
0000
0000
,
0000
0000
0000
0000
,
0001
1000
0100
1000
,
0010
0100
0001
0100
0010
0000
1000
0000
,
0001
0010
0001
0100
,
0010
0200
0000
0300
1001
0000
1000
0000
,
0001
0000
0100
0000
0001
0000
1000
0010
,
1000
0010
0100
0001
0100
0001
0010
0000
,
0100
0000
1000
0000
0010
0000
0100
0020
,
0000
0030
1001
0000
1000
0000
0100
0000
,
0001
0000
0100
0000
0010
0001
1000
0000
,
0010
0100
0001
0010
,
1000
0000
0010
0000
0001
2000
0000
3000
,
0110
0001
0100
0010
,
1000
0000
0100
0010
0100
0000
1000
0000
,
0001
1000
0010
0001
,
0010
0000
0100
0002
0000
0003
0110
0000
,
1000
0010
0001
0010
,
0100
0001
0010
0100
1000
0000
0001
0000
,
0100
0010
1000
0001
,
0010
0200
0000
0300
1001
0000
1000
0000
,
0010
0000
0100
0000
0001
0000
0010
0001
,
0010
0100
1000
0000
0010
0000
0100
0000
,
1000
0000
0100
0000
0001
0000
1000
0002
,
0000
0003
0110
0000
1000
0000
1000
0000
,
0001
0000
0001
0000
0100
0010
0010
0000
,
1000
0001
1000
0001
0010
0000
0010
0000
,
0100
0000
1000
0000
0001
0200
0000
0300
,
1001
0001
0001
1000
,
1000
0000
0100
0010
0010
0000
0001
1000
,
0001
1000
0010
0000
0010
0000
0100
0000
,
0001
0000
1000
0200
0000
0300
1001
0000
,
0001
0010
0001
0010
0100
1000
0100
1000
,
0001
0000
0000
0100
0010
0000
1001
0000
,
1000
0010
0001
0000
0020
0000
0100
0000
,
0130
0001
0100
0001
1000
0000
0100
0000
,
0022
0033
2020
3030
,
1000
0000
0000
0100
0010
0000
1001
0000
,
0001
0010
1000
0000
0020
0000
0100
0000
,
0130
1000
0100
1000
0001
0000
0100
0000
,
2020
3030
0022
0033
,
0001
0000
0010
0100
1000
0000
0110
0000
,
0001
0100
1000
0000
0200
0000
0010
0000
,
0310
1000
0010
0100
0010
0000
1000
0000
,
0202
0303
2200
3300
,
1000
0000
0010
0100
0001
0000
0110
0000
,
1000
0100
0001
0000
0200
0000
0010
0000
,
0310
0001
0010
0100
0010
0000
0001
0000
,
2200
3300
0202
0303
,
0110
0000
0000
2002
3003
0000
0110
0000
0000
2002
3003
0000
,
1000
0000
0010
0000
0100
0001
1000
0000
,
1100
0010
0102
0010
,
0000
0000
1000
0000
0000
0000
0100
0003
,
0000
0001
1000
0000
0001
0000
0010
0000
,
0100
1000
0001
0000
0101
0000
0010
0000
,
2100
0010
0000
0001
,
3000
0100
1000
0100
1000
0001
1000
0001
,
0100
0000
0010
0000
1000
0010
0100
0000
,
0101
1000
0021
0100
,
0000
1030
1001
0100
,
0010
1000
0100
0000
1100
0000
0001
0000
,
1020
0001
0000
0130
,
0010
0000
0000
1000
0000
0000
0001
0000
0000
0000
0000
0000
0110
0000
0000
0000
0000
0000
2002
0000
3003
0000
0000
0000
,
0110
0000
0000
2002
3003
0000
1000
0000
0000
0001
0000
0000
,
0010
0100
1000
0100
0010
0000
0001
1000
,
0000
0120
0000
0001
,
0030
0000
0110
0000
1000
0001
1000
0000
,
0110
0000
0000
2002
3003
0000
0110
0000
0000
2002
3003
0000
,
0001
0000
1000
0000
0010
0100
0000
0001
,
0100
0000
0010
1000
0000
0100
1000
0000
,
0010
0000
0001
0000
0100
0001
0000
1000
,
0100
0000
0010
0001
0000
1000
0002
0000
,
0103
0000
0010
0000
1000
0100
0000
1000
,
0001
0000
0010
0000
0100
1000
0001
1000
,
0010
0000
0100
0000
0001
0100
0010
0000
,
1010
0000
0000
0011
0000
0000
1001
0000
,
1100
0000
0000
0101
0000
0000
0110
0000
,
2002
0000
0000
0000
,
0000
0000
0000
0000
,
0000
0000
0000
0000
,
0000
0000
0000
0000
,
0000
0000
0000
0000
,
0000
3003
0000
0000
;

//---------------dance-single - S-BASIC----------------
#NOTEDATA:;
#CHARTNAME:xRGTMx-BSP;
#STEPSTYPE:dance-single;
#DESCRIPTION:S-BASIC;
#CHARTSTYLE:;
#DIFFICULTY:Easy;
#METER:6;
#RADARVALUES:0.423532,0.492446,0.259623,0.184248,0.000000,301.000000,31.000000,22.000000,0.000000,0.000000,0.000000,0.000000,0.000000,0.423532,0.492446,0.259623,0.184248,0.000000,301.000000,31.000000,22.000000,0.000000,0.000000,0.000000,0.000000,0.000000;
#CREDIT:xRGTMx;
#DISPLAYBPM:215.000000;
#NOTES:
0000
0000
0000
0000
,
0000
0000
0000
0000
,
0000
0000
0000
0000
,
0000
0000
0000
0000
,
1001
0000
0000
0000
,
0010
0010
0020
0000
,
0030
0000
0000
0000
,
0000
0000
0000
0010
,
1001
0000
0000
0000
,
0100
0100
0200
0000
,
0310
0000
0010
0000
,
1000
0001
1000
0001
,
1000
0010
0000
0010
,
0000
0100
0000
0100
,
0001
0010
0000
0010
,
0000
0100
0000
2001
,
3010
1000
0010
0100
,
0001
0010
0100
0100
,
1000
0001
0100
0000
,
0010
0000
0000
0010
0000
0000
0010
0000
,
0100
0000
0000
0100
0000
0000
0100
0000
,
1001
0000
0000
0000
,
0000
0000
0000
0000
,
1000
0001
1000
0010
,
0100
0100
0010
1000
,
0001
0010
0001
0010
,
0100
0100
0000
0000
1001
0000
1000
0000
,
0010
1000
0001
0010
,
0010
0100
0100
0010
,
0001
0000
1000
0000
0010
0000
0100
0100
,
0000
1001
1000
0100
,
0010
0100
1000
0001
,
0001
0100
0010
1000
,
1000
0000
0100
0000
0010
0010
0000
0000
,
1001
0001
1000
0010
,
0100
0001
1000
0100
,
0010
0001
0001
0010
,
0100
0000
0010
0010
0000
0000
1001
0000
,
0001
1000
0010
0100
,
0001
0010
0010
0100
,
1000
0001
0100
0010
,
1000
1000
0000
0000
1001
0000
0001
0000
,
0010
0100
0001
0100
,
1000
0010
0100
1000
,
0100
0000
0001
0000
1000
0000
0001
0001
,
0000
0110
1000
1000
,
0100
0000
0100
0000
0010
0100
0010
0000
,
0001
1000
0001
0001
,
0100
0000
0100
0000
0010
0010
0000
0000
,
1001
1000
1000
0010
,
0010
0000
0100
0010
0100
0000
0001
0000
,
1000
0001
0001
0010
,
0010
0000
0100
0100
0000
0000
1001
0000
,
1000
0010
0100
0001
,
1000
0000
0110
1001
,
0001
0010
0100
0000
,
1000
0100
0010
0001
,
0200
0000
0320
0000
,
1030
0000
0110
1001
,
0001
0010
0100
0000
,
1000
0010
0100
0001
,
0020
0000
0230
0000
,
1300
0000
0110
1001
,
0001
1000
0010
0000
,
0100
0001
1000
0100
,
0020
0000
0230
0000
,
1300
0000
0110
1001
,
0001
1000
0100
0000
,
0010
0001
0100
0010
,
0200
0300
0020
0030
,
0100
0000
0000
0200
0300
0000
0100
0000
0000
0200
0300
0000
,
0100
0010
1000
0100
,
1001
0000
0201
0000
,
0000
1000
0000
0310
,
0100
0001
0010
0100
,
1000
0010
1001
0000
,
1200
0000
0000
0010
,
0300
0100
1000
0001
,
1000
0010
0100
0001
,
0110
0000
2001
0000
,
0000
3010
1000
0001
,
0010
0100
0110
0000
,
1002
0000
0000
0100
,
0000
0000
0000
1003
0000
0000
0010
0000
0000
0020
0030
0000
,
0010
0000
0000
0020
0030
0000
0100
0000
0000
0100
0000
0000
,
0001
1000
0100
0000
,
2001
0000
0000
0100
,
0000
3010
1000
0100
,
0010
0000
0000
0020
0030
0000
0010
0000
0000
0020
0030
0000
,
0100
1000
0000
1000
,
0000
0010
0000
0010
,
0100
0001
0000
0001
,
0000
0010
0000
1001
,
1000
0001
0000
0001
,
0010
0100
0010
0100
,
1000
0001
1000
0000
,
0010
0000
0000
0010
0000
0000
0010
0000
,
0100
0000
0000
0100
0000
0000
0100
0000
,
1001
0000
0000
0000
;

//---------------dance-single - BEGINNER----------------
#NOTEDATA:;
#CHARTNAME:xRGTMx-BEG;
#STEPSTYPE:dance-single;
#DESCRIPTION:BEGINNER;
#CHARTSTYLE:;
#DIFFICULTY:Beginner;
#METER:3;
#RADARVALUES:0.202195,0.287260,0.000000,0.100499,0.000000,157.000000,0.000000,12.000000,0.000000,0.000000,0.000000,0.000000,0.000000,0.202195,0.287260,0.000000,0.100499,0.000000,157.000000,0.000000,12.000000,0.000000,0.000000,0.000000,0.000000,0.000000;
#CREDIT:xRGTMx;
#DISPLAYBPM:215.000000;
#NOTES:
0000
0000
0000
0000
,
0000
0000
0000
0000
,
0000
0000
0000
0000
,
0000
0000
0000
0000
,
0010
0000
0000
0000
,
0010
0010
0020
0000
,
0030
0000
0000
0000
,
0000
0000
0000
0010
,
0010
0000
0000
0000
,
0100
0100
0200
0000
,
0300
0000
0000
0000
,
0100
0000
0100
0000
,
0000
0001
0000
0001
,
0000
0001
0000
0001
,
0000
1000
0000
1000
,
0000
1000
0000
1000
,
0000
0010
0000
0010
,
0010
0000
0000
0000
,
0000
0100
0000
0100
,
0200
0000
0000
0300
0000
0000
0010
0000
,
0020
0000
0000
0030
0000
0000
0100
0000
,
0100
0000
0000
0000
,
0000
0000
0000
0000
,
1000
0000
1000
0000
,
0001
0000
0001
0000
,
1000
0000
0001
0000
,
0010
0000
0000
0001
,
0000
0001
0000
1000
,
0000
1000
0000
0010
,
0000
0010
0000
0100
,
0000
0000
0001
0000
,
0001
0000
1000
0000
,
1000
0000
0001
0000
,
1000
0000
0100
0000
,
0000
1000
0000
1000
,
0000
0001
0000
0001
,
0000
0100
0000
0100
,
0000
0010
0000
0000
,
1000
0000
1000
0000
,
0001
0000
0001
0000
,
1000
0000
1000
0000
,
0100
0000
0000
1000
,
0000
0001
0000
1000
,
0000
0001
0000
0100
,
0000
0100
0000
0010
,
0000
0000
1000
0000
,
1000
0000
0000
0100
,
0100
0000
0001
0000
,
0001
0000
0100
0000
,
1000
1000
0000
1000
,
0000
0000
0010
0010
,
0000
0001
0000
0001
,
0000
0010
0000
0010
,
0010
0000
0000
0000
,
0100
0000
0000
0000
,
0010
0000
0000
0000
,
1000
0000
0001
0000
,
0010
0000
0000
0000
,
0100
0000
0000
0000
,
1000
0000
0001
0000
,
0100
0000
0000
0000
,
0010
0000
0000
0000
,
1000
0000
0001
0000
,
0010
0000
0000
0000
,
0100
0000
0000
0000
,
1000
0000
0000
0000
,
0100
0000
0010
0000
,
0001
0000
0000
0000
,
1000
0000
0000
0000
,
0010
0000
0010
0000
,
0020
0030
0020
0030
,
0010
0000
0000
0000
,
0100
0000
0001
0000
,
1000
0000
0000
0000
,
0100
0000
0010
0000
,
0000
0000
0001
0000
,
1000
0000
0010
0000
,
0000
0000
0010
0000
,
0100
0000
0000
0000
,
0010
0000
1000
0000
,
0001
0000
0010
0000
,
0000
0000
0100
0000
,
1000
0000
0001
0000
,
0000
0000
0200
0300
,
0200
0300
0100
0000
,
0000
0000
0010
0000
,
1000
0000
0001
0000
,
0000
0000
0010
0000
,
0020
0030
0020
0030
,
0000
1000
0000
1000
,
0000
0001
0000
0001
,
0000
0010
0000
0010
,
0000
0100
0000
0100
,
0000
1000
0000
0001
,
0000
0100
0100
0000
,
0000
0010
0000
0010
,
0020
0000
0000
0030
0000
0000
0100
0000
,
0200
0000
0000
0300
0000
0000
0010
0000
,
0010
0000
0000
0000
;
