#TITLE:Limelight (feat. Cryaotic);
#SUBTITLE:;
#ARTIST:Boyinaband;
#TITLETRANSLIT:;
#SUBTITLETRANSLIT:;
#ARTISTTRANSLIT:;
#GENRE:;
#CREDIT:;
#BANNER:[Falling Apart] - Limelight (feat Cryaotic).png;
#BACKGROUND:[Falling Apart] - Limelight (feat Cryaotic)-bg.png;
#LYRICSPATH:;
#CDTITLE:cdtitle.png;
#MUSIC:[Falling Apart] - Limelight (feat Cryaotic).mp3;
#OFFSET:-0.561000;
#SAMPLESTART:96.553032;
#SAMPLELENGTH:10.666664;
#SELECTABLE:YES;
#BPMS:0.000000=180.000000
;
#STOPS:
;
#BGCHANGES:;
#KEYSOUNDS:;
#ATTACKS:;

//---------------dance-single - ----------------
#NOTES:
     dance-single:
     :
     Challenge:
     9:
     0.653465,0.691013,0.682389,0.157474,0.056241,498.000000,91.000000,21.000000,8.000000,0.000000,0.000000,0.653465,0.691013,0.682389,0.157474,0.056241,498.000000,91.000000,21.000000,8.000000,0.000000,0.000000:
0000
0000
0000
0000
,
0000
0000
0000
0000
,
0000
0000
0000
0000
,
0000
0000
0000
0000
,
2000
0000
0000
3000
,
0020
0000
0000
0030
,
0200
0000
0000
0300
,
0002
0000
0000
0003
,
1001
0000
1000
0100
0000
0100
0000
0000
,
1001
0000
0001
0100
0000
0010
0000
0000
,
1001
0000
1000
0010
0000
0100
0001
0010
,
2000
0000
3000
0010
0002
0000
0003
0000
,
1100
0000
0010
0001
0000
0001
0000
0001
,
0100
0000
0010
1000
0000
0001
0000
0001
,
1000
0000
0000
0000
1000
0000
0100
0000
0000
0000
0010
0000
0001
0000
1000
0010
,
1000
0100
0100
0000
0001
0100
1000
0010
,
0100
0000
0010
1000
0001
1000
0000
0000
,
1001
0000
1000
0100
0000
0010
0000
0000
,
1001
0000
0001
0100
0000
0010
1000
0100
,
0002
0000
0003
0100
2000
0000
3000
0000
,
1010
0000
0010
0100
0000
0001
0000
0001
,
0010
0000
0100
1000
0000
0010
0000
0010
,
1000
0000
0000
0000
0100
0000
0010
0000
0000
0000
0100
0000
1000
0000
0001
0100
,
0001
0100
0100
0000
1000
0100
0001
0010
,
0100
0000
0010
0001
1000
0001
0100
0000
,
0110
0000
0010
1000
0000
0001
0010
0000
,
0110
0000
0010
0001
0000
0100
0001
0010
,
2000
0000
3010
0001
0200
0000
0310
0000
,
1000
1000
0001
0001
,
0010
0010
0100
0100
,
1000
0000
0010
0000
1000
0000
0010
0000
0100
0000
0001
0000
0100
0000
0001
1000
,
0001
1000
0001
0000
1000
0001
1000
0000
0100
0000
0010
0000
0001
0000
1000
0000
,
1010
0101
1100
0011
,
1010
0000
1001
0000
1000
0010
0100
0001
,
0000
0100
0001
0000
1000
0010
0100
0001
,
0000
0011
0000
1100
0000
0100
1000
0010
,
0000
0101
0000
0011
0000
1100
0000
1010
,
0000
0101
0000
01MM
1000
0010
0000
0101
,
0000
0000
1100
0000
0000
0000
0011
0000
0000
0000
1010
0000
0000
0000
1000
0001
,
1000
0010
0010
1000
0100
0100
0010
0001
,
1002
0000
0103
0010
0000
0010
0000
1000
,
0100
0110
1002
0100
,
1003
0000
0001
0100
1000
0000
0100
0000
,
0001
0010
0100
1000
1002
0000
0103
0120
,
0000
1030
0010
0100
0001
0010
0000
0010
,
0000
0100
1000
0010
0000
0100
0001
0000
,
1000
0000
1000
0000
0100
1000
0010
1000
,
0001
0010
1000
0010
0000
0010
0001
0100
,
0010
1000
0100
0010
0100
1000
0000
0001
,
1000
0001
0100
0020
0000
1030
0100
0020
,
0000
0031
0100
0020
0000
1030
0100
0010
,
0001
0100
0010
1000
0001
0000
0100
0001
,
0010
0000
0000
0000
0001
1000
0001
0000
0000
0000
1000
0000
0010
0000
0100
0000
,
0001
0000
0001
0000
1000
0000
1000
0001
,
0100
0001
0010
2000
0000
3001
0100
2000
,
0000
3010
0100
0001
0010
0000
0110
0000
,
1001
0000
0001
0100
0000
0001
0100
0010
,
1000
0000
0010
1000
0000
0010
1000
0100
,
0010
0100
0001
0100
0010
0100
1000
0001
,
0100
0000
0010
1000
0000
0001
1000
0000
,
0001
0000
1000
0100
0000
0010
0001
0000
,
1010
0000
0011
0000
1010
0000
0001
1000
,
0010
0001
0010
1000
0000
1000
0100
0000
,
0100
0000
1000
0100
0010
0001
0100
1010
,
0000
0101
0000
0001
0010
0001
0100
0001
,
1000
0001
1000
0000
0100
0000
0010
0001
0010
0000
0001
1000
0001
1000
0001
0000
,
1000
0000
0001
0100
0000
0010
1000
0001
,
0100
1000
0100
0001
0000
0001
0010
0001
,
0100
0010
1000
0000
0100
0000
0100
0000
,
1000
0000
0010
0000
0100
0000
0001
0000
0000
0000
1000
0000
0100
0000
0010
0001
,
0010
0000
0000
0000
0100
0000
1000
0000
0010
0000
0000
0000
1000
0000
0001
1000
,
0001
0000
0000
0000
,
1001
0101
1100
0011
,
1010
0000
0101
0000
0100
0001
0100
1000
,
0000
0100
1000
0000
0100
0001
0100
1000
,
0000
1100
0000
0101
0000
0100
0001
0010
,
0000
1100
0000
1010
0000
0101
0000
0011
,
0000
1100
0000
M1M0
0001
0010
0000
1100
,
0000
0101
0000
1010
0000
0011
0000
1100
,
0000
1001
0000
0101
0000
0100
0010
1000
,
1001
1100
0101
1010
,
0011
0000
1100
0000
0100
1000
0100
0001
,
0000
0100
0001
0000
0100
1000
0100
0001
,
0000
0101
0000
1100
0000
0100
1000
0010
,
0000
0101
0000
0011
0000
1100
0000
1010
,
0000
0101
0000
01MM
1000
0010
0000
0101
,
0000
0000
1010
0000
0000
0000
0011
0000
0000
0000
1100
0000
0000
0000
1000
0001
,
1000
0010
0010
0100
0001
0001
1000
0000
,
0101
1010
0011
1100
,
0101
0000
1001
0000
0001
0000
1000
0010
,
0100
0001
0010
0000
0001
0000
0001
0000
,
1000
0000
0001
0000
1000
0010
0100
0001
,
0000
0011
0000
1100
0000
1001
0000
1010
,
0000
0101
0000
01MM
1000
0010
0000
1010
,
0000
0000
0101
0000
0000
0000
0011
0000
0000
0000
1100
0000
0000
0000
1000
0001
,
1000
0010
0010
0100
0001
0001
0010
0000
,
2200
0000
0000
0000
,
3300
0000
0000
0000
;

//---------------dance-single - ----------------
#NOTES:
     dance-single:
     :
     Hard:
     8:
     0.583834,0.581905,0.254959,0.689888,0.000000,419.000000,34.000000,92.000000,0.000000,0.000000,0.000000,0.583834,0.581905,0.254959,0.689888,0.000000,419.000000,34.000000,92.000000,0.000000,0.000000,0.000000:
0000
0000
0000
0000
,
0000
0000
0000
0000
,
0000
0000
0000
0000
,
0000
0000
0000
0000
,
2000
0000
0000
3000
,
0020
0000
0000
0030
,
0200
0000
0000
0300
,
0002
0000
0000
0003
,
1001
0000
0000
1000
0000
0100
0000
0000
,
1001
0000
0000
1000
0000
0010
0000
0000
,
1001
0000
0000
1000
0000
0000
0001
0010
,
0200
0000
0300
1000
0002
0000
0003
0000
,
1001
0000
0000
0001
0000
0010
0000
0000
,
1001
0000
0000
0001
0000
0100
0000
0000
,
1001
0000
0000
1000
0000
0000
0001
0000
,
0100
0010
0100
0000
1000
0100
0010
0100
,
0001
1000
0100
0000
,
1001
0000
0000
1000
0000
0010
0000
0000
,
1001
0000
0000
0001
0000
0000
0010
0100
,
2000
0000
3000
0001
0200
0000
0300
0000
,
1001
0000
0000
1000
0000
0010
0000
0000
,
1001
0000
0000
0001
0000
0010
0000
0000
,
1001
0000
0000
0001
0000
0000
1000
0000
,
0100
0010
0100
0000
0001
0100
0010
0100
,
1000
0001
0100
0000
,
1001
0000
0000
0100
0000
0010
0000
0000
,
1001
0000
0000
1000
0000
0000
0100
0010
,
0002
0000
0003
1000
0020
0000
0030
0000
,
1000
1000
0001
0001
,
0010
0010
0100
0100
,
1000
0010
0100
0001
,
1000
0100
0010
0001
0100
0010
1000
0000
,
0002
0203
2300
3002
,
0023
0000
2030
0000
3010
1000
0001
0010
,
0000
0001
0010
0000
0100
1000
0001
0100
,
0000
0001
0000
1001
0000
1000
0100
0020
,
0000
0032
0000
0023
0000
2030
0000
3020
,
0000
0032
0000
0013
0100
1000
0000
0020
,
0000
0032
0000
0023
0000
2030
0000
3100
,
0010
0000
0100
1000
0000
1000
0001
0000
,
1002
0000
0000
0100
0000
0103
0000
0000
,
1010
1100
0022
0033
,
0011
0000
0001
0010
0100
0000
1000
0000
,
0001
0100
0010
1000
0100
0000
0000
1001
,
0000
0000
1000
0010
0100
0001
0000
0001
,
0000
1000
0100
0010
0000
0001
1000
0000
,
0001
0000
0001
0000
0010
0001
1000
0001
,
1000
0010
0100
0010
0000
1000
0001
0000
,
1000
0100
0010
0001
0100
0010
0000
0010
,
1000
0100
1000
0002
0000
0103
0001
2000
,
0000
3100
1000
0002
0000
0000
0103
0001
,
1000
0100
1000
0001
0100
0000
0010
1000
,
0001
0000
1000
0001
0000
0010
0100
1000
,
0002
0000
0003
0000
2000
0000
3000
0001
,
0100
0010
1000
0200
0000
0301
0100
2000
,
0000
3010
1000
0010
1000
0000
0110
0000
,
1001
0000
1000
0100
0000
0000
1000
0001
,
0100
0000
0001
0100
0000
0000
0100
0010
,
1000
0001
0010
0001
1000
0001
0100
0001
,
0010
0000
0100
1000
0000
0000
1001
0000
,
0001
0000
0100
0010
0000
0100
0010
0000
,
1001
0000
0110
0000
1001
0000
1000
0100
,
0010
0100
1000
0001
0000
1000
0010
0000
,
0100
0000
0000
0100
0001
1000
0100
0110
,
0000
1001
0000
0001
0010
0001
0100
0001
,
2000
0000
3010
0000
1000
0010
0100
0001
,
1000
0000
1000
0100
0000
0010
0001
1000
,
0001
0100
0010
1000
0000
0001
1000
0001
,
0000
0010
0100
0000
1000
0000
1000
0000
,
0001
0100
0010
1000
0000
1000
0100
0010
,
0001
0000
0100
0010
1000
0000
1001
0000
,
1001
0000
0000
0000
,
2000
3200
0302
2003
,
3020
0000
0032
0000
1003
0010
0100
0001
,
0000
0100
0001
0000
1000
0100
0010
0001
,
0000
1000
0000
1001
0000
0001
1000
0020
,
0000
0032
0000
0023
0000
2030
0000
3020
,
0000
0230
0000
0310
1000
0001
0000
0020
,
0000
2030
0000
3020
0000
0032
0000
0203
,
0000
0320
0000
2030
0000
3100
0010
0000
,
0002
0203
2300
3002
,
0023
0000
2030
0000
3001
0010
0100
1000
,
0000
0100
1000
0000
0001
0100
0010
1000
,
0000
0001
0000
1001
0000
1000
0001
0020
,
0000
2030
0000
3020
0000
0032
0000
0023
,
0000
0230
0000
0310
0001
1000
0000
0020
,
0000
0032
0000
0023
0000
2030
0000
3100
,
0010
0000
0001
0100
0000
0010
1000
0000
,
0002
0203
2300
3200
,
0302
0000
0023
0000
0031
0000
0000
0001
,
0010
0100
1000
0000
2002
0000
3003
0000
,
1000
0000
0010
0000
0010
1000
0001
0020
,
0000
2030
0000
3020
0000
0032
0000
0203
,
0000
0320
0000
1030
0010
0100
0000
0020
,
0000
0032
0000
0023
0000
2030
0000
3100
,
1000
0000
0010
0100
0000
0001
0010
0000
,
2200
0000
0000
0000
,
3300
0000
0000
0000
;

//---------------dance-single - ----------------
#NOTES:
     dance-single:
     :
     Medium:
     6:
     0.446713,0.472798,0.277455,0.172472,0.000000,357.000000,37.000000,23.000000,0.000000,0.000000,0.000000,0.446713,0.472798,0.277455,0.172472,0.000000,357.000000,37.000000,23.000000,0.000000,0.000000,0.000000:
0000
0000
0000
0000
,
0000
0000
0000
0000
,
0000
0000
0000
0000
,
0000
0000
0000
0000
,
2000
0000
0000
3000
,
0020
0000
0000
0030
,
0200
0000
0000
0300
,
0002
0000
0000
0003
,
1001
0000
0000
0100
0000
0100
0000
0000
,
1001
0000
0000
0010
0000
0010
0000
0000
,
1001
0000
0000
1000
0000
0000
0100
0000
,
0020
0030
0002
0003
,
1001
0000
0000
0010
0000
0010
0000
0000
,
1001
0000
0000
0100
0000
0100
0000
0000
,
1001
0000
0000
0001
0000
0000
0100
0000
,
0010
1000
0100
0010
,
1001
0001
0100
0000
,
0110
0000
0000
1000
0000
1000
0000
0000
,
0110
0000
0000
0001
0000
0000
1000
0000
,
0200
0300
0020
0030
,
0110
0000
0000
0001
0000
0001
0000
0000
,
0110
0000
0000
1000
0000
1000
0000
0000
,
0110
0000
0000
0001
0000
0000
1000
0000
,
0010
0100
0001
1000
,
1001
0001
0010
0000
,
0110
0000
0000
1000
0000
1000
0000
0000
,
0110
0000
0000
0001
0000
0000
1000
0000
,
0020
0030
0200
0300
,
0001
0001
1000
1000
,
0001
0001
1000
1000
,
0001
0010
0100
1000
,
0001
0000
0001
0000
0100
0010
0100
0010
,
1000
1010
0001
0101
,
1000
0000
1100
0000
0001
0000
0100
0010
,
0000
0100
0010
0000
1000
0000
0100
0010
,
0000
0001
0000
1000
0000
0001
0100
0001
,
0000
1000
0000
0010
0000
1000
0000
0001
,
0000
0010
0000
0001
1000
0001
0000
0100
,
0000
0010
0000
1000
0000
0100
0000
0010
,
0001
0000
0100
0010
0000
0100
0010
0000
,
2001
0000
0000
0100
0000
3100
0000
0000
,
1000
0001
2002
3003
,
1001
0001
0100
0010
,
1000
0000
0001
0000
0011
0000
0000
0011
,
0000
0000
0001
0000
1000
0001
0000
1000
,
0000
0001
1000
0001
0000
0100
0000
0000
,
0010
0010
1000
0001
,
1000
0000
0100
0010
0000
0001
0000
0000
,
1001
0001
0100
0000
,
0010
0000
1000
0002
0000
0003
1000
0002
,
0000
0003
1000
0002
0000
0003
1000
0000
,
0001
1000
0001
1000
0002
0000
1003
0000
,
0100
0000
0010
0100
0000
0000
0010
0000
,
0002
0000
0003
0000
2000
0000
3000
0001
,
0100
0000
0010
2000
0000
0000
3001
0000
,
1000
0000
0100
0010
0100
0000
0110
0000
,
1001
0000
0000
0001
0000
0000
1000
0001
,
1000
0000
0000
0001
0000
0000
1000
0000
,
0001
0010
0100
1000
,
0001
0000
0100
0010
0000
0000
1000
0000
,
0001
0000
1000
0100
0000
0100
0000
0000
,
1001
1001
1001
0001
,
1000
0000
0010
0100
0000
0001
1000
0000
,
0100
0000
0000
1000
0010
0000
0100
0001
,
0000
1001
0000
0000
0001
0000
1000
0000
,
0100
0010
0100
0000
0010
0001
1000
0001
,
0100
0000
0100
0000
0000
0010
0100
0000
,
0010
0000
1000
0001
0000
1000
0001
1000
,
0000
0100
0100
0010
,
0001
0000
1000
0010
0000
0100
0000
0000
,
0010
0000
1000
0001
1000
0000
0100
0000
,
0010
0000
0000
0000
,
0001
0011
1000
1100
,
0001
0000
0101
0000
1000
0000
0001
0100
,
0000
0010
1000
0000
0001
0000
1000
0100
,
0000
0010
0000
0001
0000
1000
0010
1000
,
0000
0100
0000
0001
0000
0100
0000
1000
,
0000
0010
0000
1000
0001
1000
0000
0010
,
0000
0001
0000
0010
0000
1000
0000
0100
,
0000
0010
0000
0001
0000
1000
0001
0000
,
1000
1010
0001
0101
,
1000
0000
1100
0000
0001
0000
1000
0100
,
0000
0010
0001
0000
1000
0000
0001
0100
,
0000
0010
0000
1000
0000
0001
0010
0001
,
0000
0100
0000
1000
0000
0100
0000
0001
,
0000
0010
0000
0001
1000
0001
0000
0010
,
0000
1000
0000
0010
0000
0001
0000
0100
,
0010
0000
1000
0001
0000
1000
0001
0000
,
1000
1000
0100
0010
,
0001
0000
0001
0000
1000
0000
0000
0010
,
0100
0010
0100
0000
0220
0000
0330
0000
,
0001
0000
0001
0000
1000
0001
0010
0001
,
0000
0010
0000
1000
0000
0010
0000
0001
,
0000
0100
0000
0010
0100
0010
0000
1000
,
0000
0010
0000
0100
0000
0001
0000
1000
,
0100
0000
0010
0001
0000
1000
0001
0000
,
0200
0000
0000
0000
,
0300
0000
0000
0000
;

//---------------dance-single - ----------------
#NOTES:
     dance-single:
     :
     Easy:
     4:
     0.343873,0.400060,0.134978,0.164973,0.000000,281.000000,18.000000,22.000000,0.000000,0.000000,0.000000,0.343873,0.400060,0.134978,0.164973,0.000000,281.000000,18.000000,22.000000,0.000000,0.000000,0.000000:
0000
0000
0000
0000
,
0000
0000
0000
0000
,
0000
0000
0000
0000
,
0000
0000
0000
0000
,
2000
0000
0000
3000
,
0020
0000
0000
0030
,
0200
0000
0000
0300
,
0002
0000
0000
0003
,
1000
0000
0000
0000
0000
0100
0000
0000
,
1000
0000
0000
0000
0000
0001
0000
0000
,
1000
0000
0000
0000
0000
0010
0000
0000
,
0200
0300
0002
0003
,
1000
0000
0000
0000
0000
0001
0000
0000
,
1000
0000
0000
0000
0000
0100
0000
0000
,
1000
0000
0000
0000
0000
0010
0000
0000
,
0100
0100
0001
1000
,
1001
0000
0000
0000
0000
1000
0000
0000
,
0001
0000
0000
0000
0000
0010
0000
0000
,
0001
0000
0000
0000
0000
1000
0000
0000
,
0020
0030
0200
0300
,
0001
0000
0000
0000
0000
0010
0000
0000
,
0001
0000
0000
0000
0000
1000
0000
0000
,
0001
0000
0000
0000
0000
0100
0000
0000
,
0010
0010
1000
0001
,
1001
0000
0000
0000
0000
1000
0000
0000
,
0100
0000
0000
0000
0000
0010
0000
0000
,
0001
0000
0000
0000
0000
0100
0000
0000
,
0020
0030
2000
3000
,
0001
0000
1000
0000
,
0001
0000
1000
0000
,
0001
1000
0001
1000
,
0010
0010
0100
0001
,
1000
1000
0100
0010
,
0001
0001
1000
0010
,
0100
0100
0001
0010
,
0100
0100
0010
0001
,
1000
0010
0100
0010
,
1000
0100
0010
0001
,
0100
0010
0100
0001
,
1000
0000
0000
0001
0000
0000
1000
0000
,
1002
0000
0000
0010
0000
0013
0000
0000
,
0001
1000
2002
3003
,
1001
0001
0100
0010
,
1000
0000
0100
0000
0110
0000
0000
0110
,
0000
1000
0001
1000
,
0001
0100
0010
0000
,
1000
0100
1000
0100
,
0010
0001
0100
0000
,
0001
1000
0100
0000
,
0010
0000
0000
0002
0000
0003
0000
2000
,
0000
3000
0000
0002
0000
0003
0000
0000
,
1000
0001
2000
3000
,
0001
0000
0000
0100
0000
0000
0010
0000
,
2000
3000
0002
0003
,
1000
0000
0000
0110
0000
0000
0000
1001
,
0000
0001
0100
0010
,
1001
0000
0000
1000
0000
0000
0100
0000
,
0100
0000
0000
0010
0000
0000
0100
0000
,
1000
0010
0100
0001
,
1000
0000
0000
0001
0000
0000
0100
0000
,
0001
0000
1000
0000
0000
0100
0000
0000
,
1001
1001
1001
0000
,
0001
0000
0000
0010
0000
0000
0100
0000
,
1000
0000
0000
0000
0110
0000
0000
1001
,
0000
1001
0000
0000
0001
0000
0100
0000
,
1000
1000
0100
0001
,
1000
0100
0000
0100
,
0010
0000
0000
0001
0000
1000
0000
0001
,
0000
0100
0100
0010
,
1000
0000
0000
0001
0000
0000
1000
0000
,
0100
0010
0100
0000
,
1001
0000
0000
0000
,
0001
0001
0100
0010
,
1000
1000
0001
0010
,
0100
0100
1000
0010
,
0100
0100
0010
1000
,
0001
0010
1000
0010
,
0001
0001
0100
0010
,
1000
0100
0001
0100
,
1000
0001
0100
0010
,
1000
1000
0100
0010
,
0001
0001
1000
0010
,
0100
0100
0001
0010
,
0100
0100
0010
0001
,
1000
0010
0001
0010
,
1000
1000
0100
0010
,
0001
0100
1000
0100
,
0001
0000
0000
1000
0000
0000
0001
0000
,
1000
1000
0100
0010
,
0001
0001
1000
0000
,
0001
1000
0220
0330
,
0001
1000
0001
0010
,
1000
0010
0001
0100
,
0010
0010
1000
0100
,
0001
0100
1000
0010
,
1000
0000
0000
0001
0000
0000
1000
0000
,
0200
0000
0000
0000
,
0300
0000
0000
0000
;

//---------------dance-single - ----------------
#NOTES:
     dance-single:
     :
     Beginner:
     2:
     0.186398,0.251959,0.059990,0.014998,0.000000,164.000000,8.000000,2.000000,0.000000,0.000000,0.000000,0.186398,0.251959,0.059990,0.014998,0.000000,164.000000,8.000000,2.000000,0.000000,0.000000,0.000000:
// measure 0
0000
0000
0000
0000
,  // measure 1
0000
0000
0000
0000
,  // measure 2
0000
0000
0000
0000
,  // measure 3
0000
0000
0000
0000
,  // measure 4
1000
0000
0000
0000
,  // measure 5
0010
0000
0000
0000
,  // measure 6
0100
0000
0000
0000
,  // measure 7
0001
0000
0000
0000
,  // measure 8
1000
0000
0000
0000
,  // measure 9
1001
0000
0000
0000
,  // measure 10
0001
0000
0000
0000
,  // measure 11
0100
0000
0100
0000
,  // measure 12
0010
0000
0000
0000
,  // measure 13
0110
0000
0000
0000
,  // measure 14
0100
0000
0000
0000
,  // measure 15
0001
0000
1000
0000
,  // measure 16
0001
0000
0000
0000
,  // measure 17
1001
0000
0000
0000
,  // measure 18
1000
0000
0000
0000
,  // measure 19
0100
0000
0100
0000
,  // measure 20
0010
0000
0000
0000
,  // measure 21
0110
0000
0000
0000
,  // measure 22
0100
0000
0000
0000
,  // measure 23
1000
0000
0001
0000
,  // measure 24
1000
0000
0000
0000
,  // measure 25
1001
0000
0000
0000
,  // measure 26
0001
0000
0000
0000
,  // measure 27
1000
0000
0001
0000
,  // measure 28
0010
0000
0010
0000
,  // measure 29
0010
0000
0010
0000
,  // measure 30
0010
0010
0010
0010
,  // measure 31
0010
0010
0010
0000
,  // measure 32
0001
0000
1000
0000
,  // measure 33
0001
0000
0100
0100
,  // measure 34
0100
0000
0100
0100
,  // measure 35
0100
0000
0010
0000
,  // measure 36
1000
0000
0100
0000
,  // measure 37
0010
0000
0001
0000
,  // measure 38
0100
0000
0010
0000
,  // measure 39
1000
0000
0001
0000
,  // measure 40
2002
0000
3003
0000
,  // measure 41
0100
0000
1001
0000
,  // measure 42
0000
0000
1000
0000
,  // measure 43
0100
0000
0010
0000
,  // measure 44
0001
0000
0000
0000
,  // measure 45
0100
0000
0010
0000
,  // measure 46
1000
0000
0000
0000
,  // measure 47
0100
0000
0010
0000
,  // measure 48
0001
0000
0000
0000
,  // measure 49
1000
0000
1000
0000
,  // measure 50
1000
0000
1000
0000
,  // measure 51
1000
1000
1000
0000
,  // measure 52
0001
0000
1000
0000
,  // measure 53
0100
0000
0000
0000
,  // measure 54
1000
0000
0100
0000
,  // measure 55
0010
0000
0001
0000
,  // measure 56
1000
0000
0000
0000
,  // measure 57
0001
0000
0000
0000
,  // measure 58
0100
0100
0100
0000
,  // measure 59
0010
0000
1000
0000
,  // measure 60
0001
0000
0000
0000
,  // measure 61
1000
1000
1000
0000
,  // measure 62
0001
0000
0010
0000
,  // measure 63
0100
0000
0000
0000
,  // measure 64
1001
0000
0001
0000
,  // measure 65
0001
0001
0001
0000
,  // measure 66
1000
0000
0000
0000
,  // measure 67
0010
0000
1000
0000
,  // measure 68
0001
0000
1000
0000
,  // measure 69
0100
0000
0100
0000
,  // measure 70
0010
0000
0001
0000
,  // measure 71
1000
0000
0000
0000
,  // measure 72
0001
0000
1000
0000
,  // measure 73
0001
0000
0010
0010
,  // measure 74
0010
0000
0010
0010
,  // measure 75
0010
0000
0001
0000
,  // measure 76
1000
0000
0010
0000
,  // measure 77
0100
0000
0001
0000
,  // measure 78
0010
0000
0100
0000
,  // measure 79
1000
0000
0001
0000
,  // measure 80
1000
0000
0001
0000
,  // measure 81
1000
0000
0010
0010
,  // measure 82
0010
0000
0010
0010
,  // measure 83
0010
0000
1000
0000
,  // measure 84
0001
0000
0010
0000
,  // measure 85
0100
0000
1000
0000
,  // measure 86
0010
0000
0100
0000
,  // measure 87
0001
0000
1000
0000
,  // measure 88
0001
0000
0001
0000
,  // measure 89
0001
0000
0000
0000
,  // measure 90
1000
0000
0100
0000
,  // measure 91
0000
0000
0000
0000
,  // measure 92
1000
0000
0100
0000
,  // measure 93
0010
0000
0001
0000
,  // measure 94
1000
0000
0010
0000
,  // measure 95
0100
0000
0001
0000
,  // measure 96
1000
0000
0000
0000
;
