#TITLE:It's Over;
#SUBTITLE:;
#ARTIST:Al Storm ft. Malaya;
#TITLETRANSLIT:;
#SUBTITLETRANSLIT:;
#ARTISTTRANSLIT:;
#GENRE:;
#CREDIT:;
#BANNER:It's Over-bn.png;
#BACKGROUND:It's over-bg.png;
#LYRICSPATH:It's Over.lrc;
#CDTITLE:darkanine.png;
#MUSIC:It's Over.ogg;
#OFFSET:0.000000;
#SAMPLESTART:56.598396;
#SAMPLELENGTH:15.000000;
#SELECTABLE:YES;
#BPMS:0.000000=174.000000
;
#STOPS:
;
#BGCHANGES:;
#KEYSOUNDS:;
#ATTACKS:;

//---------------dance-single - ----------------
#NOTES:
     dance-single:
     :
     Easy:
     4:
     0.290723,0.322290,0.061139,0.043671,0.000000,221.000000,7.000000,5.000000,0.000000,0.000000,0.000000,0.290723,0.322290,0.061139,0.043671,0.000000,221.000000,7.000000,5.000000,0.000000,0.000000,0.000000:
0000
0000
0000
0000
,
0000
0000
0000
0000
,
0000
0000
0000
0000
,
0000
0000
0000
0000
,
0000
0000
0000
0000
,
1000
0100
1000
0000
,
0001
0100
0001
0100
,
0010
0010
0010
0000
,
0100
0100
0100
0000
,
0001
0000
1000
0000
,
0100
0000
0000
0000
,
1000
0000
0001
0000
,
0010
0000
0000
0000
,
1000
0000
0001
0000
,
0100
0000
0000
0000
,
0001
0000
1000
0000
,
0010
0000
0000
0000
,
0100
0000
0001
0000
,
0010
0000
0000
0000
,
0100
0000
1000
0000
,
0010
0000
0000
0000
,
0100
0000
0000
0000
,
0001
0000
1000
0000
,
0020
0000
0000
0000
,
0030
0000
0000
0000
,
1000
1000
1000
1000
,
0001
0001
0001
0001
,
0100
0100
0010
0010
,
0100
0100
0100
0000
,
0001
0001
0001
0001
,
1000
1000
1000
1000
,
0100
0100
0010
0010
,
0100
0100
0100
0000
,
1000
1000
1000
1000
,
0001
0001
0001
0001
,
0010
0010
0100
0100
,
0010
0010
0010
0000
,
0001
0001
0001
0000
,
1000
1000
1000
0000
,
0010
0100
0010
0000
,
1000
0001
1000
0000
,
1001
0000
0110
0000
,
1000
0010
1000
0100
,
1000
0010
0100
0010
,
1000
1000
0100
1000
,
0001
0001
0100
0000
,
0001
0010
0001
0100
,
0001
0010
0100
0010
,
0001
0001
0100
0001
,
1000
1000
0100
0000
,
1000
0010
1000
1000
,
0001
0010
0001
0001
,
1000
0100
1000
1000
,
0001
0100
0100
0000
,
0001
0010
0010
0001
,
1000
0010
0010
1000
,
0100
0010
0010
0100
,
1000
0001
1000
0000
,
0010
0010
0010
0000
,
0100
0100
0100
0000
,
0001
0001
1000
1000
,
0020
0000
0130
0000
,
1000
1000
1000
0000
,
0001
0001
0001
0000
,
1000
1000
0100
0100
,
0020
0000
0130
0000
,
1000
0100
1000
0000
,
0001
0100
0001
0000
,
1000
0010
0001
0010
,
2000
0000
3001
0000
,
0100
0100
0100
0100
,
0001
0001
1000
1000
,
0020
0100
0100
0130
,
1001
0000
0110
0000
,
1000
0000
1000
0000
,
0001
0000
0001
0000
,
0100
0000
0100
0000
,
0010
0000
0010
0000
,
1000
0000
0001
0000
,
1000
0000
0001
0000
,
0100
0000
0100
0000
,
1001
0000
0110
0000
,
1001
0000
0000
0000
;

//---------------dance-single - ----------------
#NOTES:
     dance-single:
     :
     Hard:
     10:
     0.683760,0.752011,0.419240,0.026202,0.607024,497.000000,48.000000,3.000000,0.000000,0.000000,0.000000,0.683760,0.752011,0.419240,0.026202,0.607024,497.000000,48.000000,3.000000,0.000000,0.000000,0.000000:
0000
0000
0000
0000
,
1000
0100
1000
0000
0001
0100
0001
0000
,
1000
0010
1000
0000
0001
0010
0001
0000
,
1000
0010
0100
0000
0001
0010
0100
0000
,
1000
0001
0010
0000
0001
1000
0010
0000
,
1000
0100
1000
0000
0001
0000
1001
0000
,
0010
0100
0010
0000
1000
0000
0100
0000
,
0110
0000
0001
0000
1000
0010
1000
0000
,
0001
0000
1000
0000
0100
0010
0100
0000
,
1000
0000
0100
1000
0000
0100
1000
0000
,
0001
0000
0100
0001
0000
0100
0001
0000
,
1000
0000
0010
1000
0000
0010
1000
0000
,
0001
0000
0010
0001
0000
0010
0001
0000
,
1000
0000
0100
0010
0000
0100
1000
0000
,
0001
0000
0100
0010
0000
0100
0001
0000
,
1000
0000
0010
0100
0000
0010
1000
0000
,
0001
0000
0010
0100
0000
0010
0001
0000
,
1000
0000
0000
0100
0000
0000
1000
0000
,
0001
0000
0000
0010
0000
0000
0001
0000
,
1000
0000
0000
0010
0000
0000
0100
0000
,
0001
0000
0000
0100
0000
0000
0010
0000
,
1000
0000
0001
0000
,
0010
0000
0100
0100
,
0020
0000
0000
0000
,
0000
0000
0030
0000
,
0001
0001
1000
1000
,
0001
0100
1000
0100
,
0001
0001
0010
0010
,
1000
0010
0001
0010
,
0100
1000
0100
1000
,
0001
0100
0001
0100
,
0010
1000
0001
0010
,
0100
1000
0001
0100
,
0001
0101
0110
0101
,
1000
1100
0110
1100
,
1001
0101
1010
0101
,
1001
1000
0110
0010
,
1000
0010
1000
0010
1000
0100
1000
0001
,
0100
0001
1000
0001
0010
0100
1000
0001
,
0100
0010
0010
1000
0100
0100
1000
0001
,
0100
0010
0010
0100
0001
0010
0010
0100
,
1000
0010
1000
0010
0100
0000
0000
0000
0001
0100
1000
0000
0110
0000
0000
0000
,
1000
0010
0000
0000
0100
0000
0010
1000
0000
0001
0000
1000
0000
0010
0100
0001
,
0000
0010
0000
0000
0100
0000
0010
0001
0000
1000
0000
0001
0000
0010
0001
1000
,
0000
0100
0000
0000
1000
0000
0001
0100
0000
0001
0000
1000
0000
0100
0010
0001
,
0000
0100
0000
0000
0001
0000
1000
0100
0000
1000
0000
0001
0000
0100
0010
1000
,
0000
0001
0000
0000
0100
0000
0001
1000
0000
0100
0000
0010
0000
0100
1000
0001
,
0000
1000
0000
0000
0100
0000
1000
0001
0000
0100
0000
0010
0000
0100
0001
1000
,
0000
0001
0000
0000
0010
0000
0001
1000
0000
0010
0000
0100
0000
0010
1000
0001
,
0000
1000
0000
0000
0010
0000
1000
0001
0000
0010
0000
0100
0000
0010
0001
1000
,
0000
0010
0000
0000
0010
0000
1000
0100
0000
0100
0000
0100
0000
1000
0001
0100
,
0000
0010
0000
0000
0010
0000
0100
0001
0000
0001
0000
0001
0000
1000
0100
0010
,
0000
0100
0000
0000
0100
0000
1000
0010
0000
0010
0000
0010
0000
0100
0001
0010
,
0000
0001
0000
0000
0001
0000
1000
0100
0000
0010
0000
0010
0000
0100
1000
0001
,
0000
0010
0000
0000
0010
0000
0001
0100
0000
0100
0000
0100
0000
0001
1000
0100
,
0000
0010
0000
0000
0010
0000
0100
1000
0000
1000
0000
1000
0000
0001
0100
0010
,
0000
0100
0000
0000
0100
0000
0001
0010
0000
0010
0000
0100
0000
0010
0001
1000
,
0000
0100
0000
0000
0100
0000
1000
0001
0000
0100
0000
0100
0001
0100
0010
1000
,
0100
0000
0000
0000
0011
0000
0000
1000
0000
1000
0000
0000
0101
0000
0010
0000
,
0000
0010
0000
0000
1100
0000
0000
0001
0000
0001
0000
0000
1010
0000
0100
0000
,
0000
0100
0000
0000
0011
0000
0000
1000
0000
1000
0000
0000
0110
0000
0001
0000
,
0000
0001
0000
0000
0110
0000
0000
1000
0000
1000
0000
0001
0000
0010
0100
1000
,
0000
1000
0000
0000
0011
0000
0000
0100
0000
0100
0000
0000
1001
0000
0010
0000
,
0000
0010
0000
0000
0101
0000
0000
1000
0000
1000
0000
0000
0110
0000
0001
0000
,
0000
0001
0000
0000
1100
0000
0000
0010
0000
0010
0000
0000
0101
0000
1000
0000
,
0000
1000
0000
0000
0110
0000
0000
0001
0000
0001
0000
1000
0000
0010
0100
0001
,
0000
0001
0000
0000
1100
0000
0000
0000
0110
0000
0000
0000
1100
0000
0010
0000
,
0000
0010
0000
0000
0101
0000
0000
0000
0110
0000
0000
0000
0101
0000
0000
0000
,
1100
0011
1010
0101
,
1001
0100
0010
0100
,
1000
0010
1000
0001
0100
0001
0100
0010
,
1000
0100
0010
0100
1000
0001
0010
0001
,
1000
0000
0010
1000
0010
0000
0100
0010
0100
0000
0001
0100
0001
0000
1000
0001
,
0200
0000
0300
0000
0200
0000
0300
0000
0001
0010
0001
0010
0100
0000
0000
0000
,
1000
0010
0100
0010
1000
0001
0100
0000
,
0001
0010
0100
0010
0001
1000
0100
0000
,
1000
0001
0010
0001
1000
0100
0010
0000
,
0001
1000
0010
1000
0001
0100
0010
0000
,
1000
0100
1100
0000
0001
0100
0101
0000
,
1000
0010
1010
0000
0001
0010
0011
0000
,
1000
0001
1001
0000
0010
0100
0110
0000
,
0001
0010
0001
0010
0100
0000
0000
0000
1000
0100
0001
0000
0110
0000
0000
0000
,
1001
0000
0000
0000
;

//---------------dance-single - ----------------
#NOTES:
     dance-single:
     :
     Medium:
     7:
     0.467901,0.501341,0.157215,0.113544,0.000000,344.000000,18.000000,13.000000,0.000000,0.000000,0.000000,0.467901,0.501341,0.157215,0.113544,0.000000,344.000000,18.000000,13.000000,0.000000,0.000000,0.000000:
0000
0000
0000
0000
,
0000
0000
0000
0000
,
0000
0000
0000
0000
,
0000
0000
0000
0000
,
0000
0000
0000
0000
,
1000
0100
1000
0000
0010
0000
1000
0000
,
0001
0100
0001
0000
1000
0000
0100
0000
,
0020
0000
0000
0000
,
0230
0000
0000
0300
,
1000
0000
0000
0010
0000
0000
1000
0000
,
0001
0000
0000
0100
0000
0000
0001
0000
,
1000
0000
0000
0100
0000
0000
1000
0000
,
0001
0000
0000
0010
0000
0000
0001
0000
,
1000
0000
0000
0010
0000
0000
0100
0000
,
0001
0000
0000
0100
0000
0000
0010
0000
,
1000
0000
0000
0100
0000
0000
0010
0000
,
0001
0000
0000
0010
0000
0000
0100
0000
,
1000
0000
0100
0000
,
1000
0000
0001
0000
,
0100
0000
0010
0000
,
0100
0000
0001
0000
,
1000
0000
0000
0000
,
0100
0000
1000
0000
,
0020
0000
0000
0000
,
0030
0000
0000
0000
,
1000
1000
0100
1000
,
0001
0001
0100
0001
,
1000
1000
0001
0001
,
0010
0010
0010
0010
,
0001
0001
0100
0001
,
1000
1000
0100
1000
,
0001
0001
1000
1000
,
0010
0010
0010
0010
,
1000
0100
1000
0010
,
0100
0001
1000
0001
,
1000
0100
0010
0100
,
1000
0010
0100
0010
,
1000
0001
1000
0000
0001
1000
0001
0000
,
1000
0100
1000
0000
0001
0100
0001
1000
,
0020
0000
0000
0000
,
0230
0000
0000
0300
,
2020
3030
0202
0303
,
0001
0010
0001
0000
0100
0001
1000
0100
,
1000
0010
1000
0000
0100
1000
0001
0010
,
0001
0100
0001
0000
0010
0001
1000
0010
,
1000
0100
1000
0000
0001
0100
0010
1000
,
0001
0010
0100
0000
0010
0001
0100
0010
,
1000
0010
0100
0000
0010
1000
0100
0010
,
0001
1000
0010
0000
1000
0100
0010
0100
,
1000
0001
0010
0000
0001
0100
0010
0100
,
0001
1000
1000
0000
0010
1000
0100
0000
,
1000
0001
0001
0000
0010
0001
0100
0000
,
0010
1000
1000
0000
0100
1000
0001
0000
,
0010
0001
0001
0000
0100
0001
1000
0000
,
0001
0100
0100
0000
0010
1000
0001
0000
,
1000
0100
0100
0000
0010
0001
1000
0000
,
0100
0010
0010
0000
0100
1000
0010
0000
,
0100
0010
0010
1000
0001
0100
0010
0000
,
1000
0010
1000
0000
1010
0000
1001
0000
,
0001
0100
0001
0000
0101
0000
1001
0000
,
1000
0100
1000
0000
0001
0010
0001
0000
,
1000
0010
1000
0000
0001
0100
0001
0000
,
1000
0001
1000
0000
1010
0000
0101
0000
,
0001
1000
0001
0000
0011
0000
1100
0000
,
0001
0100
0010
0000
1000
0001
0010
0000
,
0001
0010
0100
0000
1000
0001
0100
0000
,
1000
0010
1000
0000
0101
0000
1100
0000
,
0001
0010
0001
0000
1100
0000
0101
0000
,
1000
0010
1000
0000
0001
0010
0001
0000
,
1000
0100
1000
0000
0001
0100
0001
0000
,
1000
1000
1000
1000
,
0001
0001
0001
0001
,
1000
0010
1000
0010
0100
0001
0100
0001
,
0010
0010
1001
0000
,
1000
0010
1000
0000
1000
0100
1000
0000
,
1000
0010
1000
0000
1000
0001
1000
0000
,
0001
0010
0001
0000
0001
0100
0001
0000
,
0001
0010
0001
0000
0001
1000
0001
0000
,
1000
0010
0100
0000
0001
0000
1000
0000
,
0001
0010
0100
0000
1000
0000
0001
0000
,
0010
0010
0100
0100
,
0022
0033
2200
3300
,
1001
0000
0000
0000
;

//---------------dance-single - ----------------
#NOTES:
     dance-single:
     :
     Beginner:
     2:
     0.158463,0.179050,0.034937,0.017468,0.000000,121.000000,4.000000,2.000000,0.000000,0.000000,0.000000,0.158463,0.179050,0.034937,0.017468,0.000000,121.000000,4.000000,2.000000,0.000000,0.000000,0.000000:
// measure 0
0000
0000
0000
0000
,  // measure 1
0000
0000
0000
0000
,  // measure 2
0000
0000
0000
0000
,  // measure 3
0000
0000
0000
0000
,  // measure 4
0000
0000
0000
0000
,  // measure 5
1000
0000
1000
0000
,  // measure 6
0001
0000
0001
0000
,  // measure 7
0020
0000
0000
0000
,  // measure 8
0030
0000
0000
0000
,  // measure 9
1000
0000
0000
0000
,  // measure 10
0100
0000
0000
0000
,  // measure 11
0001
0000
0000
0000
,  // measure 12
0010
0000
0000
0000
,  // measure 13
0001
0000
0000
0000
,  // measure 14
0100
0000
0000
0000
,  // measure 15
1000
0000
0000
0000
,  // measure 16
0010
0000
0000
0000
,  // measure 17
0001
0000
0000
0000
,  // measure 18
0010
0000
0000
0000
,  // measure 19
1000
0000
0000
0000
,  // measure 20
0001
0000
0000
0000
,  // measure 21
0100
0000
0000
0000
,  // measure 22
0010
0000
0000
0000
,  // measure 23
1001
0000
0000
0000
,  // measure 24
0000
0000
0000
0000
,  // measure 25
1000
0000
1000
0000
,  // measure 26
0001
0000
0001
0000
,  // measure 27
0100
0000
0100
0000
,  // measure 28
0010
0000
0000
0000
,  // measure 29
0001
0000
0001
0000
,  // measure 30
1000
0000
1000
0000
,  // measure 31
0100
0000
0100
0000
,  // measure 32
0010
0000
0000
0000
,  // measure 33
1000
0000
1000
0000
,  // measure 34
0001
0000
0001
0000
,  // measure 35
0010
0000
0010
0000
,  // measure 36
0100
0000
0000
0000
,  // measure 37
0001
0000
0001
0000
,  // measure 38
1000
0000
1000
0000
,  // measure 39
0010
0000
0010
0000
,  // measure 40
0100
0000
0100
0000
,  // measure 41
1001
0000
0100
0000
,  // measure 42
0010
0000
0010
0000
,  // measure 43
0001
0000
0001
0000
,  // measure 44
0010
0000
0010
0000
,  // measure 45
0100
0000
0100
0000
,  // measure 46
0010
0000
0010
0000
,  // measure 47
1000
0000
1000
0000
,  // measure 48
0010
0000
0010
0000
,  // measure 49
0100
0000
0100
0000
,  // measure 50
1000
0000
1000
0000
,  // measure 51
0010
0000
0010
0000
,  // measure 52
1000
0000
1000
0000
,  // measure 53
0100
0000
0100
0000
,  // measure 54
0001
0000
0001
0000
,  // measure 55
0010
0000
0010
0000
,  // measure 56
0001
0000
0001
0000
,  // measure 57
0100
0000
0000
0000
,  // measure 58
0100
0000
0100
0000
,  // measure 59
1000
0000
1000
0000
,  // measure 60
0100
0000
0100
0000
,  // measure 61
0010
0000
0010
0000
,  // measure 62
0100
0000
0100
0000
,  // measure 63
0001
0000
0001
0000
,  // measure 64
0100
0000
0100
0000
,  // measure 65
0010
0000
0010
0000
,  // measure 66
0001
0000
0001
0000
,  // measure 67
0100
0000
0100
0000
,  // measure 68
0001
0000
0001
0000
,  // measure 69
0010
0000
0010
0000
,  // measure 70
1000
0000
1000
0000
,  // measure 71
0001
0000
0001
0000
,  // measure 72
0020
0000
0000
0000
,  // measure 73
0030
0000
0000
0000
,  // measure 74
1000
0000
0000
0000
,  // measure 75
0001
0000
0000
0000
,  // measure 76
1000
0000
0000
0000
,  // measure 77
0001
0000
0000
0000
,  // measure 78
0010
0000
0000
0000
,  // measure 79
0100
0000
0000
0000
,  // measure 80
0010
0000
0000
0000
,  // measure 81
1001
0000
0100
0000
,  // measure 82
1001
0000
0000
0000
;
