#VERSION:0.82;
#TITLE:Iridescent;
#SUBTITLE:;
#ARTIST:LINKIN PARK;
#TITLETRANSLIT:;
#SUBTITLETRANSLIT:;
#ARTISTTRANSLIT:;
#GENRE:;
#ORIGIN:;
#CREDIT:SokDion;
#BANNER:[Falling Apart] - Iridescent.png;
#BACKGROUND:[Falling Apart] - Iridescent-bg.png;
#PREVIEWVID:;
#JACKET:[Falling Apart] - Iridescent-jacket.png;
#CDIMAGE:;
#DISCIMAGE:;
#LYRICSPATH:;
#CDTITLE:;
#MUSIC:[Falling Apart] - Iridescent.ogg;
#OFFSET:0.000000;
#SAMPLESTART:40.449665;
#SAMPLELENGTH:12.000000;
#SELECTABLE:YES;
#BPMS:0.000=120.000;
#STOPS:;
#DELAYS:;
#WARPS:;
#TIMESIGNATURES:0.000=4=4;
#TICKCOUNTS:0.000=4;
#COMBOS:0.000=1;
#SPEEDS:0.000=1.000=0.000=0;
#SCROLLS:0.000=1.000;
#FAKES:;
#LABELS:0.000=Song Start;
#BGCHANGES:;
#KEYSOUNDS:;
#ATTACKS:
;

//---------------dance-single - ----------------
#NOTEDATA:;
#CHARTNAME:;
#STEPSTYPE:dance-single;
#DESCRIPTION:;
#CHARTSTYLE:;
#DIFFICULTY:Beginner;
#METER:1;
#RADARVALUES:0.128707,0.165736,0.056753,0.049659,0.000000,112.000000,8.000000,7.000000,0.000000,0.000000,0.000000,0.000000,0.000000,0.128707,0.165736,0.056753,0.049659,0.000000,112.000000,8.000000,7.000000,0.000000,0.000000,0.000000,0.000000,0.000000;
#CREDIT:;
#NOTES:
0000
0000
0000
0000
,
0000
0000
0000
0000
,
0000
0000
0000
0000
,
0000
0000
0000
0000
,
0000
0000
0000
0000
,
1000
0000
0000
0000
,
0001
0000
0000
0000
,
0100
0000
0000
0000
,
0010
0000
0000
0000
,
1000
0000
0000
0000
,
0100
0000
0000
0000
,
0010
0000
0000
0000
,
0001
0000
0000
0000
,
0001
0000
0010
0000
,
0100
0000
1000
0000
,
1000
0000
0100
0000
,
0010
0000
0001
0000
,
0001
0000
0010
0000
,
0100
0000
1000
0000
,
0001
0000
0000
0000
,
1000
0000
0000
0000
,
0100
0100
0100
0000
,
0010
0010
0010
0000
,
1000
1000
1000
0000
,
0001
0001
0001
0000
,
1000
0000
0100
0100
,
0100
0000
0010
0010
,
0010
0000
0001
0001
,
0001
0000
1000
1000
,
0001
0000
0000
0000
,
0100
0000
0000
0000
,
0001
0000
0000
0000
,
0010
0000
0000
0000
,
1000
0000
0010
0000
,
0010
0000
0010
0000
,
0100
0000
0100
0000
,
0100
0000
1000
0000
,
0002
0000
0000
0000
,
0000
0000
0000
0000
,
0003
0000
0000
0000
,
1000
0000
0100
0100
,
0200
0000
0300
0000
,
0020
0000
0030
0000
,
2000
0000
3000
0000
,
0002
0000
0003
0000
,
0110
0000
0110
0000
,
1001
0000
1001
0000
,
0010
0010
0010
0000
,
2000
0000
0000
3000
,
0001
0000
0100
0000
,
0010
0000
1000
0000
,
0010
0000
0100
0000
,
0001
0000
0010
0000
,
1000
1000
1000
0000
,
0010
0010
0010
0000
,
0100
0100
0100
0000
,
0001
0001
0001
0000
,
1001
0000
0000
0000
,
0110
0000
0000
0000
,
1001
0000
0000
0000
,
0110
0000
0010
0010
,
0010
0000
1000
1000
,
1000
0000
0001
0001
,
0001
0000
1000
1000
,
1000
0000
0100
0000
,
0002
0000
0000
0000
,
0000
0000
0000
0003
;

//---------------dance-single - ----------------
#NOTEDATA:;
#CHARTNAME:;
#STEPSTYPE:dance-single;
#DESCRIPTION:;
#CHARTSTYLE:;
#DIFFICULTY:Hard;
#METER:7;
#RADARVALUES:0.420579,0.446929,0.219917,0.255388,0.074488,348.000000,31.000000,36.000000,0.000000,0.000000,0.000000,0.000000,0.000000,0.420579,0.446929,0.219917,0.255388,0.074488,348.000000,31.000000,36.000000,0.000000,0.000000,0.000000,0.000000,0.000000;
#CREDIT:;
#NOTES:
0000
0000
0000
0000
,
1000
0000
1100
0000
0010
0000
0100
0010
,
0001
0000
0010
0000
0010
1000
0100
1000
,
0001
0000
0011
0000
0100
0000
0010
0100
,
1000
0000
0100
0000
0100
0001
0010
0001
,
1000
0000
0001
0010
0000
0000
1000
0100
,
0000
0100
0000
0002
0000
0103
0000
1000
,
0000
0002
0000
0003
1000
0100
0001
0000
,
0001
0100
1000
0000
0100
0001
0100
0010
,
0100
0000
0100
2000
0000
3000
0010
0001
,
0000
1000
0000
0020
0000
1030
0000
0002
,
0000
0003
1000
0000
1100
0000
0001
0000
,
0011
0000
0001
0000
1000
0010
1000
0001
,
2000
0000
0100
3100
0000
0000
0001
0010
,
0000
0010
0000
0100
1000
0010
1000
0200
,
0000
0000
1300
0200
0000
0300
0100
0010
,
0000
0001
0000
0010
0100
0001
0100
0020
,
0000
0130
0000
0020
0000
0000
0130
0010
,
0000
1000
0000
0010
0000
0001
0000
0002
,
0000
0100
0000
0100
,
0103
0000
0001
0010
0000
0200
0000
1000
,
1300
0000
1100
0000
0100
0010
0001
0010
,
0100
0000
1100
0000
1000
0010
0100
0001
,
0010
0000
0100
0000
0010
0100
1000
0100
,
0010
0000
0011
0000
0100
1000
0001
0010
,
0200
0000
0001
0000
1300
0000
0001
0020
,
0000
0000
0130
0100
0000
0010
0000
2000
,
0000
0100
3100
0110
,
0010
0000
0100
0000
0001
0010
0100
0010
,
1000
0000
1001
0000
1000
0001
0100
0010
,
0100
0000
0110
0000
0100
0010
1000
0001
,
0200
0001
0302
0000
,
0013
0100
1000
0100
,
0002
0000
0100
0100
,
2003
0000
0010
0010
,
3002
0000
0100
0100
,
0203
0000
0000
0000
0000
0000
0300
0000
0200
0000
0000
0000
0000
0000
0000
0300
,
0220
0000
0000
0000
,
0000
0000
0000
0000
0000
0000
0000
0000
0000
0000
0000
0000
0000
0330
0000
0000
,
0001
0010
0001
0010
0100
0010
0100
1000
,
0100
1000
0010
0001
0010
0001
1000
0010
,
0020
0001
0001
0031
,
0200
0000
0000
0000
1000
0000
0000
0300
0020
0000
0000
0000
0100
0000
0100
0000
,
0130
1000
0100
1000
0010
1000
0010
0001
,
0010
0001
0010
0001
0100
0001
1001
0000
,
1001
0000
0000
0000
1001
0000
0000
0010
0001
0000
0100
0000
0001
0000
0100
0000
,
0010
0000
0000
0000
1001
0000
0000
0100
1000
0000
0010
0000
1000
0000
0010
0000
,
0100
0000
0000
0000
0110
0000
0000
0010
0100
0000
0001
0000
0100
0000
0010
0000
,
2000
0000
0010
0010
0000
0020
0000
0030
,
3010
0000
0000
0000
1010
0000
0000
0100
0001
0000
0010
0000
0100
0000
1000
0000
,
0100
0000
0000
0000
0101
0000
0000
1000
0100
0000
0000
0100
0010
0000
0100
0000
,
1000
0000
0000
0000
1010
0000
0000
0001
0010
0000
0001
0000
1000
0000
0100
0000
,
0010
0000
0000
0000
0001
0000
0000
0100
0010
0000
0000
0010
0100
0000
0010
0000
,
0110
0000
0000
0000
1010
0000
0000
0010
1000
0000
0010
0000
0100
0000
0002
0000
,
0100
0000
0000
0000
0103
0000
0000
0100
0001
0000
0000
0100
0010
0000
0100
0000
,
2000
0000
0000
0000
3100
0000
0000
1000
0010
0000
0001
0000
1000
0000
0001
0000
,
1000
0000
0000
0000
0110
0000
0000
0010
0100
0000
1000
0000
0001
0000
1000
0000
,
0001
0000
0000
0000
0101
0000
0000
0010
0001
0000
0010
0000
1000
0000
0010
0000
,
0100
0000
0000
0000
0101
0000
0000
0000
1000
0100
0000
0000
0001
0010
0000
0000
,
0210
0000
0010
0000
0310
0000
0100
0001
,
0100
0000
0010
0100
1000
0000
0001
0000
,
0101
0000
0000
0000
0101
0000
0000
0001
0100
0000
0010
0000
0100
0000
0001
0000
,
1010
0000
0000
0000
1010
0000
0000
1000
0010
0000
0100
0000
0010
0000
1000
0000
,
0110
0000
0000
0000
0110
0000
0000
0010
0100
0000
0001
0000
0100
0000
1000
0000
,
0200
0000
0000
0000
0000
0000
0000
0000
0301
0000
0000
0000
1000
0010
1000
0000
,
0200
0000
0000
0010
,
0010
0000
0001
0000
,
0001
0000
0000
0301
,
0020
0000
0000
0000
0000
0030
1000
0000
,
0200
0000
0000
0000
,
0300
0000
0000
0000
;

//---------------dance-single - ----------------
#NOTEDATA:;
#CHARTNAME:;
#STEPSTYPE:dance-single;
#DESCRIPTION:;
#CHARTSTYLE:;
#DIFFICULTY:Easy;
#METER:4;
#RADARVALUES:0.247280,0.288376,0.085129,0.113506,0.000000,216.000000,12.000000,16.000000,0.000000,0.000000,0.000000,0.000000,0.000000,0.247280,0.288376,0.085129,0.113506,0.000000,216.000000,12.000000,16.000000,0.000000,0.000000,0.000000,0.000000,0.000000;
#CREDIT:;
#NOTES:
// measure 0
0000
0000
0000
0000
,  // measure 1
0000
0000
0000
0000
,  // measure 2
0000
0000
0000
0000
,  // measure 3
1000
0000
0010
0000
,  // measure 4
0001
0000
0100
0000
,  // measure 5
0001
0010
0010
0100
,  // measure 6
1000
0100
0100
0010
,  // measure 7
0001
0100
0200
0300
,  // measure 8
1000
0010
0020
0030
,  // measure 9
0001
0100
0010
1000
,  // measure 10
0100
0010
0100
0001
,  // measure 11
1000
1000
0002
0003
,  // measure 12
0001
0001
2000
3000
,  // measure 13
0100
1000
0100
0010
,  // measure 14
0100
0001
1000
1001
,  // measure 15
0010
0001
0010
0100
,  // measure 16
0010
1000
0001
1001
,  // measure 17
1000
0100
0010
0001
,  // measure 18
1000
0100
1000
0001
,  // measure 19
0100
0001
0100
0010
,  // measure 20
0200
0000
0300
0000
,  // measure 21
0001
0100
0010
1000
,  // measure 22
0010
0000
0100
0000
0010
0000
0010
0100
,  // measure 23
0010
1000
0010
0100
,  // measure 24
0001
0000
0100
0000
0010
0000
0001
1000
,  // measure 25
0001
0100
0100
0010
,  // measure 26
1000
0010
0010
0100
,  // measure 27
0100
0000
0110
0000
,  // measure 28
0001
0000
1001
0000
,  // measure 29
0100
0001
1000
0100
,  // measure 30
0100
0000
0010
0000
0001
0010
0100
0000
,  // measure 31
0010
1000
0001
0100
,  // measure 32
0010
0100
0010
1000
,  // measure 33
0100
0001
1000
0000
,  // measure 34
0010
1000
0001
0000
,  // measure 35
0001
0000
1001
0000
,  // measure 36
2000
0000
3200
0000
,  // measure 37
0320
0000
0000
0000
,  // measure 38
0000
0000
0000
0000
,  // measure 39
0000
0000
0000
0000
,  // measure 40
0000
0000
0100
0130
,  // measure 41
1000
0100
0100
0010
,  // measure 42
0001
0010
0100
0010
,  // measure 43
0100
0100
0010
0010
,  // measure 44
1000
0000
0001
0000
1000
0001
1000
0000
,  // measure 45
0001
1001
1000
0010
,  // measure 46
0100
0010
0100
0001
,  // measure 47
1000
0000
0010
0000
1000
0000
0100
0010
,  // measure 48
0200
0000
0000
0000
0000
0300
0000
0000
,  // measure 49
0001
0001
1000
0010
,  // measure 50
1000
0100
0011
0011
,  // measure 51
1000
1000
0001
0100
,  // measure 52
0001
0010
1100
1100
,  // measure 53
0001
0001
1000
1000
,  // measure 54
0001
0100
0200
0310
,  // measure 55
0100
0000
0100
0000
0010
1000
0010
0000
,  // measure 56
0002
1003
2000
3001
,  // measure 57
0001
1000
0001
0000
1000
0001
1000
0000
,  // measure 58
0001
0001
0100
0100
,  // measure 59
0100
0010
0100
0000
0010
0100
0010
0000
,  // measure 60
0010
0010
1000
1000
,  // measure 61
0010
0100
0110
0000
,  // measure 62
1000
0100
1100
0000
,  // measure 63
0002
0000
0100
0003
,  // measure 64
0200
0000
0000
0300
2000
0000
0000
3000
,  // measure 65
0002
0000
0000
0000
,  // measure 66
0000
0000
0000
0000
,  // measure 67
0000
0000
0000
0003
;

//---------------dance-single - ----------------
#NOTEDATA:;
#CHARTNAME:;
#STEPSTYPE:dance-single;
#DESCRIPTION:;
#CHARTSTYLE:;
#DIFFICULTY:Medium;
#METER:6;
#RADARVALUES:0.291872,0.384501,0.198635,0.241200,0.000000,226.000000,28.000000,34.000000,0.000000,0.000000,0.000000,0.000000,0.000000,0.291872,0.384501,0.198635,0.241200,0.000000,226.000000,28.000000,34.000000,0.000000,0.000000,0.000000,0.000000,0.000000;
#CREDIT:;
#NOTES:
0000
0000
0000
0000
,
1000
0000
1010
0000
1000
0000
0010
0001
,
1000
0000
0101
0000
0001
0000
0100
1000
,
0001
0000
1100
0000
0100
0000
0010
0001
,
0010
0000
0011
0000
0100
0000
1000
0100
,
1000
0000
0010
0200
0000
0300
0100
0010
,
0000
0001
0000
0010
0000
0100
0000
1000
,
0000
0200
0000
0000
0000
0000
0000
0300
,
0100
0000
0110
0000
1000
0000
1000
0100
,
0000
0000
0100
0020
0000
0000
0031
0100
,
0000
0010
0000
1000
0000
0001
0000
0020
,
0000
0000
0000
0000
0000
0000
0000
0030
,
0010
0000
0110
0000
0001
0000
0001
2000
,
0000
0000
0001
3002
0000
0000
0013
0010
,
0000
0100
0020
0000
0000
0000
0000
0230
,
0000
0000
0310
0010
0000
0000
0010
1000
,
0000
0001
0000
0002
0000
0000
0000
0103
,
0000
0010
0000
0200
0000
0000
1000
1000
,
0300
0010
0000
0100
0000
0001
0000
2000
,
0000
0000
0001
0000
,
3001
0000
0001
0010
0000
0010
0000
0000
,
0200
0000
0000
0000
0000
0300
0010
0001
,
0000
0000
0010
0100
0000
0000
1000
0000
,
0001
0000
1001
0000
,
1001
0000
0000
1000
0001
0000
1001
0000
,
1002
0000
0000
0000
0000
0003
0100
0010
,
0000
0000
0100
0010
0000
0010
0000
2000
,
0000
0000
0000
0000
,
3000
0000
0010
0100
0000
0110
0000
0220
,
0000
0000
0000
0000
0000
0330
0001
0010
,
0000
0000
0010
0100
0000
0100
0000
2000
,
0000
0000
3200
0000
,
0000
0000
0001
0301
,
0002
0000
0000
0000
,
0000
0000
0000
0000
,
0100
0000
0103
0000
,
0200
0000
2300
0000
,
3020
0000
0000
0000
,
0000
0000
0000
0000
,
0130
0000
0010
0000
,
0100
0000
0001
0000
1000
0000
1000
0001
,
1000
0100
0100
0100
,
0010
0000
0010
0000
0001
0000
0001
0010
,
0001
0000
0100
0010
0100
0000
0001
0010
,
0001
0000
0010
0100
0010
0100
0010
0000
,
0100
0000
0110
0000
1000
0100
0010
0100
,
0001
0000
1001
0000
0001
0010
0001
0000
,
1010
0000
1010
0000
0001
0010
0001
0100
,
0010
0000
0100
0010
0000
0020
0000
0000
,
0230
0000
0010
0000
0310
0000
0001
0010
,
0000
0000
1000
0100
0000
0000
0010
0002
,
0000
0010
0203
0010
,
0010
0300
0000
0100
0010
0000
1000
0000
,
0020
0000
0100
0000
0100
0000
0130
0010
,
0000
0000
0010
0001
0000
0010
0000
0200
,
0000
0010
0010
0010
,
0310
0000
0010
0100
0000
0010
0000
0200
,
0000
0000
0001
0000
0001
0000
0301
1000
,
0000
0000
0010
1000
0000
1010
0000
2010
,
0000
0000
3020
0000
,
0100
0000
0030
0100
0010
0000
0010
0000
,
0110
0000
0110
0000
0110
0000
0001
0010
,
1100
0000
1100
0000
1100
0000
1000
0100
,
0011
0000
0011
0000
0011
0000
0010
0001
,
0020
0000
0000
0030
2000
0000
0000
3000
,
0201
0000
0000
0000
,
0000
0000
0000
0000
,
0000
0000
0000
0300
;
