#TITLE:Fine Without You;
#SUBTITLE:;
#ARTIST:Armin Van Buuren;
#TITLETRANSLIT:;
#SUBTITLETRANSLIT:;
#ARTISTTRANSLIT:;
#CREDIT:;
#BANNER:;
#BACKGROUND:;
#LYRICSPATH:;
#CDTITLE:;
#MUSIC:Armin Van Buuren Ft Jennifer Rene - Fine Without You (Radio Edit) Lyrics (1).ogg;
#OFFSET:0.240;
#SAMPLESTART:43.980;
#SAMPLELENGTH:12.000;
#SELECTABLE:YES;
#BPMS:0.000=134.060,128.000=67.030,130.000=134.060;
#STOPS:;
#BGCHANGES:;

//---------------dance-single - ----------------
#NOTES:
     dance-single:
     :
     Hard:
     9:
     0.571,0.680,0.250,0.241,0.111:
0000
0000
0000
0000
,
1000
0100
1000
0000
0001
0100
0001
0000
,
1000
0010
0100
0000
0001
0100
0010
0000
,
1000
0100
1000
0001
1000
0010
1000
0000
,
0001
0100
0001
1000
0001
0100
0001
0000
,
2000
3100
0020
0031
,
2000
3010
0200
0301
,
1000
0001
1000
0001
1000
0000
0001
0000
1000
0100
1000
0100
0010
0001
0010
0001
,
1000
0010
1000
0010
0100
0001
0100
0001
1000
0010
0100
0001
0100
0010
1000
0001
,
0010
0100
1100
0000
1000
0001
1001
0000
,
0100
0010
0110
0000
1000
0100
1100
0000
,
0010
0001
0100
0001
1000
0010
0100
0010
,
1000
0100
0010
0100
1000
0001
0100
0010
,
1010
0000
2001
0000
0010
0000
0001
3001
,
0100
0010
1000
0010
,
0100
0100
0001
0010
0100
1000
0001
0100
,
0001
1000
0001
1000
0001
0000
1000
0000
0010
0000
1000
0000
0001
0000
0100
0000
,
0010
1000
1010
0000
1000
0100
0011
0000
,
0001
0100
1010
0000
1000
0001
0110
0000
,
0001
1000
1100
0000
0001
0100
0101
0000
,
0010
1000
1010
0000
0001
1000
1010
0000
,
1000
0001
0100
0010
1000
0100
1100
0000
,
0001
0100
0010
1000
0100
0010
1001
0000
,
0010
0100
0001
1000
0100
0010
0001
0001
,
1000
0010
1000
0010
1000
0000
0001
0000
1000
0100
0010
0100
1000
0001
0010
0001
,
2000
3020
0032
0023
,
1030
0100
0002
0000
0103
1000
0001
0010
,
1000
0100
2000
0000
3002
0000
2003
0000
,
3001
0100
0010
1000
0010
0100
0010
1000
,
0200
0000
0320
0100
0000
1000
0000
0130
,
0010
0000
1000
0000
0001
0100
0010
1000
,
0100
0010
0200
0000
2300
0000
3002
0000
,
0103
0000
0010
0000
1000
0010
1000
0000
1002
0000
0000
0000
2003
0000
0010
0000
,
0000
0001
0000
3100
0010
1000
0010
0000
,
0100
0001
0100
0001
0010
0200
2000
0000
,
3300
0000
1001
0010
1000
0000
0001
0000
,
0100
0000
0010
1000
0020
0000
2030
0001
,
0000
0010
0000
3100
0010
1000
0100
0010
,
0100
0000
0010
0001
1000
0100
0020
0000
,
0031
1000
0001
0000
0100
0010
1000
0100
,
0010
0010
0001
1000
0010
0100
0110
0000
,
1000
0001
0110
0000
1000
0001
0100
0010
,
1000
1000
0001
0000
0100
0010
1000
0000
,
0001
0010
0100
0000
1000
1000
0010
0100
,
0001
0010
0100
1000
0001
0001
0100
0000
,
0010
0010
1000
0000
0001
0001
0010
0000
,
0100
1000
0010
0100
0010
0010
1000
1000
,
0001
0100
1000
0100
0001
0010
1000
0010
,
0001
0100
0010
1000
1001
0000
0001
0000
,
0100
0010
1000
0001
,
0100
0010
1000
0010
0100
0000
0100
0000
,
0101
0101
0010
0010
,
1001
1001
0010
1000
,
0001
0000
0100
0010
0100
0000
0001
0000
,
0001
1000
0010
0010
,
1000
1000
0001
1000
,
0001
0100
1010
0000
;

//---------------dance-single - Copied from----------------
#NOTES:
     dance-single:
     Copied from:
     Challenge:
     10:
     0.640,0.707,0.231,0.375,0.178:
0000
0000
0000
0000
,
1000
0100
M010
0001
0010
0100
100M
0020
,
0130
0001
M100
0010
0100
0001
10M0
0002
,
1003
0100
M010
0001
1000
0100
001M
0200
,
1300
0001
M100
0010
1000
0100
M010
0002
,
1003
0100
0010
0100
1000
0100
0010
0100
,
0020
0031
0010
0100
0020
0031
0010
0100
,
1000
0001
1000
0001
1000
0000
0100
0000
0010
0001
0010
0001
1000
0010
1000
0010
,
1000
0001
1000
0001
1000
0100
1000
0100
0010
0001
0010
0001
1000
0010
1000
0001
,
1000
0000
0100
0000
0010
0000
0100
0000
1000
0000
0001
0000
1000
0000
0001
0100
,
0001
0100
0010
1000
0100
0010
0001
2000
,
3100
0010
0001
0100
0010
1000
0100
0020
,
0031
1000
0010
0100
0001
1000
0100
1000
,
0001
0100
0101
0001
1000
0001
1001
2000
,
3100
0010
0110
0010
0001
0010
0011
0002
,
1003
0010
1010
1000
0001
1000
1001
0001
,
1000
0010
1000
0001
1000
0000
0010
0000
0M00
0000
0M00
0000
0M00
0000
0M00
0000
,
0001
1000
1010
1000
0001
1000
1001
0001
,
0100
0010
1010
1000
0100
0010
0110
0020
,
0031
0100
0101
1000
0010
1000
1010
2000
,
3010
0100
0101
0010
1000
0010
1010
1000
,
0001
0100
1000
0100
0010
1000
0100
0020
,
0130
0010
0001
0100
0010
2000
3100
2000
,
3001
0100
0010
0001
0010
0100
0001
2000
,
3001
0010
0100
0010
0001
0000
1000
0000
0001
0010
0100
1000
0001
0100
0010
1000
,
0002
0000
0100
0200
0000
0010
0000
1303
,
0000
0000
1001
0000
0000
1000
0100
0001
,
0100
0000
0010
0000
0001
1000
0001
1000
0001
0000
0000
0000
1001
0000
0000
0000
,
1010
0000
0000
0000
1000
0001
1000
0001
1000
0000
0010
0000
0100
0000
0001
0000
,
2200
0000
0010
0010
0000
0001
0000
3310
,
0000
0000
0000
0000
1000
0001
1000
0001
1000
0000
0100
0000
0010
0000
0100
0000
,
1000
0000
0001
0000
1000
0100
0010
0100
1000
0000
0001
0000
0100
0000
0010
0000
,
1000
0000
0001
0000
1000
0100
1000
0100
1000
0000
0001
0000
1000
0000
0001
0000
1001
0000
0000
0000
0000
0000
0000
0000
2000
0000
0000
0000
0010
0000
0000
0000
,
0000
0100
0000
3001
0MM0
0000
MMMM
0000
,
MMMM
0000
0000
0010
1000
0010
1000
0000
,
M0M0
0000
0001
1000
0010
0100
0001
0000
,
1000
0100
0010
0001
1000
0100
1000
0100
,
0010
0001
0010
0001
0100
0010
0100
0010
,
1000
0100
0010
0100
1000
0001
0100
0010
,
1000
0100
0010
0001
1001
0000
1010
0000
,
1001
0001
0100
0010
2000
0000
0200
0000
,
0020
3331
0200
0002
,
2000
3313
2000
0002
,
0010
3013
0002
0200
,
0020
1333
M0M0
0000
,
0001
0100
0010
0000
1000
0100
0010
0000
,
0001
0100
0010
0000
0010
1000
0010
0000
,
0100
0001
0100
0000
0010
1000
0010
0100
,
0001
0100
0010
1000
1001
0000
0001
0000
,
0010
0100
1000
0100
0010
0100
0001
0000
,
0100
1000
0010
0100
0001
0000
0010
0000
,
0001
0100
0010
0100
0010
1000
0010
0100
,
0001
1000
0001
1000
0010
0000
0100
0000
,
0001
0000
1000
0010
1000
0000
0001
0000
,
0100
0010
2000
3020
,
0230
0302
2003
3020
,
2030
3001
1001
0000
;

//---------------dance-single - ----------------
#NOTES:
     dance-single:
     :
     Medium:
     7:
     0.432,0.413,0.077,0.193,0.000:
0000
0000
0000
0000
,
1000
0001
0100
0010
,
1000
0100
1000
0000
0001
0100
0001
0000
,
1000
1000
0010
0000
0100
0100
0001
0000
,
0010
0100
0010
0000
0100
0010
0100
0000
,
1000
0001
1000
0001
0100
0000
0001
0000
,
1000
0010
1000
0010
0100
0000
0001
0000
,
1000
0001
1000
0000
0010
0100
0010
1000
,
0001
0010
0100
1000
0010
0100
0001
1000
,
1001
0000
0010
0000
0100
0010
0100
0010
,
0000
2000
0000
0000
3001
0100
0010
1000
,
0001
0000
1000
0000
0010
0100
0010
0200
,
0000
0010
0000
1300
0000
0000
1000
0001
,
1000
0000
0001
0000
0100
0000
0010
0100
,
0010
1000
0001
0100
,
0010
1000
0001
0010
,
0100
1000
0100
0000
0010
0001
0010
0001
,
1000
0000
0010
0000
0100
0001
0100
0002
,
0000
1003
0000
0000
0001
1000
0010
0100
,
0001
1000
0010
0100
,
0001
0010
0001
0010
0000
0001
1000
0001
,
1000
0000
0010
0000
0100
0000
0010
1000
,
0020
0000
1030
0000
0001
0100
0001
0000
,
0020
0000
0130
0000
1000
0001
0100
0000
,
0010
1000
0010
0000
0100
0001
0100
0001
,
2000
0000
0010
3020
0000
0230
0000
0002
,
0000
0303
1001
0000
0000
1000
0010
0100
,
0010
2000
0000
0000
3000
0000
0001
0000
,
0100
0000
0010
0000
1000
0000
0100
0010
,
0001
0000
0200
0010
0000
0010
0000
0310
,
0000
0000
1001
0000
0000
0100
0010
1000
,
0010
0100
0010
0000
1000
0000
0001
0000
,
0020
0001
0000
0031
2000
0000
3001
0100
,
0000
0010
0000
2000
0000
0000
3001
0000
,
1000
0000
0010
0100
0010
1000
0010
0000
,
0100
0000
0001
0010
0001
0000
0001
0000
,
1000
0000
1000
0010
2000
0000
3001
0100
,
0000
0010
0000
1000
0000
0000
1001
0000
,
1000
0010
0100
0001
0010
0100
1000
0000
,
0001
0000
0100
0000
0010
0000
0000
1000
,
0100
0010
0001
0100
0010
1000
0020
0000
,
1000
1030
2000
0001
,
0000
0000
0010
3010
0100
0000
0001
0000
,
1000
0010
0100
0001
,
1000
0010
0001
0010
1000
0001
0100
0000
,
0010
0000
1000
0000
0010
0100
0010
0000
,
2000
0000
0010
3010
0100
0000
0001
0000
,
0010
0000
0100
0000
1000
0010
0001
0000
,
0001
0100
1000
0000
1001
0000
0010
0000
,
1000
0001
1000
0001
,
0100
0010
0100
0010
0100
0000
0001
0000
,
1000
0100
0000
1000
0000
0001
0000
0100
,
0000
0010
1000
0010
0000
0000
1000
0000
,
0001
0000
1000
0010
1000
0000
0001
0000
,
0100
0010
1000
1000
,
0001
0001
1001
1001
,
0010
0010
2002
0000
,
0000
3003
0000
0000
;

//---------------dance-single - ----------------
#NOTES:
     dance-single:
     :
     Easy:
     3:
     0.212,0.245,0.019,0.116,0.000:
0000
0000
0000
0000
,
0000
0000
0000
0000
,
1000
0000
0001
0000
,
0001
0000
0001
0000
,
0001
0000
0100
0000
,
0010
0000
1000
0000
,
0010
0000
0100
0000
,
0001
0000
1000
0000
,
0010
1000
0010
1000
,
0001
0100
0001
0100
,
0001
1000
0010
0100
,
0001
1000
0010
1000
,
0001
0100
0010
1000
,
0100
0010
0100
0000
,
0010
0001
0100
0000
,
0010
1000
0010
0000
,
0100
0100
0001
0001
,
1000
1000
0010
0010
,
0100
0000
0001
1000
,
0001
0000
1000
0010
,
0001
0000
0001
0010
,
1000
0000
1000
0100
,
0001
0001
0100
1000
,
0010
0000
0010
0000
,
0100
0000
0001
0000
,
1000
0000
0000
0010
0000
0100
0000
0001
,
0000
0000
0000
0000
0000
1000
0000
0001
,
0000
1000
0000
0000
0000
0000
0000
0000
,
0000
0000
0000
0000
,
1000
0000
0000
0001
0000
1000
0000
0001
,
0000
0000
0000
0000
0000
0100
0000
0010
,
0000
1000
0000
0000
0000
0000
0000
0000
,
0001
0000
1000
0000
1001
0000
0000
1000
,
0000
0001
0000
0100
0000
0000
0000
0000
,
0010
0000
1000
1000
,
0000
0001
0000
1000
,
0000
0010
0100
0000
,
0001
0000
1000
0000
,
0010
0000
0100
0100
,
0001
0000
1000
1000
,
1000
0000
0002
0003
,
2000
3000
0020
0030
,
0200
0300
0002
0003
,
2000
3000
0020
0030
,
0200
0300
0002
0003
,
2000
3000
0002
0003
,
0200
0300
0010
0010
,
0100
0000
0010
0010
,
0010
0000
1000
0000
,
1000
0000
1000
0000
,
0001
0000
0001
0000
,
0100
0000
0100
0000
,
0100
0000
0010
0000
,
0010
0000
0010
0000
,
1000
0000
0001
0000
,
1000
0000
0001
0000
,
1000
0000
1001
0000
;
