#TITLE:ECHO;
#SUBTITLE:;
#ARTIST:CrusherP;
#TITLETRANSLIT:;
#SUBTITLETRANSLIT:;
#ARTISTTRANSLIT:;
#GENRE:;
#CREDIT:;
#BANNER:[Falling Apart] - ECHO.png;
#BACKGROUND:[Falling Apart] - ECHO-bg.png;
#LYRICSPATH:[Falling Apart] - ECHO.lrc;
#CDTITLE:;
#MUSIC:[Falling Apart] - ECHO.mp3;
#OFFSET:-1.733;
#SAMPLESTART:35.489;
#SAMPLELENGTH:13.714;
#SELECTABLE:YES;
#BPMS:0.000=140.000
;
#STOPS:
;
#BGCHANGES:;
#KEYSOUNDS:;
#ATTACKS:;

//---------------dance-single - ----------------
#NOTES:
     dance-single:
     :
     Hard:
     8:
     0.519,0.441,0.176,0.168,0.028,411.000,22.000,21.000,0.000,0.000,0.000,0.519,0.441,0.176,0.168,0.028,411.000,22.000,21.000,0.000,0.000,0.000:
0000
0000
0000
0000
,
0000
0000
0000
0000
,
0000
0000
0000
0000
,
0000
0000
0000
1000
,
0010
0000
0100
0000
0001
0000
0000
0100
,
0001
0100
0001
0100
0000
0000
0000
0001
,
1000
0100
0010
0000
,
0001
0001
0000
0011
0000
0000
0010
0000
,
0100
0000
1000
0100
1000
0000
0001
1000
,
0001
1000
0000
1001
0000
0000
0000
0001
,
0100
0010
1000
0001
,
1000
1000
0000
1001
0000
0000
0000
0000
,
0001
0010
0100
0010
1000
0010
0001
1000
,
0001
0100
0010
0100
1000
0100
0001
1000
,
0001
0010
1000
0010
0001
0100
1000
0100
,
0001
0010
0220
0330
,
1000
0100
0010
0100
0001
0100
1000
0001
,
1000
0010
0100
0010
0001
0010
1000
0001
,
1000
0100
0001
1000
0010
0001
1000
0000
,
2002
0000
0000
0000
3003
0000
1000
0010
,
0001
0000
0001
0010
1000
0000
1010
0000
,
0010
1000
0001
0010
0100
0000
0110
0000
,
0100
0010
0100
0010
0001
1000
0001
1000
,
0001
0100
1000
0100
0001
0000
0101
0000
,
1010
0000
0010
1000
0001
0000
1001
0000
,
0001
0010
1000
0010
0001
0000
0011
0000
,
0001
0010
0001
1000
0010
1000
0001
1000
,
0001
0000
0010
0000
1000
0000
0100
0000
0001
0000
0000
0010
0000
0000
0100
0000
,
2000
0000
3001
0100
0010
0100
1000
0100
,
0002
0000
1003
0100
0010
0100
0001
0100
,
1000
0010
0100
0001
1000
0000
1001
0000
,
0001
0010
0100
1000
0001
0000
1001
0000
,
1000
0000
1001
0000
0001
0100
1000
0001
,
0010
0000
1000
0000
1010
0000
0000
0000
0010
0000
1000
0000
0001
1000
0001
0000
,
1000
0000
0000
1000
0100
0000
0001
0000
0000
1000
0000
0000
0010
0000
0001
0000
,
1000
0010
0100
0001
1000
0100
0010
0000
,
0001
0100
0001
1000
0100
0000
1100
0000
,
1000
0100
1000
0001
0010
0000
0011
0000
,
0001
0100
0001
1000
0010
0000
1010
0000
,
1000
0010
0100
0001
1000
0010
0100
0001
,
1000
0100
0010
0001
1000
0100
0010
0001
,
1000
0010
0001
0100
1000
0000
0100
1000
,
0001
0000
1000
0001
0100
0010
1000
1000
,
0001
0010
0220
0330
,
0100
1000
0001
1000
0001
0100
0001
1000
,
0001
0000
0010
0000
1000
0000
0010
0000
0001
0000
0000
1000
0000
0000
0001
0000
,
2000
0000
3100
1000
0001
1000
0001
0100
,
0020
0000
0130
0010
0100
0001
1000
0001
,
1000
0100
0001
0100
1000
0010
0001
0010
,
1000
0100
0010
0001
1000
0010
0100
0001
,
2000
0000
3001
0010
0100
1000
0001
0100
,
0020
0000
1030
0010
0100
0001
1000
0001
,
1000
0100
0001
0100
1000
0000
1100
0000
,
0001
0010
1000
0010
0001
0000
0011
0010
,
0002
0000
1003
0010
0100
0001
1000
0100
,
0020
0000
0031
0010
0100
1000
0001
1000
,
0001
0100
1000
0100
0001
0000
0101
0000
,
1000
0000
0000
0010
0000
0000
0001
0000
0010
0000
0000
1000
0000
0000
0001
0000
,
2000
0000
3010
0100
0001
0100
0001
0001
,
2000
0000
3100
1000
0100
0010
0001
0001
,
0020
0000
0031
0010
0001
1000
0010
0010
,
0100
0010
0100
0001
1000
0001
1000
0100
,
0020
0000
0031
0010
0001
1000
0010
0010
,
0200
0000
0301
0100
0001
1000
0100
0100
,
2000
0000
3100
1000
0001
1000
0001
0001
,
0100
0010
1000
0001
0010
0100
1000
0001
,
0100
0010
1000
0000
0010
1000
0001
0000
,
1000
0001
0010
0000
0001
0010
0200
0000
,
0000
0000
0000
0000
,
0300
0000
0000
0000
;

//---------------dance-single - ----------------
#NOTES:
     dance-single:
     :
     Medium:
     6:
     0.358,0.379,0.128,0.112,0.000,283.000,16.000,14.000,0.000,0.000,0.000,0.358,0.379,0.128,0.112,0.000,283.000,16.000,14.000,0.000,0.000,0.000:
0000
0000
0000
0000
,
0000
0000
0000
0000
,
0000
0000
0000
0000
,
0000
0000
0000
0000
,
0001
0100
0010
0000
,
1000
1000
1000
0000
,
0001
0010
1000
0000
,
1000
0010
0001
0000
,
0001
0010
0100
0100
,
1000
0001
1000
0000
,
0001
0100
1000
0100
,
0001
0001
0001
0000
,
1000
0000
1000
0100
0000
0100
0010
0100
,
0010
0000
0010
0001
0000
0001
1000
0001
,
1000
0000
1000
0010
0000
0010
0100
0010
,
0100
0001
1001
0000
,
0001
0000
0001
0010
0000
0010
0100
0010
,
0100
0000
0100
1000
0000
1000
0001
1000
,
0001
0000
0001
0100
0000
0010
0000
0000
,
0110
0000
0000
0010
,
1010
1000
1001
0001
,
1000
0100
0010
0001
2000
0000
3000
0000
,
0001
0010
0100
1000
,
0001
1000
0001
1000
0001
0000
0100
0000
,
0101
0001
1001
1000
,
1100
0110
0011
1001
,
1000
0010
0001
0000
0001
0010
1000
0000
,
0010
1000
0001
0010
0100
0000
1000
0000
,
0001
0100
0010
0010
,
1000
0001
0010
0010
,
0100
0010
0100
0010
0100
0000
0000
0000
,
1000
0001
1000
0001
1000
0000
0000
0000
,
0001
1001
1000
0100
,
0001
0100
1000
0000
0001
0000
0100
1000
,
0100
0000
0001
0000
1000
0010
0001
0000
,
0010
0000
1000
0000
0001
0010
0100
0000
,
1000
0100
0010
0011
,
0001
1000
0010
1010
,
1000
0010
0100
0101
,
0100
0001
0100
0000
0001
1000
0001
0000
,
1000
0100
1000
0000
0001
0010
0001
0000
,
2002
0000
0000
3003
,
0001
0100
0010
0010
,
0100
0010
2000
3000
,
0001
0010
1000
0010
,
0001
0010
0100
1000
0001
0000
0100
0000
,
0010
0000
1000
0000
0010
1000
0010
1000
,
0001
0000
0010
0000
0001
0010
0001
0010
,
0100
0000
1000
0000
0100
1000
0100
1000
,
0001
0000
0100
0000
0001
0100
0001
0100
,
0020
1030
2000
3001
,
0002
0013
0020
0130
,
0100
0010
0100
0010
0100
0000
0000
0000
,
1000
0001
1000
0001
1000
0000
0000
0000
,
0002
0103
0200
0310
,
0020
1030
2000
3001
,
0001
0010
0100
1000
0001
0000
0000
1000
,
0001
0100
0220
0330
,
0010
1000
0010
0010
,
1000
0001
0010
0010
,
0001
0010
0100
0100
,
0010
0100
1000
0001
,
0100
0010
1000
1000
,
0010
1000
0001
0001
,
1000
0100
0010
0010
,
0100
0010
0001
1000
,
0010
0100
0000
0000
0001
0100
0000
0000
,
0001
1000
0000
0000
0100
0010
0000
0000
;

//---------------dance-single - ----------------
#NOTES:
     dance-single:
     :
     Easy:
     4:
     0.211,0.216,0.008,0.000,0.000,184.000,1.000,0.000,0.000,0.000,0.000,0.211,0.216,0.008,0.000,0.000,184.000,1.000,0.000,0.000,0.000,0.000:
0000
0000
0000
0000
,
0000
0000
0000
0000
,
0000
0000
0000
0000
,
0000
0000
0000
0000
,
0001
0000
0001
0000
,
1000
0000
0000
0000
,
0010
0000
0010
0000
,
0100
0000
0000
0000
,
0001
0000
0010
0000
,
0100
0000
0000
0000
,
0010
0000
0100
0000
,
1000
0000
0000
0000
,
0001
0000
0001
0000
,
0100
0000
0100
0000
,
0010
0000
0010
0000
,
1000
1000
1000
0000
,
0100
0000
0100
0000
,
0010
0000
0010
0000
,
0001
0000
0001
0000
,
1000
0000
0000
0000
,
0001
0000
0100
0000
,
0010
0100
0010
0000
,
1000
0000
0001
0000
,
0010
0100
0010
0000
,
0100
0100
1000
1000
,
0001
1000
0001
0000
,
0100
0100
0010
0010
,
1000
0001
1000
0000
,
0001
0010
0100
0010
,
0100
1000
0001
1000
,
0001
0100
0010
0000
,
0100
0010
1000
0000
,
0001
0001
0010
0010
,
0100
0100
1000
0001
,
0100
0100
0010
0010
,
1000
0010
1000
0001
,
0010
0000
0100
0000
,
1000
1000
1000
0000
,
0001
0000
0100
0000
,
0010
0010
1000
1000
,
0001
0001
0010
0010
,
0110
0000
0000
0000
,
0010
0000
0100
0000
,
1000
0100
1000
0000
,
0001
0000
0100
0000
,
0001
0100
0001
0000
,
0100
0000
0010
0000
,
1000
0010
1000
0000
,
0001
0001
1000
1000
,
0001
1000
0001
0000
,
0010
0100
1000
0100
,
1000
0001
0100
0001
,
0100
0010
0100
0000
,
0001
1000
0001
0000
,
1000
0100
0010
0100
,
0010
0001
1000
0001
,
1000
0010
0100
0000
,
0010
0100
0001
0000
,
0100
0001
0100
0001
,
1000
0001
1000
0001
,
1000
0100
1000
0100
,
0010
0100
0010
0001
,
1000
0001
1000
0001
,
1000
0010
1000
0010
,
0100
0010
0100
0010
,
0100
0001
1000
0100
,
0010
0000
0010
0000
,
0001
0000
0001
0000
;

//---------------dance-single - ----------------
#NOTES:
     dance-single:
     :
     Beginner:
     1:
     0.091,0.107,0.000,0.000,0.000,80.000,0.000,0.000,0.000,0.000,0.000,0.091,0.107,0.000,0.000,0.000,80.000,0.000,0.000,0.000,0.000,0.000: // measure 0
0000
0000
0000
0000
,  // measure 1
0000
0000
0000
0000
,  // measure 2
0000
0000
0000
0000
,  // measure 3
0000
0000
0000
0000
,  // measure 4
1000
0000
0000
0000
,  // measure 5
0001
0000
0000
0000
,  // measure 6
1000
0000
0000
0000
,  // measure 7
0001
0000
0000
0000
,  // measure 8
0100
0000
0000
0000
,  // measure 9
0010
0000
0000
0000
,  // measure 10
0100
0000
0000
0000
,  // measure 11
0010
0000
0000
0000
,  // measure 12
1000
0000
0000
0000
,  // measure 13
1000
0000
0000
0000
,  // measure 14
0001
0000
0000
0000
,  // measure 15
1000
0000
0000
0000
,  // measure 16
0001
0000
0000
0000
,  // measure 17
0001
0000
0000
0000
,  // measure 18
0010
0000
0000
0000
,  // measure 19
0100
0000
0000
0000
,  // measure 20
1000
0000
1000
0000
,  // measure 21
1000
0000
0000
0000
,  // measure 22
0001
0000
0001
0000
,  // measure 23
0001
0000
0000
0000
,  // measure 24
0100
0000
0100
0000
,  // measure 25
0100
0000
0000
0000
,  // measure 26
0010
0000
0010
0000
,  // measure 27
0010
0000
0000
0000
,  // measure 28
1000
0000
0000
0000
,  // measure 29
0001
0000
0000
0000
,  // measure 30
0010
0000
0000
0000
,  // measure 31
0100
0000
0000
0000
,  // measure 32
1000
0000
0000
0000
,  // measure 33
0001
0000
0001
0000
,  // measure 34
0001
0000
0000
0000
,  // measure 35
0100
0000
0100
0000
,  // measure 36
0100
0000
0000
0000
,  // measure 37
0010
0000
0000
0000
,  // measure 38
1000
0000
0000
0000
,  // measure 39
0001
0000
0000
0000
,  // measure 40
1000
0000
0000
0000
,  // measure 41
0001
0000
0000
0000
,  // measure 42
0010
0000
0010
0000
,  // measure 43
0010
0000
0000
0000
,  // measure 44
0100
0000
0100
0000
,  // measure 45
0100
0000
0000
0000
,  // measure 46
1000
0000
0000
0000
,  // measure 47
0001
0000
0000
0000
,  // measure 48
0100
0000
0000
0000
,  // measure 49
0010
0000
0000
0000
,  // measure 50
1000
0000
0000
0000
,  // measure 51
0010
0000
0000
0000
,  // measure 52
1000
0000
0000
0000
,  // measure 53
0001
0000
0000
0000
,  // measure 54
0010
0000
0000
0000
,  // measure 55
0001
0000
0000
0000
,  // measure 56
0010
0000
0000
0000
,  // measure 57
0100
0000
0000
0000
,  // measure 58
1000
0000
1000
0000
,  // measure 59
0001
0000
0001
0000
,  // measure 60
0100
0000
0100
0000
,  // measure 61
0010
0000
0010
0000
,  // measure 62
1000
0000
1000
0000
,  // measure 63
0001
0000
0001
0000
,  // measure 64
0010
0000
0010
0000
,  // measure 65
0100
0000
0100
0000
,  // measure 66
1000
0000
0000
0000
,  // measure 67
0001
0000
0000
0000
;
