#TITLE:Closer;
#SUBTITLE:Nightcore Version;
#ARTIST:Gammer & Klubfiller feat. Mandy Edge;
#TITLETRANSLIT:;
#SUBTITLETRANSLIT:;
#ARTISTTRANSLIT:;
#GENRE:;
#CREDIT:;
#BANNER:;
#BACKGROUND:;
#LYRICSPATH:;
#CDTITLE:;
#MUSIC:[Falling Apart] - Closer (Nightcore Version).ogg;
#OFFSET:0.001000;
#SAMPLESTART:100.019913;
#SAMPLELENGTH:12.000000;
#SELECTABLE:YES;
#BPMS:0.000000=102.384003
,63.000000=204.768005
,95.000000=409.536011
,95.500000=204.768005
,96.000000=409.536011
,96.500000=204.768005
,97.000000=409.536011
,97.500000=204.768005
,98.000000=409.536011
,98.500000=204.768005
,99.000000=409.536011
,99.500000=204.768005
,100.000000=409.536011
,100.500000=204.768005
,101.000000=409.768005
,101.500000=204.768005
,102.000000=409.536011
,102.500000=204.768005
,103.000000=409.536011
,103.500000=204.768005
,104.000000=409.536011
,104.500000=204.768005
,105.000000=409.536011
,105.500000=204.768005
,106.000000=409.536011
,106.500000=204.768005
,107.000000=409.536011
,107.500000=204.768005
,108.000000=409.536011
,108.500000=204.768005
,109.000000=409.536011
,109.500000=204.785995
,110.000000=409.536011
,110.500000=204.768005
,111.000000=409.536011
,111.500000=204.785995
,112.000000=409.768005
,112.500000=204.768005
,113.000000=409.536011
,113.500000=204.768005
,114.000000=409.536011
,114.500000=204.768005
,115.000000=409.536011
,115.500000=204.768005
,116.000000=409.536011
,116.500000=204.768005
,117.000000=409.536011
,117.500000=204.768005
,118.000000=409.536011
,118.500000=204.768005
,119.000000=409.536011
,119.500000=204.768005
,120.000000=409.536011
,120.500000=204.768005
,121.000000=409.536011
,121.500000=204.768005
,122.000000=409.536011
,122.500000=204.768005
,123.000000=409.536011
,123.500000=204.768005
,124.000000=409.536011
,124.500000=204.768005
,125.000000=409.536011
,125.500000=204.768005
,126.000000=409.536011
,126.500000=204.768005
,127.000000=409.536011
,127.500000=204.768005
,128.000000=409.536011
,128.500000=204.768005
,129.000000=409.536011
,129.500000=204.768005
,130.000000=409.536011
,130.500000=204.768005
,131.000000=409.536011
,131.500000=204.768005
,132.000000=409.536011
,132.500000=204.768005
,132.750000=409.536011
,133.000000=204.768005
,133.250000=409.536011
,133.500000=204.768005
,133.750000=409.536011
,134.000000=204.768005
,134.250000=409.536011
,134.500000=204.768005
,134.750000=409.536011
,135.000000=204.768005
,135.250000=409.536011
,135.500000=204.768005
,135.750000=409.536011
,136.000000=102.384003
,136.500000=204.768005
,264.750000=102.384003
,293.750000=204.768005
,326.000000=409.536011
,326.250000=204.768005
,326.500000=409.536011
,326.750000=204.768005
,327.000000=409.536011
,327.250000=204.768005
,327.500000=409.536011
,327.750000=204.768005
,328.000000=409.536011
,328.250000=204.768005
,328.500000=409.536011
,328.750000=204.768005
,329.000000=409.536011
,329.250000=204.768005
,329.500000=409.536011
,329.750000=204.768005
,330.000000=409.536011
,330.250000=204.768005
,330.500000=409.536011
,330.750000=204.768005
,331.000000=409.536011
,331.250000=204.768005
,331.500000=409.536011
,331.750000=204.768005
,332.000000=409.536011
,332.250000=204.768005
,332.500000=409.536011
,332.750000=204.768005
,333.000000=409.536011
,333.250000=204.768005
,333.500000=409.536011
,333.750000=204.768005
,334.000000=409.536011
,334.250000=204.768005
,334.500000=409.536011
,334.750000=204.768005
,335.000000=409.536011
,335.250000=204.768005
,335.500000=409.536011
,335.750000=204.768005
,336.000000=409.536011
,336.250000=204.768005
,336.500000=409.536011
,336.750000=204.768005
,337.000000=409.536011
,337.250000=204.768005
,337.500000=409.536011
,337.750000=204.768005
,338.000000=409.536011
,338.250000=204.768005
,338.500000=409.536011
,338.750000=204.768005
,339.000000=409.536011
,339.250000=204.768005
,339.500000=409.536011
,339.750000=204.768005
,340.000000=409.536011
,340.250000=204.768005
,340.500000=409.536011
,340.750000=204.768005
,341.000000=409.536011
,341.250000=204.768005
,341.500000=409.536011
,341.750000=204.768005
,342.000000=409.536011
,342.250000=204.768005
,342.500000=409.536011
,342.750000=204.768005
,343.000000=409.536011
,343.250000=204.768005
,343.500000=409.536011
,343.750000=204.768005
,344.000000=409.536011
,344.250000=204.768005
,344.500000=409.536011
,344.750000=204.768005
,345.000000=409.536011
,345.250000=204.768005
,345.500000=409.536011
,345.750000=204.768005
,346.000000=409.536011
,346.250000=204.768005
,346.500000=409.536011
,346.750000=204.768005
,347.000000=409.536011
,347.250000=204.768005
,347.500000=409.536011
,347.750000=204.768005
,348.000000=409.536011
,348.250000=204.768005
,348.500000=409.536011
,348.750000=204.768005
,349.000000=409.536011
,349.250000=204.768005
,349.500000=409.536011
,349.750000=204.768005
,350.000000=409.536011
,350.250000=204.768005
,350.500000=409.536011
,350.750000=204.768005
,351.000000=409.536011
,351.250000=204.768005
,351.500000=409.536011
,351.750000=204.768005
,352.000000=409.536011
,352.250000=204.768005
,352.500000=409.536011
,352.750000=204.768005
,353.000000=409.536011
,353.250000=204.768005
,353.500000=409.536011
,353.750000=204.768005
,354.000000=409.536011
,354.250000=204.768005
,354.500000=409.536011
,354.750000=204.768005
,355.000000=409.536011
,355.250000=204.768005
,355.500000=409.536011
,355.750000=204.768005
,356.000000=409.536011
,356.250000=204.768005
,356.500000=409.536011
,356.750000=204.768005
,357.000000=409.536011
,357.250000=204.768005
,357.500000=409.536011
,357.750000=204.768005
,358.000000=409.536011
,358.250000=204.768005
,358.500000=409.536011
,358.750000=204.768005
,359.000000=409.536011
,359.250000=204.768005
,359.500000=409.536011
,359.750000=204.768005
,360.000000=409.536011
,360.250000=204.768005
,360.500000=409.536011
,360.750000=204.768005
,361.000000=409.536011
,361.250000=204.768005
,361.500000=409.536011
,361.750000=204.768005
,362.000000=409.536011
,362.250000=204.768005
,362.500000=409.536011
,362.750000=204.768005
,363.000000=409.536011
,363.250000=204.768005
,363.500000=409.536011
,363.750000=204.768005
,364.000000=409.536011
,364.250000=204.768005
,364.500000=409.536011
,364.750000=204.768005
,365.000000=409.536011
,365.250000=204.768005
,365.500000=409.536011
,365.750000=204.768005
,366.000000=409.536011
,366.250000=204.768005
,366.500000=409.536011
,366.750000=204.768005
;
#STOPS:
;
#BGCHANGES:;
#KEYSOUNDS:;
#ATTACKS:;

//---------------dance-single - ----------------
#NOTES:
     dance-single:
     :
     Easy:
     6:
     0.274698,0.475804,0.026893,0.087404,0.050425,269.000000,4.000000,13.000000,0.000000,0.000000,1.000000,0.274698,0.475804,0.026893,0.087404,0.050425,269.000000,4.000000,13.000000,0.000000,0.000000,1.000000:
0000
0000
0000
0000
,
0000
0000
0000
0000
,
0000
0000
0000
0000
,
0000
0000
0000
0000
,
0000
0000
0000
0000
,
0000
0000
0000
0000
,
0000
0000
0000
0000
,
0000
0000
0000
0000
,
0000
0000
0000
0000
,
0000
0000
0000
0000
,
0000
0000
0000
0000
,
0000
0000
0000
0000
,
0000
0000
0000
0000
,
0000
0000
0000
0000
,
0000
0000
0000
0000
,
0000
0000
0000
1000
,
0100
0000
0001
0001
0000
0000
0010
0000
,
1000
0000
0010
0010
0000
0000
0100
0000
,
0010
0000
0100
0100
0000
0000
0001
0000
,
1000
0000
0001
0001
0000
1000
0010
0000
,
0010
0000
0001
0001
0000
0000
1000
0000
,
0001
0000
1000
1000
0000
0000
0010
0000
,
0100
0000
0010
0010
0000
0000
0002
0000
,
0023
0230
2300
0002
,
0000
0000
0000
0000
,
0000
0000
0000
0000
,
0000
0000
0000
0000
,
0000
0000
0000
0000
,
0000
0000
0000
0000
,
0000
0000
0000
0000
,
0000
0000
0000
0000
,
0000
0000
0000
0000
,
0000
0000
0000
0000
,
0000
0000
0000
0000
,
0000
3003
1000
0000
1000
0000
0001
0000
,
0001
1000
0100
0001
,
0100
1000
0010
0001
,
0010
1000
0100
0100
,
0100
0100
1000
0100
,
0001
0100
0010
0001
,
0010
0100
1000
0001
,
1000
0001
1000
0100
,
0010
0001
1000
0001
,
1000
0001
1000
0100
,
0010
0001
0010
0100
,
1000
0010
0001
0010
,
1000
0100
0001
0100
,
1000
0100
0010
0001
,
0010
0001
0010
0100
,
2002
0000
0000
0000
,
3003
1000
0100
0010
,
0001
0100
0001
0100
,
1000
0100
0001
0010
,
0100
1000
0010
1000
,
0100
0001
0100
1000
,
0010
0001
0100
0001
,
1000
0010
0100
0001
,
0010
0000
0100
0000
0000
0000
0000
0020
,
0130
0020
0030
0000
1000
0000
1000
0000
,
1000
0001
0001
0001
,
0010
0010
0010
0100
,
0100
0100
0010
1000
,
0010
0001
0010
1000
,
0010
0001
0100
1000
,
0100
0001
0100
0010
,
1000
0010
0001
0100
,
0001
0000
0000
1000
0000
0000
0000
0100
0000
0000
0000
0000
0000
0000
0000
0000
,
0000
0000
0000
0000
0000
0000
0000
0010
0000
0000
0000
0000
0000
0000
0000
1000
,
0000
0000
0000
0100
0000
0000
0000
0100
0000
0000
0000
0000
0000
0000
0000
0000
,
0000
0000
0000
0000
0000
0000
0000
1000
0000
0000
0000
0000
0000
0000
0000
0001
,
0000
0000
0000
0010
0000
0000
0000
1000
0000
0000
0000
0000
0000
0000
0000
0000
,
0000
0000
0000
0000
0000
0000
0000
0010
0000
0000
0000
0000
0000
0000
0000
1000
,
0000
0000
0000
0100
0000
0000
0000
0010
0000
0000
0000
0000
0000
0000
2002
0000
,
0000
0000
0000
0000
0000
0000
3003
1001
0000
0000
0000
0000
1000
0000
0000
0000
,
0100
0100
0000
0000
0010
0000
0001
0000
,
0100
0100
0000
0000
1000
0000
0010
0000
,
0100
0100
0000
0000
0001
0000
1000
0000
,
0010
0010
0000
0000
1000
0000
0100
0000
,
0001
0001
0000
0000
1000
0000
0001
0000
,
1000
1000
0000
0000
0010
0000
0001
0000
,
0100
0100
0010
0000
1000
0000
0010
0000
,
0100
0100
0000
0000
0220
0000
0000
0000
,
0000
0000
0000
0000
,
0000
0000
0000
0000
,
0000
0000
0000
0000
,
0000
0000
0000
0000
,
0000
0000
0000
0000
,
0000
0000
0000
0000
,
0000
0000
0000
0000
,
0000
0000
0000
0000
,
0000
0000
0000
0000
,
0000
0000
0000
0330
,
0000
1000
0001
0000
,
1000
0010
0001
0100
,
1000
0010
0100
0001
,
1000
0001
1000
0010
,
0001
0100
0010
0100
,
1000
0010
0100
0001
,
0100
0010
1000
0001
,
0100
0010
1000
0100
,
0010
0001
1000
0100
,
0001
0100
1000
0010
,
0001
0010
0100
1000
,
0010
0001
0010
0001
,
1000
0100
0010
0001
,
0100
0001
0010
0100
,
0010
0001
0010
1000
,
0100
0010
0001
0100
,
0040
0000
0000
0000
0000
0000
0000
0030
;

//---------------dance-single - ----------------
#NOTES:
     dance-single:
     :
     Medium:
     10:
     0.478320,0.805207,0.154637,0.275658,0.309275,434.000000,23.000000,41.000000,0.000000,0.000000,0.000000,0.478320,0.805207,0.154637,0.275658,0.309275,434.000000,23.000000,41.000000,0.000000,0.000000,0.000000:
0000
0000
0000
0000
,
0000
0000
0000
0000
,
0000
0000
0000
0000
,
0000
0000
0000
0000
,
0000
0000
0000
0000
,
0000
0000
0000
0000
,
0000
0000
0000
0000
,
0000
0000
0000
0000
,
0000
0000
0000
0000
,
0000
0000
0000
0000
,
0000
0000
0000
0000
,
0000
0000
0000
0000
,
0000
0000
0000
0000
,
0000
0000
0000
0000
,
0000
0000
0000
0000
,
0000
0000
0000
1000
,
0100
0000
0010
0001
0000
0000
0001
0000
,
0010
0100
1000
0000
0010
0000
0100
0000
,
0001
0100
0010
0000
1000
0010
0100
0001
,
0010
0100
0000
0000
1000
0000
1100
0000
,
0001
0100
1010
0001
,
0110
1000
0011
0100
,
1010
0100
0011
0100
,
1010
0100
0011
2000
,
0000
3200
0000
0320
,
0000
0032
0000
0203
,
0000
0320
0000
2030
,
0000
3002
0000
0203
,
0000
0320
0000
2030
,
0000
3020
0000
0230
,
0000
0302
0000
2003
,
0000
3200
0000
0320
,
0000
0032
0000
2003
,
3002
0023
0230
2300
3200
0320
0032
0203
,
0320
0030
1000
0001
0010
0000
0100
0000
,
0001
0000
1000
0000
0100
0000
0000
0100
,
0010
0100
0001
0000
0100
0010
0000
0100
,
0000
0010
0000
0000
0000
0000
0001
0100
,
1000
0100
0010
0000
1100
0000
0001
0000
,
0110
1000
0011
0100
,
1000
0100
0010
0000
0001
0000
0100
0010
,
0000
1000
0010
0000
1000
0100
0010
0001
,
0100
0010
0000
0100
1000
0000
0110
0000
,
0001
1010
0100
0011
,
1000
0010
0100
0001
0000
0100
0000
0010
,
0000
0100
0010
0000
0100
1000
0100
0010
,
0001
0100
0000
0010
1000
0000
0110
0000
,
0001
0000
1000
0100
0010
0001
0100
1000
,
0100
0010
0000
0100
0010
0001
0000
0100
,
1000
0000
0100
0001
0100
1000
0100
0000
0010
0100
0001
1000
0001
0100
2000
0000
,
3000
0000
0000
0000
1000
0000
0000
0010
0000
0000
0100
0000
0000
0001
0000
0000
,
0000
1000
0000
0001
0000
0000
0100
0000
0000
0010
0000
1000
0000
0100
0000
0000
,
0000
0000
0000
1000
0000
0000
0000
0100
0000
0000
0001
0000
0000
0100
0000
0000
,
0000
0010
0000
1000
0000
0010
0000
0100
0000
0000
0001
0000
0000
0100
0000
0000
,
1000
0000
0000
0100
0000
0000
0000
0010
0000
0000
0000
0001
0000
0000
0100
0000
,
0000
0010
0000
0100
0000
0000
0000
0001
0000
0000
1000
0000
0000
0100
0000
0000
,
0000
0001
0000
0100
0000
0000
0000
0010
0000
0000
0100
0000
0000
0010
0000
0000
,
0000
1000
0000
0001
0000
0000
0000
0100
0000
0000
0000
0010
0000
0000
0200
0000
,
0310
0000
0200
0000
0300
0000
0000
0010
0000
0000
0100
0000
0000
0001
0000
0000
,
0000
1000
0000
0001
0000
0000
0100
0000
0000
0010
0000
1000
0000
0100
0000
0000
,
0000
0000
0000
1000
0000
0000
0000
0100
0000
0000
0001
0000
0000
0100
0000
0000
,
0000
0010
0000
1000
0000
0010
0000
0100
0000
0000
0001
0000
0000
0100
0000
0000
,
1000
0000
0000
0100
0000
0000
0000
0010
0000
0000
0000
0001
0000
0000
0100
0000
,
0000
0010
0000
0100
0000
0000
0000
0001
0000
0000
1000
0000
0000
0100
0000
0000
,
0000
0001
0000
0100
0000
0000
0000
0010
0000
0000
0100
0000
0000
0010
0000
0000
,
1000
0000
0000
0001
0000
0000
0000
0100
0000
0000
0000
0010
0000
1000
0000
0000
,
0000
0000
0000
1000
1000
0100
0020
0031
0100
0010
0100
1000
0100
0000
0020
0000
,
0030
0000
0001
0010
0100
1000
0010
0100
0020
0000
0000
0000
0000
0000
0030
0100
,
0000
0000
0000
0010
0000
0100
0010
0001
0000
0010
0100
1000
0010
0000
0100
0000
,
0000
0000
1000
0100
0010
0001
0010
0000
0020
0000
0000
0000
0000
0000
0030
0100
,
0000
0000
0000
0010
0000
0000
1000
0100
1000
0100
0010
0001
0010
0000
0100
0000
,
0000
0000
1000
0010
0100
0001
0100
0000
0002
0000
0000
0000
0000
0000
0003
0010
,
0000
0000
0000
0000
0000
0100
0010
0100
0001
0100
1000
0000
0100
0000
2002
0000
,
0000
0000
0000
0000
3003
0000
0001
0010
,
0100
1000
0100
1000
0100
0010
0100
0010
,
0001
0010
0001
0010
0100
1000
0100
0010
,
0100
0010
0001
0010
0001
0010
0100
1000
,
0010
1000
0010
1000
0010
1000
0001
0100
,
0001
0100
0001
1000
0001
1000
0010
1000
,
0010
1000
0001
0100
0001
1000
0001
1000
,
0010
1000
0010
1000
0001
0100
1000
0100
,
1000
0100
0000
0000
0002
0000
0000
0000
,
0000
0000
0000
0000
,
0000
0000
0000
0000
,
0000
0000
0000
0000
,
0000
0000
0000
0000
,
0000
0000
0000
0000
,
0000
0000
0000
0000
,
0000
0000
0000
0000
,
0000
0000
0000
0000
,
0000
0000
0000
0000
,
0000
0000
0000
0003
,
0000
0000
0000
0000
0000
0000
0000
0010
,
0100
0001
0000
1000
0000
0100
0000
0010
,
0000
1000
0000
0000
1000
0001
1000
0100
,
0000
1000
0001
0000
1000
0000
0001
0000
,
0000
0000
0000
0100
1000
0010
1000
0001
,
0000
1010
0000
0100
0000
1001
0000
0010
,
0000
0101
0000
1000
0000
0010
1000
0001
,
0000
0100
0000
1000
0001
0000
0010
0001
,
0000
0010
1000
0001
0100
1000
0001
0000
,
1000
0010
0000
1001
0000
0100
0000
0011
,
0000
1000
0000
0101
0000
0000
0010
0001
,
1000
0100
1000
0000
0001
0000
1000
0001
,
0000
0000
1000
0010
1000
0001
0100
1000
,
0000
0001
0010
1001
0000
0100
0000
0010
,
1000
0001
0100
1000
0010
1000
0001
0000
,
1000
0000
0100
0010
0001
0000
0002
0000
,
2003
0000
0000
0000
0000
0000
0000
3000
;

//---------------dance-single - ----------------
#NOTES:
     dance-single:
     :
     Hard:
     13:
     0.777990,1.000000,0.000000,0.020170,0.487444,807.000000,0.000000,3.000000,0.000000,0.000000,0.000000,0.777990,1.000000,0.000000,0.020170,0.487444,807.000000,0.000000,3.000000,0.000000,0.000000,0.000000:
// measure 0
0000
0000
0000
0000
,  // measure 1
0000
0000
0000
0000
,  // measure 2
0000
0000
0000
0000
,  // measure 3
0000
0000
0000
0000
,  // measure 4
0000
0000
0000
0000
,  // measure 5
0000
0000
0000
0000
,  // measure 6
0000
0000
0000
0000
,  // measure 7
0000
0000
0000
0000
,  // measure 8
0000
0000
0000
0000
,  // measure 9
0000
0000
0000
0000
,  // measure 10
0000
0000
0000
0000
,  // measure 11
0000
0000
0000
0000
,  // measure 12
0000
0000
0000
0000
,  // measure 13
0000
0000
0000
0000
,  // measure 14
0000
0000
0000
0000
,  // measure 15
0000
0000
0000
0000
0000
0000
1000
0100
,  // measure 16
0010
0001
0010
0001
0010
0100
1000
0100
,  // measure 17
1000
0100
0010
0001
0010
0100
0010
0100
,  // measure 18
0010
0100
0010
0001
0010
0001
0010
0100
,  // measure 19
1000
0100
1000
0100
0010
0100
0010
0100
,  // measure 20
0010
0001
0100
0001
0100
0001
0010
0100
,  // measure 21
1000
0100
0010
0001
0100
0010
0100
1000
,  // measure 22
0010
0100
0010
1000
0100
0001
0010
0100
,  // measure 23
1000
0010
0100
0010
0001
0100
1000
0000
,  // measure 24
1000
1000
0100
0100
,  // measure 25
0100
0010
0010
0010
,  // measure 26
0001
0001
0001
1000
,  // measure 27
1000
0010
0010
0100
,  // measure 28
0100
0001
0001
1000
,  // measure 29
0001
1000
0001
1000
,  // measure 30
0010
0100
0010
1000
,  // measure 31
0100
0010
0001
0100
,  // measure 32
0010
1000
0100
0010
,  // measure 33
1000
0100
1000
0100
1000
0100
1000
0100
,  // measure 34
2000
3000
1000
0100
0010
0001
0100
0001
,  // measure 35
0100
1000
0100
1000
0100
0010
0001
0010
,  // measure 36
0001
0010
0100
1000
0100
0010
0100
0010
,  // measure 37
0100
0010
0001
0010
0100
0010
1000
0001
,  // measure 38
0100
1000
0100
1000
0010
1000
0010
1000
,  // measure 39
0001
0100
0001
0100
0001
1000
0010
1000
,  // measure 40
0001
1000
0001
1000
0001
0100
0001
0010
,  // measure 41
0001
0100
1000
0010
1000
0010
0001
0010
,  // measure 42
0001
0010
0100
1000
0100
1000
0100
0010
,  // measure 43
0001
0010
0100
0010
0100
0010
0100
1000
,  // measure 44
0100
0010
0001
1000
0010
0001
0010
0001
,  // measure 45
0100
0001
0100
0001
1000
0010
1000
0010
,  // measure 46
1000
0001
0100
0001
1000
0001
1000
0001
,  // measure 47
1000
0010
1000
0100
0010
0001
0100
0001
,  // measure 48
0100
1000
0100
1000
0100
0010
0001
0010
,  // measure 49
1000
0100
0010
0001
0010
0001
0010
0001
0010
0100
1000
0100
2000
0000
3000
0000
,  // measure 50
0000
0000
0100
0001
1000
0001
0010
0100
,  // measure 51
1000
0010
1000
0010
0001
0010
0001
0010
,  // measure 52
0100
1000
0100
1000
0100
0010
0001
0010
,  // measure 53
0100
0010
0100
0010
0100
1000
0100
0001
,  // measure 54
0100
1000
0010
0001
0010
0001
0100
0001
,  // measure 55
0100
0001
1000
0010
1000
0010
1000
0001
,  // measure 56
0100
0001
1000
0001
1000
0001
1000
0010
,  // measure 57
1000
0001
0100
0010
0001
0100
0001
0100
,  // measure 58
1000
0100
1000
0100
0010
0001
0010
0001
,  // measure 59
0010
0100
1000
0100
0010
0100
0010
0100
,  // measure 60
0010
1000
0100
0010
0100
0001
1000
0010
,  // measure 61
0001
0010
0001
0100
0001
0100
0001
1000
,  // measure 62
0010
1000
0010
1000
0001
0100
0001
1000
,  // measure 63
0001
1000
0001
1000
0010
1000
0100
1000
,  // measure 64
0010
0001
0100
0001
0100
1000
0100
1000
,  // measure 65
0100
0010
0001
0010
0001
0010
0100
1000
,  // measure 66
0100
0000
0000
1000
0100
0010
0001
0100
0010
1000
0100
0010
0001
0100
1000
0000
,  // measure 67
0000
0000
1000
0100
0010
0001
0100
0010
1000
0100
1000
0010
0100
0010
0000
0001
,  // measure 68
0000
0000
0000
1000
0100
0010
0100
0001
0010
0100
1000
0000
0010
0000
0100
0000
,  // measure 69
0000
0000
1000
0100
0010
0001
0100
0010
0100
1000
0010
0100
0010
0001
0000
0100
,  // measure 70
0000
0000
0000
0010
0000
1000
0100
1000
0100
0010
0100
0010
0001
0100
0001
0000
,  // measure 71
0000
0000
1000
0100
0010
0001
0100
0001
0100
1000
0100
1000
0000
0000
0000
0100
,  // measure 72
0000
0000
0000
0000
0000
0000
0010
0000
1000
0000
0100
0000
0010
0000
0002
0000
0103
0000
0010
0000
1000
0000
0010
0000
0100
0000
0000
0000
0001
1000
0001
1000
,  // measure 73
0001
1000
0001
1000
0001
1000
0001
1000
0001
1000
0001
1000
0001
1000
0100
0000
0010
0000
0001
0000
0010
0000
0100
0000
1000
0000
0010
0000
1000
0000
0010
0000
,  // measure 74
1000
0100
0010
0001
0010
0001
0010
0001
0010
0100
1000
0100
1000
0100
0010
0001
,  // measure 75
0100
0001
0100
0001
0100
1000
0100
1000
0100
1000
0100
0010
0100
0010
0100
0010
,  // measure 76
0001
0010
0001
0010
0001
0010
0001
0010
0100
1000
0100
1000
0100
0001
1000
0100
,  // measure 77
0001
1000
0010
0001
0010
0001
0010
1000
0010
0100
0010
0100
0010
0100
0001
1000
,  // measure 78
0001
1000
0001
1000
0001
0100
1000
0100
1000
0100
1000
0010
1000
0010
1000
0010
,  // measure 79
1000
0001
1000
0001
1000
0001
0100
0001
0100
0001
0100
0001
0010
0100
1000
0010
,  // measure 80
1000
0010
0100
0010
0001
0010
0100
1000
0010
1000
0010
1000
0100
0010
0001
0010
,  // measure 81
0001
0010
0001
0010
0100
1000
0100
0000
1000
0000
0000
0000
1000
0000
0000
0000
,  // measure 82
1000
0100
0100
0100
,  // measure 83
0010
0010
0010
0001
,  // measure 84
0001
0001
1000
0001
,  // measure 85
1000
0001
1000
0001
,  // measure 86
1000
0001
1000
0001
,  // measure 87
1000
0001
1000
0001
,  // measure 88
1000
0000
0001
1000
0001
1000
0001
1000
,  // measure 89
0001
1000
0001
1000
0001
1000
0001
1000
,  // measure 90
0001
1000
0001
1000
0001
1000
0001
1000
,  // measure 91
0001
0000
1000
0001
1000
0001
1000
0001
1000
0001
1000
0001
0010
0100
1000
0100
,  // measure 92
1000
0100
1000
0100
0010
0001
0100
0001
0100
0000
0010
0000
0000
0000
0010
0000
,  // measure 93
1000
0001
0100
1000
0100
1000
0010
1000
,  // measure 94
0010
1000
0001
0100
0001
0100
0001
1000
,  // measure 95
0010
1000
0001
1000
0001
1000
0001
0100
,  // measure 96
0001
1000
0001
0010
0100
1000
0010
1000
,  // measure 97
0010
0001
0010
0001
0010
0100
1000
0100
,  // measure 98
1000
0100
0010
0001
0010
0100
0010
0100
,  // measure 99
0010
0100
1000
0100
0001
0100
1000
0010
,  // measure 100
0001
0010
0001
0100
0001
0100
0001
1000
,  // measure 101
0010
1000
0010
1000
0001
0100
0001
1000
,  // measure 102
0001
1000
0001
1000
0010
1000
0001
0100
,  // measure 103
0010
0001
0100
0001
0100
1000
0100
1000
,  // measure 104
0100
0010
0001
0010
0001
0010
0100
1000
,  // measure 105
0100
0010
0100
0010
0100
0010
0001
0010
,  // measure 106
1000
0001
0100
1000
0100
1000
0010
1000
,  // measure 107
0010
0000
1000
0000
0001
0000
0100
0000
0001
0000
0010
1000
0001
0100
0001
0100
,  // measure 108
0001
0100
0001
1000
0010
1000
0010
1000
0010
1000
0010
1000
0001
1000
0010
0000
;
