#TITLE:蓄積×フラストレーション;
#SUBTITLE:;
#ARTIST:q/stol feat. rebecca;
#TITLETRANSLIT:Chikuseki Frustration;
#SUBTITLETRANSLIT:;
#ARTISTTRANSLIT:;
#GENRE:J-ROCK;
#CREDIT:Telperion;
#BANNER:[Falling Apart] - Chikuseki Frustration.png;
#BACKGROUND:[Falling Apart] - Chikuseki Frustration-bg.png;
#JACKET:[Falling Apart] - Chikuseki Frustration-jacket.png;
#LYRICSPATH:[Falling Apart] - Chikuseki Frustration.lrc;
#CDTITLE:cdtitle.png;
#MUSIC:[Falling Apart] - Chikuseki Frustration.ogg;
#OFFSET:0.007000;
#SAMPLESTART:27.101999;
#SAMPLELENGTH:12.800000;
#SELECTABLE:YES;
#DISPLAYBPM:75.000000:150.000000;
#BPMS:0.000000=150.000000
,132.000000=75.000000
,148.000000=150.000000
;
#STOPS:
;
#BGCHANGES:3.000=[Falling Apart] - Chikuseki Frustration.avi=1.000=0=0=1=====;
#KEYSOUNDS:;
#ATTACKS:;

//---------------dance-double - Telperion----------------
#NOTES:
     dance-double:
     Telperion:
     Hard:
     10:
     0.900605,0.941618,0.057686,0.115372,1.000000,744.000000,7.000000,14.000000,0.000000,2.000000,0.000000,0.900605,0.941618,0.057686,0.115372,1.000000,744.000000,7.000000,14.000000,0.000000,2.000000,0.000000:
00000000
00000000
00000000
00000000
,
00010000
00000000
00000100
00001000
00000000
00000001
00000100
00000001
00001000
00000000
00000000
00000100
00000010
00000000
00000100
00000000
,
00010000
00000000
00000010
00000000
00001000
00000001
00001000
00000001
00000000
00000010
00000000
00000100
00001000
00000000
00000100
00000000
,
00010000
00000000
00000010
00001000
00000000
00000001
00000010
00000001
00001000
00000000
00000000
00001000
00000010
00000000
00010000
00001000
,
00010000
00000000
00000100
00000000
00001000
00000000
00000001
00000010
00000100
00001000
00000100
00010000
00000000
00000000
00000000
00000000
,
00001000
00000000
01000000
00010000
00000000
10000000
01000000
10000000
00010000
00000000
00000000
01000000
00100000
00000000
01000000
00000000
,
00001000
00000000
00100000
00000000
00010000
10000000
00010000
10000000
00000000
00100000
00000000
01000000
00010000
00000000
01000000
00000000
,
00001000
00000000
00100000
00010000
00000000
10000000
00100000
10000000
00010000
00000000
00000000
00010000
00100000
00000000
00001000
00010000
,
00001000
00000000
01000000
00000000
00010000
10000000
00000000
00000000
00000000
00000000
00000000
00000000
00000000
00000000
00001000
00000000
,
00011000
00000000
00100000
00010000
00000000
10000000
00000000
00100000
00000000
00010000
00000000
00001000
00000000
01000000
00010000
00100000
,
00000000
00001000
00010000
00000010
00000000
00001000
00000100
00000010
00000000
00000001
00000000
00001000
00000000
00000100
00000000
00010000
,
00001000
00000000
00100000
00010000
00000000
10000000
00000000
00100000
00000000
01000000
00000000
10000000
00000000
01000000
00100000
10000000
,
00000000
00010000
00100000
01000000
00000000
10000000
01000000
00200000
00000000
00001000
00000000
00001000
00000000
00001000
00300000
00001000
,
00010000
00000000
00000010
00001000
00000000
00000001
00000000
00000010
00000000
00001000
00000000
00010000
00000000
00100000
01000000
00010000
,
00000000
00100000
00001000
00010000
00000000
00000010
00001000
00000100
00000000
00000010
00000000
00000001
00000000
00000010
00000000
00001000
,
00010000
00000000
00000010
00001000
00000000
00000001
00000000
00000010
00000000
00000100
00000000
00000001
00000000
00000100
00000010
00000001
,
00001000
00000100
00000000
00000100
00010000
00000000
00010000
00001000
00000000
00100000
00010000
00000000
10000000
00100000
00000000
01000000
,
00010000
00000000
10000000
00000000
01000000
00100000
01000000
00100000
00001000
00000000
10000000
01000000
10000000
00000000
00010000
01000000
,
00010000
00000000
10000000
00000000
00100000
01000000
00100000
01000000
00000000
00001000
00000000
10000000
00000000
00010000
00100000
00000000
,
00001000
00000000
00010000
00000000
01000000
00100000
01000000
00100000
00010000
00000000
10000000
00100000
10000000
00000000
00010000
01000000
,
00010000
00000000
10000000
00000000
00100000
01000000
00100000
01000000
10000000
00000000
00000000
00010000
00000000
00000000
00001000
00000000
,
00000010
00000000
00000001
00000010
00000100
00001000
00000100
00001000
00000001
00000000
00010000
00000100
00010000
00000000
00000001
00000100
,
00000001
00000000
00001000
00000000
00000010
00000100
00000010
00000100
00000010
00000000
00010000
00000000
00001000
00000000
00000100
00000000
,
00000001
00000010
00000000
00000100
00000000
00001000
00000000
00000001
00010000
00000010
00010000
00000000
00000001
00000100
00000001
00001000
,
00000001
00000000
00000010
00000000
00001000
00000000
00000010
00000000
00000001
00001000
00000100
00010000
00000000
00000000
00000000
00000000
,
00011000
00000000
00001000
00100000
00001000
00100000
00010000
00000000
01000000
00000000
00001000
01000000
00000000
01000000
00010000
00000000
,
00100000
00000000
00001000
00010000
00001000
00010000
00000010
00000000
00001000
00000000
00000100
00010000
00000000
00010000
00001000
00000000
,
00100000
00000000
00010000
01000000
00010000
01000000
00001000
00000000
00010000
00000000
00000100
00001000
00000000
00001000
00000001
00000000
,
00000010
00000000
00000100
00001000
00000001
00001000
00000010
00000000
00000100
00000010
00001000
00000010
00010000
00000000
00001000
00000000
,
00011000
00000000
00010000
00000010
00010000
00000010
00001000
00000000
00000001
00000000
00000010
00000001
00000000
00000010
00000100
00000000
,
00001000
00000000
00000100
00010000
00000100
00010000
00001000
00000000
00100000
00000000
00010000
10000000
00000000
00100000
01000000
00000000
,
00001000
00000000
00010000
00000010
00010000
00000010
00001000
00000000
00000100
00000000
00010000
00001000
00000000
00100000
00010000
00000000
,
10000000
00000000
01000000
00100000
00010000
00100000
00001000
00000000
00010000
00000000
00000010
00001000
00000010
00000100
00000001
00000000
,
00000020
00000000
00000000
00000000
00000000
00000000
00000000
00000000
00000000
00000000
00000000
00000000
00000000
00000000
00000000
00000000
00000000
00000000
00000000
00000000
00000000
00000000
00000000
00000000
00000030
00000000
00000000
00000000
00000000
00000000
00000000
00000000
00000000
00000000
00000000
00000000
00000000
00000000
00000000
00000000
00000000
00000000
00000000
00000000
00000000
00000000
00000000
00000000
00000010
00000000
00000000
00000000
00000000
00000000
00000000
00000000
00000001
00000000
00000000
00000000
00000000
00000000
00000000
00000000
00000010
00000000
00000000
00000000
00000000
00000000
00000000
00000000
00001000
00000000
00000000
00000000
00000000
00000000
00000000
00000000
00010000
00000000
00000000
00000000
00000000
00000000
00000000
00000000
00100000
00000000
00000000
00000000
00000000
00000000
00000000
00000000
20000000
00000000
00000000
00000000
00000000
00000000
00000000
00000000
00000000
00000000
00000000
00000000
00000000
00000000
00000000
00000000
00000000
00000000
00000000
00000000
00000000
00000000
00000000
00000000
30000000
00000000
00000000
00000000
00000000
00000000
00000000
00000000
00000000
00000000
00000000
00000000
00000000
00000000
00000000
00000000
00000000
00000000
00000000
00000000
00000000
00000000
00000000
00000000
00100000
00000000
00000000
00000000
00000000
00000000
00000000
00000000
00000000
00000000
00000000
00000000
10000000
00000000
00000000
00000000
00000000
00000000
01000000
00000000
00000000
00000000
00000000
00000000
10000000
00000000
00000000
00000000
00000000
00000000
00000000
00000000
00000000
00000000
00000000
00000000
00010000
00000000
00000000
00000000
00000000
00000000
01000000
00000000
00000000
00000000
00000000
00000000
,
00020000
00000000
00000000
00000000
00030000
00000000
00000000
00000000
00100000
00010000
00100000
00000000
00001000
00010000
00001000
00010000
00000020
00000000
00000000
00000000
00000030
00000000
00000000
00000000
00002000
00000000
00000000
00000000
00000000
00000000
00000000
00000000
,
00003200
00000000
00000000
00000300
00000000
00000000
01000000
00100000
00010000
00001000
00000100
00000010
00002000
00000000
00000000
00003000
00000000
00000000
00000001
00000010
00001000
00010000
00000100
00000010
,
00000002
00000000
00000000
00001003
00000010
00001000
00000200
00000000
00000000
00010300
00000010
00010000
00002000
00000000
00000000
00103000
00010000
01000000
00100000
10000000
00100000
01000000
00010000
01000000
,
00001000
00000000
00010000
00000010
00010000
00000010
00001000
00000000
00000100
00010000
00000100
00010000
00001000
00000000
00100000
00000000
,
00010000
00000000
10000000
00100000
10000000
00100000
01000000
00000000
00001000
01000000
00001000
01000000
00010000
00000000
00100000
00000000
,
00001000
00000000
00010000
00000010
00010000
00000010
00001000
00000000
00000001
00000010
00000001
00000010
00000100
00000000
00001000
00000000
,
00000100
00000000
00010000
00001000
00010000
00001000
00100000
00000000
00001000
00010000
00001000
00010000
00000010
00000000
00010000
00000000
,
00011000
00000000
00001000
00010000
00001000
00010000
00000010
00000000
00001000
00000001
00000010
00000001
00001000
00000000
00000100
00000000
,
00010000
00000000
00001000
00100000
00010000
00100000
00001000
00000000
10000000
00010000
01000000
00010000
10000000
00000000
00100000
00000000
,
00010000
00000000
00000010
00010000
00001000
00010000
00000010
00000000
00000100
00000001
00001000
00000001
00000010
00000000
00001000
00000000
,
00010000
00000000
00000100
00001000
00000100
00000010
00000100
00000000
00000001
00000000
00000000
00001000
00000000
00000000
00010000
00000000
,
00101000
00000000
10000000
00100000
00000000
01000000
00000000
00001000
00000000
00010000
00000000
01000000
00000000
10000000
00100000
01000000
,
00000000
00010000
00100000
00001000
00000000
00010000
00000010
00001000
00000000
00000001
00000000
00000010
00000000
00001000
00000000
00010000
,
00001000
00000000
00100000
00010000
00000000
10000000
00000000
00100000
00000000
00010000
00000000
00100000
00000000
10000000
00010000
00100000
,
00000000
01000000
00100000
00001000
00000000
00010000
00001000
00100000
00000000
00000010
00000000
00010000
00000000
00001000
00000000
00000000
,
00011000
00000000
00000010
00001000
00000000
00000001
00000000
00000010
00000000
00001000
00000000
00010000
00000000
00000010
00001000
00000010
,
00000000
00100000
00010000
00100000
00000000
00000200
00000000
02000000
00000000
00000000
00001000
00000000
00101000
00000000
03000300
00000000
,
01000000
00000000
00001000
00010000
00000000
00000100
00000000
00010000
00000000
00001000
00000000
00100000
00000000
00001000
00010000
00000010
,
00000000
00001000
00000001
00000010
00000000
00000100
00000010
00000001
00000000
00001000
00000001
00000100
00000000
00000010
00000000
00010000
,
00001000
00000000
00100000
00010000
00000000
10000000
00000000
01000000
00100000
00001000
00000000
00010000
00000000
01000000
00100000
00010000
,
00000000
10000000
00010000
01000000
00000000
00001000
01000000
00010000
00000000
00100000
00000000
01000000
00000000
00010000
00000000
00001000
,
00010000
00000100
00001000
00000010
00000000
00001000
00000000
00000001
00000100
00000001
00001000
00000001
00000000
00000100
00000010
00001000
,
00000000
00000100
00010000
00001000
00000000
00100000
00010000
01000000
00000000
00001000
00000000
00010000
00000010
00010000
00001000
00010000
,
00000010
00000000
00001000
00000001
00000000
00000010
00000000
00000100
00010000
00000100
00000000
00001000
00000000
00000001
00000100
00000010
,
00000000
00001000
00000010
00010000
00000000
00001000
00010000
00001000
00000000
00000010
00000000
00001000
00000000
00010000
00000000
01000000
,
00100000
00010000
10000000
00100000
00000000
01000000
00000000
00010000
00000000
10000000
01000000
10000000
00010000
10000000
01000000
00100000
,
00000000
00010000
00100000
00001000
00000000
00010000
00001000
01000000
00000000
00100000
00000000
00010000
00000000
00001000
00000000
00000100
,
00000001
00000010
00000001
00000100
00000000
00000010
00000000
00000001
00000000
00000010
00000000
00001000
00000000
00000001
00010000
00000100
,
00000000
01000000
00001000
00010000
00000000
00000010
00001000
00000100
00000000
00010000
00000000
00001000
00000000
00010000
00000000
01000000
,
10000000
00100000
10000000
01000000
00000000
00100000
00000000
10000000
00000000
00100000
00000000
00010000
00000000
01000000
00001000
00010000
,
00000000
00000010
00001000
00000001
00000000
00010000
00000100
00001000
00000000
00000001
00000000
00000010
00000000
00001000
00000000
00010000
,
01000000
00100000
00010000
00100000
00001000
00010000
00001000
01000000
00000000
00010000
00000000
10000000
00000000
00100000
01000000
00010000
,
00000000
00100000
00001000
00010000
00000000
00000010
00001000
00000001
00000000
00000010
00000000
00000100
00000000
00010000
00000000
00001000
,
00000100
00000010
00001000
00000010
00010000
00001000
00010000
00000100
00000000
00001000
00000000
00000001
00000000
00000010
00000100
00001000
,
00000001
00001000
00000100
00010000
00001000
00100000
00010000
01000000
00001000
00010000
00000010
00010000
00001000
00100000
00010000
10000000
,
00200000
00300000
00000000
00000000
;

//---------------dance-single - Telperion----------------
#NOTES:
     dance-single:
     Telperion:
     Hard:
     10:
     0.910023,0.941618,0.082408,0.098890,1.000000,751.000000,10.000000,12.000000,0.000000,0.000000,0.000000,0.910023,0.941618,0.082408,0.098890,1.000000,751.000000,10.000000,12.000000,0.000000,0.000000,0.000000:
0000
0000
0000
0000
,
1000
0000
0001
0100
0000
0001
1000
0100
1000
0000
0000
0100
0010
0000
0001
0000
,
1000
0000
0010
0000
0100
0001
0100
0001
0000
1000
0000
0100
0001
0000
0100
0000
,
1000
0000
0001
0010
0000
0001
1000
0010
1000
0000
0000
1000
0001
0000
0010
0100
,
0010
0000
0001
0000
1000
0000
0001
0100
0010
1000
0010
0100
0000
0000
0000
0000
,
0001
0000
1000
0100
0000
1000
0001
0100
0001
0000
0000
1000
0010
0000
0100
0000
,
0001
0000
1000
0000
0100
0010
0100
0010
0000
0001
0000
1000
0010
0000
0100
0000
,
0001
0000
1000
0010
0000
1000
0001
0010
0001
0000
0000
0001
1000
0000
0100
1000
,
0010
0000
0100
0000
0001
0100
0000
0000
0000
0000
0000
0000
0000
0000
0001
0000
,
1001
0000
0010
1000
0000
0001
0000
0010
0000
0100
0000
1000
0000
0001
0100
0010
,
0000
1000
0010
0100
0000
0001
1000
0100
0000
0001
0000
0100
0000
1000
0000
0010
,
0100
0000
0010
1000
0000
0001
0000
0010
0000
0100
0000
1000
0000
0001
1000
0100
,
0000
0010
0001
1000
0000
0010
0100
0002
0000
1000
0000
1000
0000
1000
0003
1000
,
0100
0000
0010
0001
0000
1000
0000
0010
0000
0100
0000
0001
0000
1000
0100
0010
,
0000
0001
1000
0010
0000
0100
0001
0010
0000
1000
0000
0010
0000
0100
0000
1000
,
0001
0000
0010
0001
0000
1000
0000
0010
0000
0100
0000
0001
0000
1000
0010
1000
,
0001
0100
0001
1000
0100
1000
0001
0010
0001
1000
0010
1000
0001
0100
0010
1000
,
0001
0000
1000
0000
0100
1000
0100
1000
0010
0000
1000
0001
0010
0000
0100
1000
,
0001
0000
0100
0000
0001
0100
0001
0100
0000
0010
0000
1000
0000
0010
0100
0000
,
0001
0000
1000
0000
0100
1000
0100
1000
0100
0000
0010
0001
1000
0000
0010
0100
,
0001
0000
1000
0000
0001
0100
0001
0100
0010
0000
0000
0101
0000
0000
1010
0000
,
1000
0000
0001
1000
0100
0010
0001
0010
0001
0000
1000
0010
0100
0000
0001
0100
,
0010
0000
1000
0000
0001
0010
0100
1000
0001
0000
0100
0000
0001
0000
0010
0000
,
0100
1000
0000
0001
0000
0100
0000
0010
1000
0010
0100
0000
0001
1000
0100
1000
,
0001
0000
0010
0000
1000
0000
0010
0000
0100
1000
0001
0100
0000
0000
0000
0000
,
0010
0000
1000
0001
1000
0001
0100
0000
0010
0000
1000
0001
0000
0001
0010
0000
,
0100
0000
1000
0001
1000
0001
0010
0000
0100
0000
1000
0001
0000
0001
0100
0000
,
0010
0000
1000
0010
1000
0010
0100
0000
0001
0000
0100
0010
0000
0010
1000
0000
,
0001
0000
0010
0100
1000
0100
1000
0000
0001
0100
0001
0100
0010
0000
1000
0000
,
0001
0000
0100
0010
0100
0010
1000
0000
0001
0000
0010
0100
0000
1000
0100
0000
,
0010
0000
0001
1000
0001
1000
0010
0000
0100
0000
0010
1000
0000
0010
0100
0000
,
0001
0000
1000
0100
0010
0100
1000
0000
0001
0000
0100
0010
0000
1000
0010
0000
,
0100
0000
0001
1000
0100
1000
0001
0000
0010
0000
0100
0010
0001
0010
0100
0000
,
2000
0000
0000
0000
0000
0000
0000
0000
0000
0000
0000
0000
0000
0000
0000
0000
0000
0000
0000
0000
0000
0000
0000
0000
3000
0000
0000
0000
0000
0000
0000
0000
0000
0000
0000
0000
0000
0000
0000
0000
0000
0000
0000
0000
0000
0000
0000
0000
0001
0000
0000
0000
0000
0000
0000
0000
0010
0000
0000
0000
0000
0000
0000
0000
0001
0000
0000
0000
0000
0000
0000
0000
0010
0000
0000
0000
0000
0000
0000
0000
0001
0000
0000
0000
0000
0000
0000
0000
0010
0000
0000
0000
0000
0000
0000
0000
0200
0000
0000
0000
0000
0000
0000
0000
0000
0000
0000
0000
0000
0000
0000
0000
0000
0000
0000
0000
0000
0000
0000
0000
0300
0000
0000
0000
0000
0000
0000
0000
0000
0000
0000
0000
0000
0000
0000
0000
0000
0000
0000
0000
0000
0000
0000
0000
1000
0000
0000
0000
0000
0000
0000
0000
0000
0000
0000
0000
0001
0000
0000
0000
0000
0000
0100
0000
0000
0000
0000
0000
0001
0000
0000
0000
0000
0000
0000
0000
0000
0000
0000
0000
1000
0000
0000
0000
0000
0000
0100
0000
0000
0000
0000
0000
,
2000
0000
0000
0000
3000
0000
0000
0000
0001
0010
0001
0000
1000
0010
1000
0010
0200
0000
0000
0000
0300
0000
0000
0000
0200
0000
0000
0000
0000
0000
0000
0000
,
0302
0000
0000
0003
0000
0000
1000
0010
1000
0010
1000
0010
0200
0000
0000
0300
0000
0000
0001
1000
0010
1000
0001
0010
,
0200
0000
0000
1300
0001
1000
0020
0000
0000
0130
0001
1000
0200
0000
0000
0310
0100
1000
0001
0100
0001
1000
0100
0010
,
0001
0000
1000
0010
1000
0010
0100
0000
0001
1000
0001
1000
0100
0000
0010
0000
,
0001
0000
1000
0010
0100
0010
0100
0000
0001
1000
0100
1000
0100
0000
0010
0000
,
1000
0000
0010
0100
0010
0100
1000
0000
0001
0100
0001
0100
0010
0000
1000
0000
,
0001
0000
0010
0100
1000
0100
1000
0000
0001
0100
0010
0100
0010
0000
1000
0000
,
0001
0000
0010
0001
0010
0100
1000
0000
0001
1000
0100
0010
0001
0000
1000
0000
,
0010
0000
0100
0001
0100
0010
1000
0000
0001
1000
0010
0100
0001
0000
1000
0000
,
0100
0000
0010
0100
1000
0001
1000
0000
0100
0010
0001
1000
0001
0000
0100
0000
,
0010
0000
1000
0010
1000
0001
0010
0000
0110
0000
0000
1100
0000
0000
0001
0000
,
1001
0000
0010
0001
0000
1000
0000
0010
0000
0100
0000
1000
0000
0100
0010
1000
,
0000
0001
1000
0010
0000
1000
0001
0010
0000
1000
0000
0010
0000
0001
0000
1000
,
0010
0000
0100
0001
0000
1000
0000
0100
0000
0010
0000
1000
0000
0010
0100
1000
,
0000
0001
1000
0100
0000
0010
0001
0100
0000
1000
0000
0100
0000
0001
0000
0000
,
1001
0000
0010
1000
0000
0001
0000
0010
0000
0100
0000
0001
0000
0100
1000
0001
,
0000
0100
0010
1000
0000
0001
0100
0001
1000
0000
0110
0000
1001
0000
0000
0000
,
0011
0000
0100
1000
0000
0001
0000
0100
0000
0010
0000
0001
0000
0010
1000
0001
,
0000
0010
0100
1000
0000
0100
1000
0001
0000
1000
0001
0100
0000
0010
0000
1000
,
0001
0000
0010
0100
0000
1000
0000
0001
1000
0100
0000
1000
0000
0001
1000
0100
,
0000
1000
0001
1000
0000
0100
1000
0100
0000
1000
0000
0001
0000
1000
0000
0100
,
0010
0001
1000
0001
0000
0100
0000
0001
1000
0100
1000
0001
0000
0100
0001
0100
,
0000
0001
1000
0001
0000
0100
0010
1000
0000
0001
0000
0010
0100
1000
0001
0100
,
0010
0000
1000
0010
0000
0100
0000
0001
1000
0001
0000
0100
0000
0010
1000
0001
,
0000
0010
0100
1000
0000
0010
0100
0001
0000
1000
0000
0100
0000
0010
0000
0100
,
1000
0001
0100
0010
0000
1000
0000
0001
0000
0010
0100
0010
0001
1000
0010
0100
,
0000
0010
1000
0001
0000
0010
0100
0010
0000
1000
0000
0010
0000
0001
0000
1000
,
0010
0100
0001
0100
0000
0010
0000
1000
0000
0001
0000
0010
0000
0100
1000
0001
,
0000
0100
0001
1000
0000
0010
1000
0100
0000
0001
0000
0100
0000
1000
0000
0001
,
0010
0100
1000
0100
0000
0010
0000
0001
0000
1000
0000
0010
0000
0100
0010
1000
,
0000
0001
1000
0100
0000
0010
0001
0100
0000
1000
0000
0100
0000
0001
0000
1000
,
0100
0010
0001
0010
0100
1000
0001
0100
0000
0010
0000
1000
0000
0001
0010
0001
,
0000
1000
0010
0100
0000
0001
1000
0100
0000
0001
0000
0100
0000
1000
0000
0001
,
0100
0010
1000
0010
0100
0001
1000
0100
0000
0010
0000
0001
0000
1000
0010
0100
,
0001
1000
0100
1000
0001
0100
0010
1000
0001
0010
0001
1000
0100
0010
0001
1000
,
0020
0030
0000
0000
;

//---------------dance-single - Telperion----------------
#NOTES:
     dance-single:
     Telperion:
     Medium:
     8:
     0.639253,0.627745,0.329633,0.082408,0.210141,493.000000,40.000000,10.000000,0.000000,0.000000,0.000000,0.639253,0.627745,0.329633,0.082408,0.210141,493.000000,40.000000,10.000000,0.000000,0.000000,0.000000:
0000
0000
0000
0000
,
1000
0000
0100
0000
0000
1000
0000
0000
0001
0000
0000
0100
0010
0000
1000
0000
,
0001
0000
0010
0000
0100
0000
0000
1000
0000
0100
1000
0000
0001
0000
0000
0000
,
0001
0000
0100
0000
0000
0010
0000
0000
1000
0000
0000
0001
0010
0000
0100
0000
,
1000
0000
0001
0000
0100
0000
0000
0000
0001
1000
0001
1000
0000
0000
0000
0000
,
0100
0000
0010
0000
0000
0001
0000
0000
1000
0000
0000
0010
0100
0000
0001
0000
,
1000
0000
0100
0000
0010
0000
0000
0001
0000
0010
0001
0000
1000
0000
0000
0000
,
1000
0000
0010
0000
0000
0100
0000
0000
0001
0000
0000
1000
0100
0000
0010
0000
,
0001
0000
1000
0000
0010
0000
0000
0200
0000
0000
0300
0000
0000
0000
0000
0000
,
0101
0001
0100
0001
1000
0001
0010
0100
,
1000
0100
0001
0100
1000
0100
0001
0100
,
1100
1000
0100
1000
0001
1000
0010
0100
,
1000
0000
0100
0000
0001
0000
1000
0100
0000
0010
0000
0100
0000
0010
0000
0100
,
1000
0001
0010
0001
1000
0001
0010
0100
,
1000
0010
0001
0010
1000
0010
0001
0010
,
1010
1000
0001
1000
0100
1000
0001
0100
,
0110
0000
0000
0101
0000
0000
1100
0000
0000
0110
0000
0000
0011
0000
1000
0000
,
1010
0010
0100
0000
0001
1000
0100
0000
,
0110
0010
1000
0010
0001
1000
0010
0000
,
0101
0100
0010
0000
1000
0001
0010
0000
,
0110
0000
1000
0000
0001
0000
0100
0000
0110
0000
0000
1010
0000
0000
0010
0000
,
1001
1000
0100
0000
1000
0001
0100
0000
,
0110
0010
0001
0010
1000
0001
0010
0000
,
1100
0100
0010
0000
0001
1000
0010
0000
,
0110
0000
0001
0000
1000
0000
0100
0000
1000
0001
1000
0001
0000
0000
0000
0000
,
0100
0100
0000
0001
0001
1000
0001
0100
,
0010
0010
0000
1000
1000
0001
1000
0100
,
0010
0010
0000
0001
0001
1000
0001
0010
,
0100
0000
1000
0001
1000
0100
0010
0001
,
1000
1000
0000
0010
0010
0100
0010
1000
,
0001
0001
0000
0010
0100
0010
0100
1000
,
0002
0203
0320
2030
,
0002
0003
0200
3000
,
0310
0000
0000
0000
0000
0000
0001
1000
0001
1000
0001
1000
0010
0000
0000
0000
0000
0000
0100
0000
0000
0100
0000
0000
,
0010
0000
0000
0000
1000
0001
1000
0001
0010
0000
0000
0000
0200
0000
0000
0000
,
0310
0000
0000
0000
0000
0000
0001
1000
0001
1000
0001
1000
0100
0000
0000
0000
0000
0000
1000
0001
1000
0001
1000
0001
,
0100
0000
0000
0010
0000
0000
1000
0000
0000
0001
0000
0000
0010
0000
0000
0100
0000
0000
1000
0100
0010
0001
0010
0100
,
1000
0000
0001
0001
0100
0010
0000
2000
,
0000
0000
3001
1000
0001
1000
0100
0010
,
0001
0000
0010
0010
0100
1000
0001
0100
,
0010
0000
1000
0010
1000
0001
0100
0000
,
0001
1000
1000
0100
1000
1000
0001
0100
,
0010
0100
0100
0001
0100
0010
1000
0001
,
0010
0100
0100
1000
0100
0100
0010
0001
,
1000
0000
0010
0000
1000
0000
0100
0000
0110
0000
0000
0011
0000
0000
1000
0000
,
1001
0001
0100
0001
0010
0001
0100
0010
,
1000
0100
1000
0010
0001
0010
1000
0000
,
1010
1000
0100
1000
0010
1000
0100
0010
,
0001
0100
1000
0100
0001
0010
0100
0000
,
0110
1000
0001
0100
0010
1000
0001
0010
,
0100
1000
0001
0100
0010
0110
1001
0000
,
1000
0010
0100
0001
0010
0100
1000
0001
,
0100
1000
0100
0010
1000
0001
0010
0100
,
1000
0000
0000
0001
0000
0100
0000
0000
0110
0000
0000
1000
0000
0001
0000
0000
,
0011
0000
0010
0100
1000
0001
0100
0000
,
0010
0000
1010
0000
0000
0000
1000
0000
0001
0000
0010
0000
0110
0000
0000
1100
,
0000
0000
0001
0000
1000
0000
0100
0000
0010
0000
0010
0000
0000
0001
0000
0000
,
1001
0000
1000
0010
0110
0000
0100
0001
,
1001
0000
1000
0100
0010
0100
1000
0001
,
0100
0000
1010
0000
0000
0000
0001
0000
1000
0000
0010
0000
0110
0000
0000
0101
,
0000
1000
0001
1000
0010
0010
0100
0000
,
1001
1000
1000
1000
0010
1000
1000
1000
,
0100
0010
0001
1000
0010
1000
0100
1000
,
1001
0001
0001
0001
0100
0001
0010
0001
,
0100
0010
1000
0001
0010
0100
0010
0001
,
1001
1000
0010
0010
1000
0001
1000
0100
,
1000
0001
0010
0100
1000
0100
0001
0100
,
1001
0001
0100
0100
0001
0010
0001
0100
,
0010
1000
0001
0010
0100
1000
0001
0100
,
0020
0030
0000
0000
;

//---------------dance-single - Telperion----------------
#NOTES:
     dance-single:
     Telperion:
     Easy:
     4:
     0.250757,0.228271,0.065927,0.024722,0.000000,202.000000,8.000000,3.000000,0.000000,0.000000,0.000000,0.250757,0.228271,0.065927,0.024722,0.000000,202.000000,8.000000,3.000000,0.000000,0.000000,0.000000:
0000
0000
0000
0000
,
1100
0000
0000
0000
,
0101
0000
0000
0000
,
1010
0000
0000
0000
,
0011
0000
0000
0000
,
0101
0000
0000
0000
,
1100
0000
0000
0000
,
0011
0000
0000
0000
,
1010
0000
0000
0000
,
0001
0100
0001
0100
,
0010
1000
0010
0000
,
1000
0100
0010
0001
,
1000
0010
0100
0000
,
1000
0100
1000
0100
,
0010
0001
1000
0000
,
0010
0100
0001
0010
,
0100
1000
0010
0100
,
0001
0000
0001
0001
,
1000
0000
1000
1000
,
0100
0000
0100
0100
,
0010
0000
0001
0000
,
1000
0000
1000
1000
,
0010
0000
0010
0010
,
0100
0000
0100
0100
,
0001
0000
0000
0000
,
1000
0100
1000
0010
,
0100
0001
0100
0000
,
0010
1000
0001
0010
,
0100
1000
0100
0000
,
0010
0001
1000
0010
,
1000
0001
0100
0000
,
0001
0001
1000
1000
,
0002
0000
2003
0000
,
3100
0010
0001
1000
,
0010
0001
0100
1000
,
0010
0100
0001
1000
,
0100
0001
0010
1000
,
0001
0000
1000
1000
,
0010
0000
0100
0001
,
0010
0000
0100
0100
,
1000
0000
0001
0100
,
0010
0000
1000
1000
,
0010
0000
0100
0001
,
0100
0010
1000
0001
,
0010
0000
0100
0000
,
1000
0100
1000
0100
,
0010
0001
0010
0000
,
0001
0100
0010
1000
,
0001
0010
0100
0000
,
0001
0100
0001
0100
,
0010
1000
0001
0000
,
0010
0100
1000
0010
,
0100
0001
0010
0100
,
1000
0000
0001
0000
,
0010
0010
0010
0010
,
0100
0000
1000
0000
,
0001
0000
0100
0000
,
0010
0000
1000
0000
,
0001
0000
0010
0000
,
0100
0000
1000
0000
,
0001
0000
0100
0000
,
0010
1000
0100
0001
,
0010
0100
1000
0000
,
0010
0001
0100
1000
,
0010
0100
0001
0000
,
0010
1000
0100
0001
,
0010
1000
0001
0000
,
0010
0001
0100
1000
,
0010
0001
0100
1000
,
0020
0030
0000
0000
;

//---------------dance-single - Telperion----------------
#NOTES:
     dance-single:
     Telperion:
     Beginner:
     1:
     0.069458,0.085293,0.008241,0.000000,0.000000,58.000000,1.000000,0.000000,0.000000,0.000000,0.000000,0.069458,0.085293,0.008241,0.000000,0.000000,58.000000,1.000000,0.000000,0.000000,0.000000,0.000000:
// measure 0
0000
0000
0000
0000
,  // measure 1
0001
0000
0000
0000
,  // measure 2
0000
0000
0000
0000
,  // measure 3
0000
0000
0000
0000
,  // measure 4
0000
0000
0000
0000
,  // measure 5
1000
0000
0000
0000
,  // measure 6
0000
0000
0000
0000
,  // measure 7
0000
0000
0000
0000
,  // measure 8
0000
0000
0000
0000
,  // measure 9
0010
0000
0000
0000
,  // measure 10
0010
0000
0000
0000
,  // measure 11
0001
0000
0000
0000
,  // measure 12
1000
0000
0000
0000
,  // measure 13
0010
0000
0000
0000
,  // measure 14
0010
0000
0000
0000
,  // measure 15
1000
0000
0000
0000
,  // measure 16
0001
0000
0000
0000
,  // measure 17
0100
0000
0000
0000
,  // measure 18
0000
0000
0000
0000
,  // measure 19
0100
0000
0000
0000
,  // measure 20
0000
0000
0000
0000
,  // measure 21
0010
0000
0000
0000
,  // measure 22
0000
0000
0000
0000
,  // measure 23
0010
0000
0000
0000
,  // measure 24
0000
0000
0000
0000
,  // measure 25
0001
0000
0000
0000
,  // measure 26
1000
0000
0000
0000
,  // measure 27
0100
0000
0000
0000
,  // measure 28
0010
0000
0000
0000
,  // measure 29
1000
0000
0000
0000
,  // measure 30
0001
0000
0000
0000
,  // measure 31
0100
0000
0000
0000
,  // measure 32
0010
0000
0000
0000
,  // measure 33
1000
0000
0000
0000
,  // measure 34
0001
0000
0000
0000
,  // measure 35
1000
0000
0000
0000
,  // measure 36
0001
0000
0000
0000
,  // measure 37
0010
0000
0000
0000
,  // measure 38
0010
0000
0000
0000
,  // measure 39
0100
0000
0000
0000
,  // measure 40
1000
0000
0000
0000
,  // measure 41
0010
0000
0000
0000
,  // measure 42
0010
0000
0000
0000
,  // measure 43
0100
0000
0000
0000
,  // measure 44
0001
0000
0000
0000
,  // measure 45
1000
0000
0000
0000
,  // measure 46
1000
0000
0000
0000
,  // measure 47
0001
0000
0000
0000
,  // measure 48
0001
0000
0000
0000
,  // measure 49
0010
0000
0000
0000
,  // measure 50
0000
0000
0000
0000
0000
0100
0100
0000
,  // measure 51
0000
0000
0000
0000
,  // measure 52
0000
0000
0000
0000
,  // measure 53
1000
0000
0000
0000
,  // measure 54
0001
0000
0000
0000
,  // measure 55
0100
0000
0000
0000
,  // measure 56
0010
0000
0000
0000
,  // measure 57
0001
0000
0000
0000
,  // measure 58
1000
0000
0000
0000
,  // measure 59
0100
0000
0000
0000
,  // measure 60
0010
0000
0000
0000
,  // measure 61
1000
0000
0000
0000
,  // measure 62
0010
0000
0000
0000
,  // measure 63
0100
0000
0000
0000
,  // measure 64
0001
0000
0000
0000
,  // measure 65
1000
0000
0000
0000
,  // measure 66
0001
0000
0000
0000
,  // measure 67
0010
0000
0000
0000
,  // measure 68
0100
0000
0000
0000
,  // measure 69
0110
0000
0000
0000
;
