#TITLE:Carried Away;
#SUBTITLE:;
#ARTIST:Passion Pit;
#TITLETRANSLIT:;
#SUBTITLETRANSLIT:;
#ARTISTTRANSLIT:;
#GENRE:INDIE POP;
#CREDIT:;
#BANNER:[Falling Apart] - Carried Away.png;
#BACKGROUND:[Falling Apart] - Carried Away-bg.png;
#LYRICSPATH:;
#CDTITLE:cdtitle.png;
#MUSIC:[Falling Apart] - Carried Away.ogg;
#OFFSET:-0.340000;
#SAMPLESTART:48.327854;
#SAMPLELENGTH:16.044998;
#SELECTABLE:YES;
#BPMS:0.000000=120.000000
;
#STOPS:
;
#BGCHANGES:;
#KEYSOUNDS:;
#ATTACKS:;

//---------------dance-single - ----------------
#NOTES:
     dance-single:
     :
     Hard:
     8:
     0.440204,0.477212,0.118167,0.154526,0.204519,339.000000,326.000000,13.000000,17.000000,0.000000,0.000000,0.440204,0.477212,0.118167,0.154526,0.204519,339.000000,326.000000,13.000000,17.000000,0.000000,0.000000:
0000
0000
0000
0000
,
0000
0000
0000
0000
,
0000
0000
0000
0000
,
0000
0000
0000
0000
,
1000
1000
0001
0000
0010
0000
0100
1000
,
0001
0001
1000
0010
0100
0100
0001
1000
,
0100
0100
0010
0000
0001
0000
1000
0001
,
0010
0000
0010
0000
0001
0000
1000
0000
0010
0000
0010
0000
0100
0000
0001
1000
,
0001
1000
0100
1000
0002
0000
2003
0000
,
3001
1000
0010
1000
0002
0000
0103
0000
,
0001
1000
0100
0010
0100
1000
0010
0100
,
0001
0000
0000
0000
1000
0000
0000
0000
0001
0000
0000
0000
1000
0000
0000
0001
,
1000
0001
0100
0001
2000
0000
3002
0000
,
1003
0001
0010
0001
2000
0000
3100
0000
,
1000
0001
0100
0010
0100
0001
1000
0100
,
0010
0000
0000
0000
0100
0000
0000
0000
1000
0000
0000
0000
0001
0000
1000
0001
,
1000
0000
1000
0000
0010
0000
0010
0000
0100
0000
0000
0100
0000
0000
0001
1000
,
0001
0001
0010
0010
0100
0000
1000
0001
,
1000
0000
1000
0000
0010
0000
0010
0000
0100
0000
0001
0010
0000
0000
0001
1000
,
0001
0000
0001
0000
1000
0000
1000
0000
0100
0000
0000
0000
0010
0000
0001
1000
,
0001
0000
0001
0000
1000
0000
1000
0000
0010
0000
0000
0010
0000
0000
1000
0001
,
1000
0000
1000
0000
0001
0000
0001
0000
0010
0000
0000
0000
0100
0000
0000
1000
,
0010
0000
0010
0000
0100
0000
0100
0000
0001
0000
0010
0001
0000
0000
1000
0001
,
1000
0000
1000
0000
0001
0000
0001
0000
0010
0000
0000
0000
0001
1000
0001
1000
,
0001
0000
0000
0000
0101
0000
0000
0000
1000
0000
0100
0010
0000
0000
0200
0000
,
0000
0000
0000
0000
1300
0000
0000
0000
0001
0000
0100
0010
0000
0000
0200
0000
,
0000
0302
0000
1003
0000
0001
0100
1000
,
0000
0000
1000
0000
0100
0000
0001
0000
1000
0000
0100
0000
1000
0001
1000
0001
,
1000
0000
0000
0000
1010
0000
0000
0000
0001
0000
0010
0100
0000
0000
0020
0000
,
0000
0000
0000
0000
0031
0000
0000
0000
1000
0000
0010
0100
0000
0000
0020
0000
,
0000
1030
0001
1000
0000
0001
0010
0100
,
0000
0000
1000
0000
0010
0000
1000
0001
1000
0100
1000
0100
0010
0001
0010
0001
,
1000
0001
0010
0100
1000
0000
0010
0000
,
0100
0001
1000
0100
1000
0000
0001
0000
,
1000
0000
0010
0000
0100
0000
0010
0000
1000
0000
0000
1000
0000
0000
0001
0000
,
0010
0000
0100
0000
0010
0000
0001
0000
0100
0000
0000
0100
0000
0000
0000
0000
,
0001
0010
0001
0010
0100
1000
0100
1000
,
0010
0000
0100
0001
0000
1000
0001
1000
,
0100
1100
0001
0101
,
1000
0000
0000
0000
1010
0000
0000
0000
0001
0000
0000
0000
0011
0000
0001
1000
,
0001
0101
1000
1100
,
0001
0011
1000
1010
,
1000
0000
0000
0000
0001
0000
0000
0000
0010
0000
0000
0100
0000
0000
1000
0000
,
0010
0000
0000
0000
0110
0000
0000
0000
1000
0100
1000
0100
0010
0001
0010
0001
,
1000
0000
0000
0000
1010
0000
0000
0000
0001
0000
0010
0100
0000
0000
0020
0000
,
0000
0000
0000
0000
0031
0000
0000
0000
1000
0000
0010
0100
0000
0000
0020
0000
,
0000
2030
0000
3001
0000
1000
0010
0001
,
0000
0000
0001
0000
0010
0000
1000
0000
0001
0000
0010
0000
0001
1000
0001
1000
,
0001
0000
0000
0000
0101
0000
0000
0000
1000
0000
0100
0010
0000
0000
0200
0000
,
0000
0000
0000
0000
1300
0000
0000
0000
0001
0000
0100
0010
0000
0000
0200
0000
,
0000
0301
1000
0001
0000
1000
0100
0010
,
0000
0000
0001
0000
0100
0000
0001
1000
0001
0010
0001
0010
0100
1000
0100
1000
,
0020
0000
0030
0000
;

//---------------dance-single - ----------------
#NOTES:
     dance-single:
     :
     Medium:
     5:
     0.324634,0.330867,0.127257,0.063628,0.018180,250.000000,236.000000,14.000000,7.000000,0.000000,0.000000,0.324634,0.330867,0.127257,0.063628,0.018180,250.000000,236.000000,14.000000,7.000000,0.000000,0.000000:
0000
0000
0000
0000
,
0000
0000
0000
0000
,
0000
0000
0000
0000
,
0000
0000
0000
0000
,
1000
0001
1000
0000
0001
0000
0100
0000
,
0001
1000
0001
0000
1000
0100
1000
0000
,
0001
1000
0001
0000
1000
0000
0010
0000
,
1000
0001
1000
0000
0001
0010
0001
0000
,
1000
0010
0200
0302
,
0013
0100
2000
3010
,
0100
0000
0001
1000
0001
0000
1000
0010
,
1000
0001
0010
0001
,
1000
0100
0020
0032
,
0103
0010
2000
3100
,
1000
0000
0001
0100
0001
0000
1000
0001
,
1000
0000
0010
0000
0100
0000
0001
0010
,
0010
0000
0000
0000
0001
0000
0000
0000
1000
0000
0000
1000
0000
0000
0000
0000
,
1000
0100
0010
1001
,
1000
0000
0000
0000
0010
0000
0000
0000
0100
0000
0000
0100
0000
0000
0000
0000
,
0100
0000
0010
0000
1000
0000
0001
1000
,
0001
0000
0000
0000
0100
0000
0000
0000
0010
0000
0000
0010
0000
0000
0000
0000
,
0010
1000
0100
0110
,
0010
0000
0000
0000
0001
0000
0000
0000
1000
0000
0000
1000
0000
0000
0000
0000
,
1000
0000
0010
0000
0100
0000
0001
1000
,
0001
0000
0101
0000
1000
0100
0010
0000
,
0100
0000
1000
0000
0001
0100
0010
0000
,
1000
0000
0001
0000
1000
0010
1000
0000
,
0001
0100
0001
0000
0010
0001
1000
0001
,
1000
0000
1100
0000
0001
0100
0010
0000
,
0100
0000
0001
0000
1000
0100
0010
0000
,
0001
0000
1000
0000
0001
0010
0001
0000
,
1000
0100
1000
0000
0010
1000
0001
1000
,
0001
0001
1000
1000
,
0010
0010
0100
0100
,
0001
0000
0010
0000
0100
0000
1000
0001
,
1000
0010
0100
0001
,
1000
0000
0001
0000
0100
0000
0010
1000
,
0010
0000
1000
0000
0100
0000
0010
0001
,
1000
1001
0001
1001
,
0100
0110
0010
0110
,
1000
1001
0001
1001
,
0010
0110
0100
0110
,
1000
0000
0100
0000
0010
0000
0001
1000
,
0002
0000
0103
0000
1000
0010
1000
0001
,
1000
0000
1010
0000
0001
0010
0100
0000
,
0010
0000
0001
0000
1000
0010
0100
0000
,
0001
0000
1000
0000
0001
0100
0001
0000
,
1000
0010
1000
0000
0100
1000
0001
1000
,
0001
0000
0011
0000
1000
0010
0100
0000
,
0010
0000
1000
0000
0001
0010
0100
0000
,
1000
0000
0001
0000
1000
0100
1000
0000
,
0001
0010
0001
0000
0100
0001
1000
0001
,
1000
0000
0000
0000
;

//---------------dance-single - ----------------
#NOTES:
     dance-single:
     :
     Easy:
     2:
     0.153227,0.236334,0.009090,0.000000,0.000000,118.000000,117.000000,1.000000,0.000000,0.000000,0.000000,0.153227,0.236334,0.009090,0.000000,0.000000,118.000000,117.000000,1.000000,0.000000,0.000000,0.000000:
0000
0000
0000
0000
,
0000
0000
0000
0000
,
0000
0000
0000
0000
,
0000
0000
0000
0000
,
1000
1000
0000
0001
,
0100
0100
0010
0010
,
1000
1000
0000
0100
,
0010
0010
0001
0001
,
1000
0000
0001
0000
,
1000
0000
0001
0000
,
0100
0000
0010
0000
,
0100
0000
0010
0000
,
1000
0000
0001
0000
,
1000
0000
0001
0000
,
0010
0000
0100
0000
,
0010
0000
0100
0000
,
1000
1000
0001
0001
,
0100
0100
0010
0010
,
1000
1000
0100
0100
,
0010
0000
0001
0000
,
1000
0000
0001
0000
,
1000
0000
0001
0000
,
1000
1000
0010
0010
,
0100
0100
0001
1001
,
1000
0000
0010
0000
,
1000
0000
0010
0000
,
0100
0000
0001
0000
,
0100
0000
0001
0000
,
1000
0000
0100
0000
,
1000
0000
0100
0000
,
0010
0000
0001
0000
,
0010
0000
0001
0001
,
0001
0000
1000
0000
,
0010
0000
0100
0000
,
0001
0000
0010
0000
,
0100
0000
1000
0000
,
0010
0000
1000
0000
,
0001
0000
1000
0000
,
0100
0010
0000
0010
,
0000
0100
0000
0100
,
0000
1000
0000
1000
,
0000
0001
0000
0001
,
0000
1000
0000
1000
,
0000
0010
0100
0100
,
0100
0000
0001
0000
,
1000
0000
0010
0000
,
1000
0000
0100
0000
,
0010
0000
0001
0000
,
1000
0000
0001
0000
,
1000
0000
0010
0000
,
0100
0000
0001
0000
,
0010
0000
0100
0100
,
0100
0000
0000
0000
;

//---------------dance-single - ----------------
#NOTES:
     dance-single:
     :
     Beginner:
     1:
     0.103883,0.141800,0.000000,0.000000,0.000000,80.000000,80.000000,0.000000,0.000000,0.000000,0.000000,0.103883,0.141800,0.000000,0.000000,0.000000,80.000000,80.000000,0.000000,0.000000,0.000000,0.000000:
// measure 0
0000
0000
0000
0000
,  // measure 1
0000
0000
0000
0000
,  // measure 2
0000
0000
0000
0000
,  // measure 3
0000
0000
0000
0000
,  // measure 4
1000
1000
0000
0001
,  // measure 5
0000
1000
0000
0001
,  // measure 6
1000
1000
0000
0001
,  // measure 7
0000
1000
0000
0001
,  // measure 8
1000
0000
0000
0000
,  // measure 9
0010
0000
0000
0000
,  // measure 10
1000
0000
0000
0000
,  // measure 11
0001
0000
0000
0000
,  // measure 12
0100
0000
0000
0000
,  // measure 13
0001
0000
0000
0000
,  // measure 14
1000
0000
0000
0000
,  // measure 15
0100
0000
0000
0000
,  // measure 16
1000
0000
1000
0000
,  // measure 17
0001
0000
0001
0000
,  // measure 18
0100
0000
0100
0000
,  // measure 19
0010
0000
0010
0000
,  // measure 20
1000
0000
1000
0000
,  // measure 21
0001
0000
0001
0000
,  // measure 22
0010
0000
0010
0000
,  // measure 23
0100
0000
0100
0000
,  // measure 24
1000
0000
0001
0000
,  // measure 25
1000
0000
0001
0000
,  // measure 26
1000
0000
0001
0000
,  // measure 27
1000
0000
0001
0000
,  // measure 28
0100
0000
0010
0000
,  // measure 29
0100
0000
0010
0000
,  // measure 30
0100
0000
0010
0000
,  // measure 31
0100
0000
0010
0000
,  // measure 32
1000
0000
0000
0000
,  // measure 33
0001
0000
0000
0000
,  // measure 34
0010
0000
0000
0000
,  // measure 35
0100
0000
0000
0000
,  // measure 36
1000
0000
0000
0000
,  // measure 37
0001
0000
0000
0000
,  // measure 38
0100
0000
0000
0000
,  // measure 39
0010
0000
0000
0000
,  // measure 40
1000
0000
0000
0000
,  // measure 41
0100
0000
0000
0000
,  // measure 42
0010
0000
0000
0000
,  // measure 43
0001
0000
0001
0000
,  // measure 44
1000
0000
0001
0000
,  // measure 45
1000
0000
0001
0000
,  // measure 46
1000
0000
0001
0000
,  // measure 47
1000
0000
0001
0000
,  // measure 48
0010
0000
0100
0000
,  // measure 49
0010
0000
0100
0000
,  // measure 50
0010
0000
0100
0000
,  // measure 51
0010
0000
0100
0000
,  // measure 52
0010
0000
0000
0000
;
