#VERSION:0.82;
#TITLE:鬼天;
#SUBTITLE:;
#ARTIST:兎々;
#TITLETRANSLIT:onigami;
#SUBTITLETRANSLIT:;
#ARTISTTRANSLIT:;
#GENRE:;
#ORIGIN:;
#CREDIT:;
#BANNER:[Drop the Zero] - onigami.png;
#BACKGROUND:[Drop the Zero] - onigami-bg.png;
#PREVIEWVID:;
#JACKET:[Drop the Zero] - onigami-jacket.png;
#CDIMAGE:;
#DISCIMAGE:;
#LYRICSPATH:;
#CDTITLE:cdtitle.png;
#MUSIC:[Drop the Zero] - onigami.ogg;
#OFFSET:0.010000;
#SAMPLESTART:76.014542;
#SAMPLELENGTH:11.925468;
#SELECTABLE:YES;
#BPMS:0.000=161.000;
#STOPS:;
#DELAYS:;
#WARPS:;
#TIMESIGNATURES:0.000=4=4;
#TICKCOUNTS:0.000=4;
#COMBOS:0.000=1;
#SPEEDS:0.000=1.000=0.000=0;
#SCROLLS:0.000=1.000;
#FAKES:;
#LABELS:0.000=Song Start;
#BGCHANGES:;
#KEYSOUNDS:;
#ATTACKS:
;

//---------------dance-single - S-CHALLENGE----------------
#NOTEDATA:;
#CHARTNAME:xRGTMx-CSP;
#STEPSTYPE:dance-single;
#DESCRIPTION:S-CHALLENGE;
#CHARTSTYLE:;
#DIFFICULTY:Challenge;
#METER:12;
#RADARVALUES:0.780448,1.000000,0.315687,0.473531,0.960215,549.000000,36.000000,54.000000,9.000000,0.000000,16.000000,0.000000,0.000000,0.780448,1.000000,0.315687,0.473531,0.960215,549.000000,36.000000,54.000000,9.000000,0.000000,16.000000,0.000000,0.000000;
#CREDIT:xRGTMx;
#NOTES:
0000
0000
0000
0000
,
0000
0000
0000
0000
,
0000
0000
0000
0000
,
0000
0000
0000
0000
,
0000
0000
0000
0000
,
1100
0000
0000
0101
0000
0000
0000
0000
,
0000
0000
0000
0000
,
0011
0000
0000
1010
0000
0000
0000
0000
,
0000
0000
0000
0000
,
2002
0000
0000
0003
,
3010
1000
0001
1000
0100
0000
0010
0000
0001
0000
0100
0001
2000
0000
0000
0000
,
3010
0000
0000
1010
0000
0000
1000
0001
0010
0000
0000
0011
0000
0000
0001
1000
,
0010
0000
0000
1001
0000
0000
1000
0001
0100
0001
0010
0100
1000
0001
0010
0001
,
0100
0000
0000
0101
0000
0000
0001
1000
0100
0000
0000
1100
0000
0000
1000
0001
,
0100
0000
0000
1001
0000
0000
0001
1000
0020
0000
0000
0000
1000
0000
0000
0000
,
0130
0000
0000
0011
0000
0000
0001
1000
0010
0000
0000
0101
0000
0000
0001
1000
,
0100
0000
0000
1001
0000
0000
0001
1000
0100
0010
0001
1000
0001
0100
0010
1000
,
0010
0000
0000
1010
0000
0000
0001
0010
0100
0000
0000
1100
0000
0000
1000
0001
,
0100
0010
0100
0001
1000
0001
0010
0000
0200
0000
0000
0000
2300
0000
0000
3000
,
1001
0000
1000
0100
1000
0000
0001
0100
0001
0000
1000
0100
0010
0000
0001
0000
,
0020
0000
0000
0130
0020
0000
0000
1030
0010
0000
0001
0010
0100
0000
1000
0000
,
0001
0000
1000
0010
1000
0000
0001
0010
0001
0000
1000
0010
0100
0000
0001
0000
,
0200
0000
0000
1300
0200
0000
0000
0310
0100
0000
0001
0010
0100
0000
1000
0000
,
0002
0000
0000
0013
0001
0000
0100
0000
0010
0000
1000
0001
0010
0000
0001
0000
,
2000
0000
0000
3010
1000
0000
0100
0000
0010
0000
0001
1000
0010
1000
0001
0010
,
0200
0000
1000
0001
00M0
0000
0310
0000
0020
0000
1000
0001
0M00
0000
0130
0000
,
0100
0000
1000
0001
0100
0000
1001
0000
0001
0010
0100
1000
0010
0000
0110
0000
,
1001
0000
0001
0010
0001
0000
0010
1000
0010
0000
0001
0010
0001
0000
0100
0000
,
2000
0000
0000
3100
0002
0000
0000
0103
0010
0000
0010
1000
0100
0000
1000
0000
,
0001
0000
1000
0010
1000
0000
0010
0001
0010
0000
1000
0010
1000
0000
0100
0000
,
0002
0000
0000
0103
2000
0000
0000
3100
0010
0000
0010
0001
0100
0000
0010
0000
,
2000
0000
0000
3010
1000
0000
0100
0000
0010
0000
0001
0010
0100
0000
1000
0000
,
0002
0000
0000
0103
0001
0000
0100
0010
1000
0010
0100
0010
1000
0000
0001
0000
,
0020
0000
0001
1000
0M00
0000
1000
0031
0200
0000
0001
1000
00M0
0000
0310
0000
,
0011
0000
0001
0010
0100
0000
1000
0000
0010
0000
1000
0001
0020
0000
0000
0000
,
0130
0000
0000
1010
0000
0000
1000
0001
0100
0000
0000
0011
0000
0000
0001
1000
,
0010
0000
0000
1100
0000
0000
1000
0001
0100
0010
1000
0001
0010
0100
1000
0001
,
0100
0000
0000
0011
0000
0000
0001
1000
0100
0000
0000
1010
0000
0000
1000
0001
,
0010
0000
0001
0100
0000
0001
1000
0000
0020
0000
0000
0000
0000
0000
0000
0000
,
0130
0000
00M0
1100
0000
0000
0010
1000
0100
0000
00M0
0101
0000
0000
0010
0001
,
0100
0000
00M0
1100
0000
0000
1000
0001
1000
0100
1000
0010
0100
0001
1000
0001
,
0010
0000
0M00
1010
0000
0000
0100
1000
0010
0000
0M00
0011
0000
0000
0100
0001
,
0010
0100
1000
0100
1000
0001
0100
0001
0100
0010
1000
0010
1000
0001
0010
0100
,
2000
0000
0000
0001
0000
0000
0100
0000
0000
0000
0000
0000
0000
0000
0000
0000
,
0000
0000
3020
0000
,
0230
0000
0000
1000
0000
0000
0010
0000
0000
0000
0000
0000
0000
0000
0000
0000
,
0302
0000
0000
0000
,
0013
0001
0010
0001
1000
0100
1000
0100
1000
0010
1000
0010
0100
0001
0100
0001
,
1000
0100
1000
0100
0010
0001
0010
0001
0100
0001
0100
0001
1000
0010
1000
0010
,
0100
0001
1000
0100
0010
0001
1000
0010
1000
0001
0010
0100
1000
0001
0100
0001
,
0010
0000
0000
0011
0000
0000
1010
0000
1001
0000
0001
1000
0100
0000
0000
0000
,
4001
0000
0000
0100
0000
0000
0000
0010
0000
0000
3000
0001
0200
0000
0310
1000
,
0004
0000
0000
0010
0000
0000
0000
0103
0020
0000
1030
0001
0200
0000
0301
1000
,
0400
0000
0000
0010
0000
0000
0300
1000
0004
0000
0000
0010
0003
0000
0100
0001
,
0040
0000
0000
0100
0000
0000
0000
1000
0000
0000
0030
0100
0010
0001
1000
0010
,
4000
0000
0000
0010
0000
0000
0000
0100
0000
0000
3000
0001
0020
0000
0130
1000
,
0004
0000
0000
0100
0000
0000
0000
0013
0200
0000
1300
0001
0020
0000
0031
1000
,
0040
0000
0000
0100
0000
0000
0030
1000
0002
0000
0013
0001
0200
0000
0310
1000
,
0004
0000
0000
0100
0000
0000
0003
1000
0200
0000
0000
0310
0100
1000
0010
1000
,
0004
0000
0000
0100
0000
0000
0000
0010
0000
0000
0003
1000
0020
0000
0130
0001
,
0040
0000
0000
0100
0000
0000
0030
0001
0020
0000
0130
1000
0002
0000
0103
0001
,
4000
0000
0000
0010
0000
0000
0000
0001
0000
0000
3000
0100
2000
0000
3020
0000
,
0230
0000
0301
1000
0200
0000
0310
0001
2000
0000
3010
1000
0002
0000
0013
0000
,
0004
0000
0000
0010
0000
0003
0100
0001
4000
0000
0000
0010
0000
3000
0100
1000
,
0020
0000
0130
0001
0020
0000
1030
0010
0002
0000
1003
0010
0002
0000
0013
1000
,
0400
0000
0000
0001
0000
0000
0300
1000
0400
0000
0000
0010
0000
0300
1000
0001
,
0200
0000
0000
0000
0020
0000
0000
0330
,
1001
0000
0001
0100
0000
0001
1000
0000
0000
0000
0100
0000
0010
0000
0001
0000
,
1000
0000
0010
1000
0000
0000
0100
0000
0010
0000
0001
0000
1000
0000
0010
0000
,
1000
0000
0100
0010
0000
0001
1000
0000
0000
0010
0000
0000
0100
0000
0001
0000
,
1000
0000
0100
1000
0100
1000
0001
0000
0100
0000
0010
1000
0001
0010
0100
2000
,
0002
0000
0000
0000
,
0000
0000
0000
0000
,
0000
0000
0000
0000
,
3003
0000
0000
0000
;

//---------------dance-single - S-EXPERT----------------
#NOTEDATA:;
#CHARTNAME:xRGTMx-ESP;
#STEPSTYPE:dance-single;
#DESCRIPTION:S-EXPERT;
#CHARTSTYLE:;
#DIFFICULTY:Hard;
#METER:10;
#RADARVALUES:0.678978,0.908477,0.482300,0.455992,0.473531,435.000000,55.000000,52.000000,0.000000,0.000000,0.000000,0.000000,0.000000,0.678978,0.908477,0.482300,0.455992,0.473531,435.000000,55.000000,52.000000,0.000000,0.000000,0.000000,0.000000,0.000000;
#CREDIT:xRGTMx;
#NOTES:
0000
0000
0000
0000
,
0000
0000
0000
0000
,
0000
0000
0000
0000
,
0000
0000
0000
0000
,
0000
0000
0000
0000
,
1100
0000
0000
0101
0000
0000
0000
0000
,
0000
0000
0000
0000
,
0011
0000
0000
1010
0000
0000
0000
0000
,
0000
0000
0000
0000
,
2002
0000
0000
0003
,
3010
1000
0010
1000
0100
0000
0010
0000
0001
0000
0100
0001
1000
0000
0000
0000
,
1010
0000
0000
1001
0000
0000
0100
0000
0011
0000
0000
1001
0000
0000
0100
0000
,
1010
0000
0000
0011
0000
0000
1001
0000
1000
0000
0100
0000
0010
0000
0001
0000
,
0101
0000
0000
1001
0000
0000
0010
0000
1100
0000
0000
1001
0000
0000
0010
0000
,
0101
0000
0000
1100
0000
0000
1001
0000
0020
0000
0000
0000
0000
0000
0030
0000
,
0011
0000
0000
1100
0000
0000
1000
0000
1010
0000
0000
0101
0000
0000
0001
0000
,
0110
0000
0000
1001
0000
0000
1000
0000
0001
0000
0100
0000
0010
0000
1000
0000
,
1100
0000
0000
0011
0000
0000
0001
0000
0101
0000
0000
1010
0000
0000
1000
0000
,
0001
0100
0001
0000
1000
0100
1000
0000
0010
0100
0010
2000
0001
0000
0000
0000
,
3010
0000
1000
0100
1000
0000
0001
0100
0001
0000
1000
0000
0100
0000
0010
0000
,
0001
0000
0000
0001
0100
0000
0000
0100
0010
0000
1000
0100
1000
0000
0001
0000
,
0100
0000
0001
0010
0001
0000
1000
0010
1000
0000
0001
0000
0010
0000
0100
0000
,
1000
0000
0000
1000
0010
0000
0000
0010
0100
0000
0001
0010
0001
0000
1000
0000
,
0010
0000
0000
0100
0001
0000
0100
0000
0010
0000
1000
0001
1000
0000
0001
0000
,
0010
0000
0000
0100
1000
0000
0100
0000
0010
0000
0001
0010
0001
0010
0100
0000
,
1000
0010
0020
0000
0001
0000
1000
0000
,
0130
0000
0001
0100
0001
0000
0010
0000
0100
1000
0001
1000
0010
0000
0010
0000
,
0100
0000
0001
0010
0001
0000
1000
0100
1000
0000
0001
0000
0100
0000
0010
0000
,
1000
0000
0000
1000
0010
0000
0000
0010
0100
0000
0001
0100
0001
0000
0010
0000
,
0100
0000
1000
0010
1000
0000
0001
0100
0001
0000
1000
0000
0100
0000
0010
0000
,
0001
0000
0000
0001
0010
0000
0000
0010
0100
0000
1000
0010
1000
0000
0001
0000
,
0010
0000
0000
0100
1000
0000
0001
0000
0100
0000
0010
0100
0010
0000
1000
0000
,
0100
0000
0000
0010
0001
0000
1000
0001
1000
0001
0100
0001
0100
0000
0001
0000
,
1000
0000
0000
1000
0100
0000
0010
0001
1000
0000
0010
0000
0100
0000
0001
0000
,
0010
0000
0100
1000
0001
0000
0100
0000
0010
0000
1000
0001
0020
0000
0000
0030
,
1001
0000
0000
1100
0000
0000
0010
0000
1001
0000
0000
0101
0000
0000
0010
0000
,
0110
0000
0000
1001
0000
0000
1000
0000
0001
0000
0100
0000
0010
0000
1000
0000
,
1001
0000
0000
0011
0000
0000
0100
0000
1001
0000
0000
1010
0000
0000
0100
0000
,
0110
0000
0000
1001
0000
0000
0001
0000
0020
0000
0000
0000
0000
0000
0030
0000
,
0110
0000
0000
1100
0000
0000
1000
0000
0110
0000
0000
0101
0000
0000
0001
0000
,
0110
0000
0000
1001
0000
0000
1000
0000
0001
0000
0010
0000
0100
0000
1000
0000
,
0110
0000
0000
0011
0000
0000
0001
0000
0110
0000
0000
1010
0000
0000
1000
0000
,
0001
0010
0001
0010
0100
1000
0100
1000
0001
0100
0001
0100
0010
1000
0010
1000
,
0002
0000
0000
0010
0000
0000
0000
0000
,
0000
0000
0203
0000
,
0320
0000
0000
0100
0000
0000
0000
0000
,
2030
0000
0000
3000
,
1200
0000
0000
0001
0000
0000
0000
0000
,
0000
0000
0010
0000
,
2300
0000
0000
0002
0000
0000
3000
0000
,
0013
0000
0000
0010
0000
0000
0010
0000
0100
0000
1000
0001
0100
0000
0000
0000
,
1020
0000
0000
0000
0100
0000
0000
0000
0031
0000
0010
1000
0002
0000
0000
0000
,
0023
0000
0000
0000
1030
0000
0010
0001
2000
0000
0100
0000
3200
0000
0010
0000
,
0320
0000
0000
0000
0001
0000
0130
1000
0002
0000
0000
0000
0100
0000
0013
0001
,
2000
0000
0010
0000
0010
0000
0000
0000
0001
0000
0000
0000
3100
1000
0001
0010
,
0002
0000
0100
0000
0100
0000
0000
0000
1003
0000
0010
1000
0200
0000
0000
0000
,
0320
0000
0000
0000
1030
0000
0010
0001
2000
0000
0010
0000
3010
0000
0100
0001
,
0200
0000
0000
0000
0310
0000
1000
0010
0200
0000
0001
0000
0302
0000
0010
0000
,
0023
0000
0000
0000
1000
0000
0130
0010
0002
0000
0000
0000
1003
0001
0100
0001
,
2000
0000
0000
0000
0010
0000
0000
0000
3100
0000
1000
0001
0020
0000
0000
0000
,
2030
0000
0000
0000
3010
0000
0100
1000
0002
0000
0100
0000
0203
0000
0010
0000
,
0320
0000
0000
0000
1000
0000
0000
0000
0031
0000
0010
1000
0100
0000
0010
0000
,
0002
0000
0000
0013
0200
0000
0000
1300
0020
0000
0000
0130
0002
0000
1000
0000
,
2003
0000
0000
0000
0010
0000
3001
0010
0200
0000
0000
0000
0301
0000
0100
1000
,
0020
0000
0030
0010
2000
0000
3000
1000
0200
0000
0300
0100
0020
0000
0030
0010
,
0002
0000
0100
0000
0100
0000
0000
0000
1003
0000
0001
1000
0010
0000
0100
0010
,
0200
0000
0000
0000
0020
0000
0000
0330
,
1001
0000
0000
0001
0000
0000
0010
0000
0000
0000
0000
0000
0000
0000
0000
0000
,
0100
1000
0000
1000
0001
0000
0010
0000
,
1001
0000
0000
0001
0000
0000
0100
0000
0000
0000
0000
0000
0100
0000
0010
0000
,
1000
0000
0001
0000
0000
1000
0010
0000
0100
0000
0001
0000
0010
0000
0010
0002
,
2000
0000
0000
0000
,
0000
0000
0000
0000
,
0000
0000
0000
0000
,
3003
0000
0000
0000
;

//---------------dance-single - S-DIFFICULT----------------
#NOTEDATA:;
#CHARTNAME:xRGTMx-DSP;
#STEPSTYPE:dance-single;
#DESCRIPTION:S-DIFFICULT;
#CHARTSTYLE:;
#DIFFICULTY:Medium;
#METER:8;
#RADARVALUES:0.491069,0.584021,0.087691,0.455992,0.175382,330.000000,10.000000,52.000000,0.000000,0.000000,0.000000,0.000000,0.000000,0.491069,0.584021,0.087691,0.455992,0.175382,330.000000,10.000000,52.000000,0.000000,0.000000,0.000000,0.000000,0.000000;
#CREDIT:xRGTMx;
#NOTES:
0000
0000
0000
0000
,
0000
0000
0000
0000
,
0000
0000
0000
0000
,
0000
0000
0000
0000
,
0000
0000
0000
0000
,
1000
0000
0000
0100
0000
0000
0000
0000
,
0000
0000
0000
0000
,
0001
0000
0000
0010
0000
0000
0000
0000
,
0000
0000
0000
0000
,
2002
0000
0000
0003
,
3010
1000
0100
1000
0010
0100
0001
0000
,
0011
0000
0000
0010
0000
0000
0010
0000
0100
0000
0000
0100
0000
0000
0100
0000
,
1000
0000
0000
1000
0000
0000
0001
0000
0001
0000
0100
0000
0010
0000
1000
0000
,
1010
0000
0000
0010
0000
0000
0010
0000
0100
0000
0000
0100
0000
0000
0100
0000
,
0001
0000
0000
0001
0000
0000
1000
0000
0200
0000
0000
0000
0000
0000
0300
0000
,
1100
0000
0000
0100
0000
0000
0100
0000
0010
0000
0000
0010
0000
0000
0010
0000
,
0001
0000
0000
0001
0000
0000
1000
0000
1000
0000
0010
0000
0100
0000
0001
0000
,
0101
0000
0000
0100
0000
0000
0100
0000
0010
0000
0000
0010
0000
0000
0010
0000
,
1000
1000
0001
0001
0010
0100
0020
0000
,
0031
1000
0100
1000
0001
1000
0010
0010
,
0100
0000
0000
0100
0001
0000
0000
0001
1000
0000
0100
0000
0010
0000
0000
0000
,
0001
1000
0010
1000
0001
1000
0100
0100
,
0010
0000
0000
0010
0001
0000
0000
0001
1000
0000
0010
0000
0100
0000
0000
0000
,
0001
0000
0000
0001
0100
0000
0010
0000
1000
0000
0000
0000
0001
0000
1000
0000
,
1000
0000
0000
1000
0100
0000
0010
0000
0001
0000
0100
0000
0100
0000
0010
0000
,
1000
0000
0001
0000
0002
0000
0000
0000
0010
0000
0000
0000
0010
0000
0000
0003
,
1000
0001
0100
0001
0010
0100
1000
0000
,
0001
1000
0100
0010
0100
0001
0100
1000
,
0001
0000
0000
0001
0100
0000
0000
0100
0010
0000
1000
0000
0001
0000
0000
0000
,
1000
0001
0100
0010
0100
1000
0100
0001
,
1000
0000
0000
1000
0100
0000
0000
0100
0010
0000
0001
0000
1000
0000
0000
0000
,
0010
0000
0000
0010
0100
0000
0001
0000
1000
0000
0100
0000
0100
0000
0000
0000
,
0010
0000
0000
0010
0100
0000
1000
0000
0001
0000
0100
0000
0100
0000
0000
0000
,
0010
0000
0000
0010
1000
0000
0000
1000
0001
0000
0010
0000
0001
0000
0010
0000
,
0100
0000
1000
0100
2000
0000
0000
0000
3002
0000
0000
0000
0103
0000
0000
0000
,
1010
0000
0000
1000
0000
0000
0100
0000
0010
0000
0000
0001
0000
0000
0100
0000
,
0010
0000
0000
1000
0000
0000
0100
0000
1000
0000
0001
0000
1000
0000
0000
0000
,
0011
0000
0000
0001
0000
0000
0100
0000
0010
0000
0000
1000
0000
0000
0100
0000
,
0010
0000
0000
0001
0000
0000
1000
0000
0020
0000
0000
0000
0000
0000
0030
0000
,
0101
0000
0000
0001
0000
0000
0010
0000
0100
0000
0000
1000
0000
0000
0010
0000
,
0100
0000
0000
0001
0000
0000
0010
0000
0001
0000
1000
0000
0001
0000
0000
0000
,
1100
0000
0000
1000
0000
0000
0010
0000
0100
0000
0000
0001
0000
0000
0010
0000
,
0100
1000
0001
0100
1000
0001
0010
1000
,
0002
0000
0000
0010
0000
0000
0000
0000
,
0000
0000
0203
0000
,
0320
0000
0000
1000
0000
0000
0000
0000
,
2030
0000
0000
3000
,
2000
0000
0000
0010
0000
0000
0000
0000
,
0000
0000
3200
0000
,
0320
0000
0000
0001
0000
0000
0000
0000
,
0031
0000
0000
1000
0000
0000
1000
0000
0001
0000
0100
0010
0100
0000
0000
0000
,
0002
0000
0010
0000
1000
0000
0103
0001
,
0200
0010
0302
2003
,
3200
0000
0310
0001
2000
0000
3010
0100
,
0002
0000
0010
0000
2003
0000
3010
0100
,
0002
0000
0010
0000
1003
0100
0020
0000
,
0032
0010
2003
3020
,
0230
0000
0301
1000
0200
0000
0310
0001
,
2000
0000
0010
0000
3100
0010
0001
1000
,
2000
0000
0010
0000
0001
0000
3100
1000
,
0200
0010
2300
3002
,
0203
0000
0010
0000
1000
0000
0301
0100
,
0002
0023
2030
3200
,
0302
0000
0013
0001
0200
0000
0310
1000
,
0200
2300
3020
0032
,
0203
0000
0000
0000
0010
0000
0000
0000
2300
0000
0000
0000
3001
0000
0100
0001
,
0200
0000
0000
0000
0020
0000
0000
0330
,
1001
0000
0000
1000
0000
0000
0000
0000
,
0010
0000
0010
0000
,
0100
0000
0000
0100
0000
0000
0000
0000
,
0001
0010
0100
2000
,
0002
0000
0000
0000
,
0000
0000
0000
0000
,
0000
0000
0000
0000
,
3003
0000
0000
0000
;

//---------------dance-single - S-BASIC----------------
#NOTEDATA:;
#CHARTNAME:xRGTMx-BSP;
#STEPSTYPE:dance-single;
#DESCRIPTION:S-BASIC;
#CHARTSTYLE:;
#DIFFICULTY:Easy;
#METER:5;
#RADARVALUES:0.289380,0.356902,0.087691,0.096460,0.000000,210.000000,10.000000,11.000000,0.000000,0.000000,0.000000,0.000000,0.000000,0.289380,0.356902,0.087691,0.096460,0.000000,210.000000,10.000000,11.000000,0.000000,0.000000,0.000000,0.000000,0.000000;
#CREDIT:xRGTMx;
#NOTES:
0000
0000
0000
0000
,
0000
0000
0000
0000
,
0000
0000
0000
0000
,
0000
0000
0000
0000
,
0000
0000
0000
0000
,
0010
0000
0000
0010
0000
0000
0000
0000
,
0000
0000
0000
0000
,
0010
0000
0000
0010
0000
0000
0000
0000
,
0000
0000
0000
0000
,
2002
0000
0000
3003
,
1000
0100
0010
0000
,
0001
0000
0000
0001
0001
0000
0000
0001
,
0001
0000
0000
0001
0001
0000
0100
0000
,
1000
0000
0000
1000
1000
0000
0000
1000
,
1000
0000
0000
1000
2000
0000
3000
0000
,
0001
0000
0000
0001
0001
0000
0000
0001
,
0001
0000
0000
0001
0001
0000
0010
0000
,
1000
0000
0000
1000
1000
0000
0000
1000
,
1000
0001
0110
0000
,
1000
1000
0001
0001
,
1000
0100
0010
0001
,
1000
1000
0001
0001
,
1000
0010
0100
0001
,
0010
0010
0100
0100
,
0010
0001
1000
0010
,
0100
0100
0010
0010
,
1000
0001
0110
1001
,
0001
0001
1000
1000
,
0001
0100
0010
1000
,
0001
0001
1000
1000
,
0001
0010
0100
1000
,
0010
0010
0100
0100
,
0010
1000
0001
0010
,
0100
0100
0010
0010
,
0001
1000
0110
1001
,
1000
0000
0000
1000
1000
0000
0000
1000
,
1000
0000
0000
1000
1000
0000
0100
0000
,
0001
0000
0000
0001
0001
0000
0000
0001
,
0001
0000
0000
0001
0002
0000
0003
0000
,
1000
0000
0000
1000
1000
0000
0000
1000
,
1000
0000
0000
1000
1000
0000
0010
0000
,
0001
0000
0000
0001
0001
0000
0000
0001
,
0001
1000
0010
0110
,
1001
0000
0000
1000
0000
0000
0000
0000
,
0000
0000
0000
0000
,
0001
0000
0000
0001
0000
0000
0000
0000
,
0000
0000
0000
0000
,
0110
0000
0000
0010
0000
0000
0000
0000
,
0000
0000
0000
0000
,
0100
0000
0000
0100
0000
0000
0000
0000
,
1000
0000
0001
0000
,
1000
0010
0001
0100
,
1000
0100
0001
0010
,
1000
0100
0010
0001
,
2000
0010
3001
0000
,
0001
0010
1000
0100
,
0001
0100
1000
0010
,
0001
0100
0010
1000
,
0002
0010
1003
0000
,
1000
0100
0001
0010
,
1000
0010
0001
0100
,
1000
0010
0100
0001
,
2000
0100
3001
0000
,
0001
0100
1000
0010
,
0001
0010
1000
0100
,
0001
0010
0100
1000
,
0020
0000
0230
0000
,
0301
0000
0000
0001
0000
0000
0000
0000
,
0000
0000
0000
0000
,
1000
0000
0000
1000
0000
0000
0000
0000
,
0100
0010
0100
0000
,
2002
0000
0000
0000
,
0000
0000
0000
0000
,
0000
0000
0000
0000
,
3003
0000
0000
0000
;

//---------------dance-single - BEGINNER----------------
#NOTEDATA:;
#CHARTNAME:xRGTMx-BEG;
#STEPSTYPE:dance-single;
#DESCRIPTION:BEGINNER;
#CHARTSTYLE:;
#DIFFICULTY:Beginner;
#METER:2;
#RADARVALUES:0.171623,0.249042,0.087691,0.061384,0.000000,120.000000,10.000000,7.000000,0.000000,0.000000,0.000000,0.000000,0.000000,0.171623,0.249042,0.087691,0.061384,0.000000,120.000000,10.000000,7.000000,0.000000,0.000000,0.000000,0.000000,0.000000;
#CREDIT:xRGTMx;
#NOTES:
// measure 0
0000
0000
0000
0000
,  // measure 1
0000
0000
0000
0000
,  // measure 2
0000
0000
0000
0000
,  // measure 3
0000
0000
0000
0000
,  // measure 4
0000
0000
0000
0000
,  // measure 5
0020
0000
0000
0030
0000
0000
0000
0000
,  // measure 6
0000
0000
0000
0000
,  // measure 7
0020
0000
0000
0030
0000
0000
0000
0000
,  // measure 8
0000
0000
0000
0000
,  // measure 9
0100
0000
0000
0000
,  // measure 10
0000
0000
0000
0000
,  // measure 11
1001
0000
1000
0000
,  // measure 12
1000
0000
1000
0000
,  // measure 13
1001
0000
0001
0000
,  // measure 14
0001
0000
0002
0003
,  // measure 15
0110
0000
0010
0000
,  // measure 16
0010
0000
0010
0000
,  // measure 17
0110
0000
0100
0000
,  // measure 18
0100
0000
0100
0000
,  // measure 19
0001
0000
0001
0000
,  // measure 20
1000
1000
1000
0000
,  // measure 21
0001
0000
1000
0000
,  // measure 22
0001
0001
0001
0000
,  // measure 23
0100
0000
0100
0000
,  // measure 24
0010
0010
0010
0000
,  // measure 25
0100
0000
0010
0000
,  // measure 26
0100
0100
0100
0000
,  // measure 27
1000
0000
0001
0000
,  // measure 28
1000
1000
1000
0000
,  // measure 29
0001
0000
1000
0000
,  // measure 30
0001
0001
0001
0000
,  // measure 31
0010
0000
0100
0000
,  // measure 32
0010
0010
0010
0000
,  // measure 33
0100
0000
0010
0000
,  // measure 34
0100
0100
0100
0000
,  // measure 35
1001
0000
1000
0000
,  // measure 36
1000
0000
1000
0000
,  // measure 37
1001
0000
0001
0000
,  // measure 38
0001
0000
0001
0000
,  // measure 39
0110
0000
0100
0000
,  // measure 40
0100
0000
0100
0000
,  // measure 41
0110
0000
0010
0000
,  // measure 42
0010
0000
0010
0000
,  // measure 43
2000
0000
0000
3000
0000
0000
0000
0000
,  // measure 44
0000
0000
0000
0000
,  // measure 45
2000
0000
0000
3000
0000
0000
0000
0000
,  // measure 46
0000
0000
0000
0000
,  // measure 47
0002
0000
0000
0003
0000
0000
0000
0000
,  // measure 48
0000
0000
0000
0000
,  // measure 49
0002
0000
0000
0003
0000
0000
0000
0000
,  // measure 50
0100
0000
0000
0000
,  // measure 51
0001
0000
0001
0000
,  // measure 52
0010
0000
0010
0000
,  // measure 53
1000
0000
1000
0000
,  // measure 54
0100
0000
0100
0000
,  // measure 55
0001
0000
0001
0000
,  // measure 56
0100
0000
0100
0000
,  // measure 57
1000
0000
1000
0000
,  // measure 58
0010
0000
0010
0000
,  // measure 59
0001
0001
0001
0000
,  // measure 60
0010
0000
0010
0000
,  // measure 61
1000
1000
1000
0000
,  // measure 62
0100
0000
0100
0000
,  // measure 63
1000
1000
1000
0000
,  // measure 64
0010
0000
0010
0000
,  // measure 65
0001
0001
0001
0000
,  // measure 66
0100
0000
0010
0000
,  // measure 67
1001
0000
0000
0000
,  // measure 68
0000
0000
0000
0000
,  // measure 69
0001
0000
0000
0000
,  // measure 70
0100
0000
0000
0000
,  // measure 71
1001
0000
0000
0000
;
