#TITLE:glacia;
#SUBTITLE:;
#ARTIST:DJ TOTTO;
#TITLETRANSLIT:;
#SUBTITLETRANSLIT:;
#ARTISTTRANSLIT:;
#GENRE:;
#CREDIT:mf32892;
#BANNER:glacia-bn.png;
#BACKGROUND:glacia-bg.png;
#LYRICSPATH:;
#CDTITLE:;
#MUSIC:glacia.ogg;
#OFFSET:0.404009;
#SAMPLESTART:32.621475;
#SAMPLELENGTH:12.000000;
#SELECTABLE:YES;
#BPMS:0.000000=186.033005
,75.000000=93.016998
,75.500000=186.033005
,203.500000=93.016998
,218.500000=186.033005
,322.000000=93.016998
;
#STOPS:217.250000=0.161000,
217.500000=0.161000,
217.750000=0.161000,
218.000000=0.161000,
257.500000=0.161000
;
#BGCHANGES:;
#KEYSOUNDS:;
#ATTACKS:;

//---------------dance-single - ----------------
#NOTES:
     dance-single:
     :
     Hard:
     10:
     0.821611,1.000000,0.326679,0.206324,0.649060,607.000000,38.000000,24.000000,0.000000,0.000000,0.000000,0.821611,1.000000,0.326679,0.206324,0.649060,607.000000,38.000000,24.000000,0.000000,0.000000,0.000000:
// measure 0
0000
0000
0000
0000
,  // measure 1
0000
0000
0000
0000
,  // measure 2
0000
0000
0000
0000
,  // measure 3
0000
0000
0000
0000
,  // measure 4
0000
0000
0000
0000
,  // measure 5
0000
0000
0000
0000
,  // measure 6
0000
0000
0000
0000
,  // measure 7
0000
0000
0000
0000
,  // measure 8
0000
0000
0000
0110
,  // measure 9
1001
1000
0100
0010
0000
0001
0000
1000
,  // measure 10
0000
0000
0001
0000
0000
0000
0100
0001
0100
0000
0010
0000
1000
0000
0001
0000
,  // measure 11
1000
0100
0100
0010
0000
0001
0000
1000
,  // measure 12
0000
0000
0001
0000
0000
0000
1000
0001
1000
0000
0010
0000
0100
0000
0001
0000
,  // measure 13
0010
0100
0100
1000
0000
0001
0000
0100
,  // measure 14
0000
0000
0010
0000
0000
0000
1000
0010
1000
0000
0100
0000
0010
0000
0001
0000
,  // measure 15
1000
0010
0010
0100
0001
1000
0001
0010
,  // measure 16
0000
0000
0100
0000
1000
0000
0001
1000
0001
0100
0010
0000
1000
0000
0001
0000
,  // measure 17
2000
0000
0000
0000
0000
0000
0000
3002
,  // measure 18
0000
0000
0000
0000
0000
0000
0000
0000
0103
0000
0000
0000
0001
0000
0000
0000
0100
0000
0000
0000
0010
0000
0000
0000
1000
0000
0000
0000
0100
0000
0000
0000
0010
0000
0000
0000
0001
0000
0000
0000
1000
0000
0000
0000
0010
0000
0000
0000
0200
0300
0000
0000
0000
0000
0000
0000
1002
0000
0000
0000
0000
0000
0000
0000
,  // measure 19
0100
0103
0010
0100
0100
1000
0100
0001
,  // measure 20
0100
0000
0010
0000
1000
0001
1000
0000
0100
0000
0010
0000
0100
0000
1000
0000
,  // measure 21
0010
0010
0100
0010
0010
0001
0010
1000
,  // measure 22
0010
0000
0100
0000
0001
1000
0001
0000
0100
0000
0010
0000
1000
0000
0100
0000
,  // measure 23
0010
0100
0010
0100
0010
0000
0001
1000
0001
1000
0001
0000
0100
0010
0100
0010
,  // measure 24
0100
0000
0001
0000
1000
0000
0001
0000
0100
0010
0100
0000
0001
0000
1000
0000
,  // measure 25
0010
0000
0100
0001
0100
0010
1000
0000
0010
0000
0000
0000
1100
0000
0000
0000
,  // measure 26
0011
0000
0000
0000
1000
0001
1000
0000
0100
0000
0010
0000
0001
0000
1002
0000
,  // measure 27
0010
0013
0100
0010
0010
1000
0010
0001
,  // measure 28
0010
0000
0100
0000
1000
0001
1000
0000
0010
0000
0100
0000
0010
0000
1000
0000
,  // measure 29
0100
0100
0010
0100
0001
0100
1100
0000
,  // measure 30
0011
0000
0010
0000
0001
1000
0001
0000
0010
0000
0100
0000
1000
0000
0010
0000
,  // measure 31
0100
0010
0100
0010
0100
0000
0001
1000
0001
1000
0001
0000
0010
0100
0010
0100
,  // measure 32
0010
0000
0001
0000
1000
0000
0001
0000
0010
0100
0010
0000
0001
0000
1000
0000
,  // measure 33
0100
0000
0010
0001
0010
0100
1000
0000
0001
0000
1000
0000
1010
0000
0000
0000
,  // measure 34
0101
0000
1000
0001
1000
0100
0010
0000
0001
0100
0001
1000
0010
0100
0020
0000
,  // measure 35
0000
0000
0000
2000
0000
3000
0000
0002
,  // measure 36
0000
0003
0000
2000
0000
3000
0000
0200
,  // measure 37
0000
0000
0000
0000
0000
0000
0000
0300
,  // measure 38
0000
0000
0000
2000
0000
3000
0000
0230
,  // measure 39
0000
0000
0000
0002
0000
0003
0000
2000
,  // measure 40
0000
3000
0000
0002
0000
0003
0000
0020
,  // measure 41
0000
0000
0000
0300
0000
0000
2030
0000
,  // measure 42
3002
0203
0320
0000
0000
0030
0000
1010
,  // measure 43
1010
1000
0001
0000
0011
0001
1000
0010
,  // measure 44
0000
0000
0000
0000
0000
0000
0100
0101
,  // measure 45
0001
1000
0000
1100
1000
0001
0100
0000
,  // measure 46
0000
0000
0000
0000
0000
0000
0000
1010
,  // measure 47
1010
1000
0001
0000
0011
0001
0010
0100
,  // measure 48
0000
0000
0000
0000
0000
0000
1000
1100
,  // measure 49
1000
0001
0000
0101
0100
0010
1000
0000
,  // measure 50
0001
0000
0000
0000
1000
0000
0000
0000
0100
0000
0010
0000
0100
0000
0000
0000
1000
0000
0000
0000
0001
0000
0000
0000
0000
0000
0000
0000
0100
0000
0010
1000
,  // measure 51
0001
0000
0010
0000
0000
0000
0100
0000
1000
0000
0001
0000
0000
0000
0100
0000
0010
0000
1000
0000
0100
0000
0010
0000
0001
0000
0100
0000
0010
0000
0100
0001
,  // measure 52
1000
0000
0100
0000
0000
0000
0010
0000
0001
0000
1000
0000
0000
0000
0010
0000
0000
0000
0100
0001
0100
0000
0010
0000
1000
0000
0100
0000
0010
0000
0001
1000
,  // measure 53
0100
0000
0001
0000
0000
0000
0100
0000
1000
0000
0001
0000
0000
0000
0100
0010
0100
0001
1000
0100
0010
0000
0001
0000
0010
0000
1000
0000
0010
0000
0001
0100
,  // measure 54
0001
0100
0010
1000
0001
0000
0010
0000
0100
0000
1100
0000
0011
0000
0101
0000
1010
0000
0010
0000
0100
0000
0000
0000
0001
0000
1000
0000
0001
0000
0100
0000
,  // measure 55
0001
0010
0100
1000
0001
0100
0010
1000
,  // measure 56
0100
0000
0010
0001
0010
0001
1000
0001
0100
0000
0010
0000
1000
0001
1000
0100
,  // measure 57
1000
0010
0100
0001
0101
0000
1000
0000
,  // measure 58
0001
0010
0001
0000
0100
0000
0010
0000
1000
0000
0001
0000
1000
0100
0010
0100
,  // measure 59
1000
0000
0001
0000
0100
0000
0010
0000
1000
0000
0010
0000
0100
0001
0100
0001
,  // measure 60
0100
0010
1000
0000
0100
0010
0001
0000
1000
0000
0010
0000
0100
0000
0001
0000
,  // measure 61
0010
0100
1000
0001
0011
0000
1000
0000
,  // measure 62
0002
0000
0000
0000
0013
0001
0100
0000
0010
0000
1010
0000
1010
0000
1000
0000
,  // measure 63
0001
0000
1100
0000
0101
0000
1010
1000
,  // measure 64
0001
0000
0000
0000
0000
0000
0000
0000
0010
0000
0000
0000
0001
0000
0000
0000
0010
0000
0000
0000
0001
0000
0000
0000
2000
3000
0000
0000
0000
0000
0000
0000
0010
0000
0000
0000
0000
0000
0000
0000
0100
0000
0000
0000
0001
0000
0000
0000
0100
0000
0000
0000
0010
0000
0000
0000
1000
0000
0000
0000
0000
0000
0000
0000
,  // measure 65
0100
0000
0010
0000
0100
0000
0001
0000
0100
0000
1000
0000
0100
0000
0010
0001
,  // measure 66
0100
0000
1000
0000
0100
0000
0001
0000
1000
0000
0100
0010
0001
1000
0100
0000
,  // measure 67
0010
0000
0001
0000
1000
0000
0010
0000
0000
0000
1000
0000
0100
0000
0010
0001
,  // measure 68
0100
0010
1000
0000
0100
0000
0010
0000
0001
0000
1000
0100
1000
0100
0010
0000
,  // measure 69
0001
0100
0001
0100
0010
0000
1000
0100
1000
0100
0010
0000
0001
0010
0001
0100
,  // measure 70
0010
1000
0010
0100
0001
0000
1000
0000
0100
0000
0100
0000
0010
0001
0010
0100
,  // measure 71
1000
0000
0001
0000
0000
0000
0101
0000
0000
0000
0011
0000
0000
0000
1000
0010
,  // measure 72
0100
0000
1000
0000
0100
0000
0001
0000
0010
0000
0100
1000
0100
0010
0001
0000
,  // measure 73
0100
0000
0010
0000
0100
0000
1000
0000
0100
0000
0001
0000
0100
0000
0010
1000
,  // measure 74
0100
0000
0001
0000
0100
0000
1000
0000
0001
0000
0100
0010
1000
0001
0100
0000
,  // measure 75
0010
0000
1000
0000
0001
0000
0011
0000
0000
0000
1010
0000
0100
0000
0010
1000
,  // measure 76
0100
0010
0001
0000
0100
0000
0010
0000
1000
0000
0001
0100
0001
0100
0010
0000
,  // measure 77
1000
0100
1000
0100
0010
0000
0001
0100
0001
0100
0010
0000
1000
0010
1000
0100
,  // measure 78
0010
0001
0010
0100
1000
0000
0001
0000
0100
0000
0100
0000
0010
1000
0010
0100
,  // measure 79
0001
0000
1000
0000
0100
0000
1100
0000
0000
0000
0011
0000
1000
0001
1000
0100
,  // measure 80
0010
0000
0000
0000
0001
0000
0010
0000
0001
0000
1000
0000
0010
0000
0100
0000
0001
0000
1000
0000
0000
0000
0100
0000
0000
0000
0010
0001
0100
0010
1000
0000
,  // measure 81
0000
0000
0010
0000
0000
0000
0100
0001
0010
0000
0100
0000
0010
0000
2002
0000
0000
0000
0000
0000
0000
0000
0000
0000
0000
0000
0000
0000
0000
0000
0000
0000
,  // measure 82
0000
0000
0000
0000
,  // measure 83
3003
0000
0000
0000
;

//---------------dance-single - ----------------
#NOTES:
     dance-single:
     :
     Challenge:
     10:
     0.911264,1.000000,0.490019,0.189130,0.769416,663.000000,57.000000,22.000000,184.000000,0.000000,0.000000,0.911264,1.000000,0.490019,0.189130,0.769416,663.000000,57.000000,22.000000,184.000000,0.000000,0.000000:
// measure 0
0000
0000
0000
0000
,  // measure 1
0000
0000
0000
0000
,  // measure 2
0000
0000
0000
0000
,  // measure 3
0000
0000
0000
0000
,  // measure 4
0000
0000
0000
0000
,  // measure 5
0000
0000
0000
0000
,  // measure 6
0000
0000
0000
0000
,  // measure 7
0000
0000
0000
0000
,  // measure 8
0000
0000
0000
0110
,  // measure 9
1001
0000
0100
0001
0100
0000
0010
0000
1000
0000
0100
0000
0010
0000
0001
0000
,  // measure 10
0000
0000
0001
0000
1000
0000
0010
0100
0001
0000
0010
0000
0001
0000
0100
0000
,  // measure 11
MMMM
0000
1000
0100
1000
0000
0001
0000
0010
0000
0100
0000
1000
0000
0001
0000
,  // measure 12
0000
0000
0010
0000
0100
0000
1000
0100
1000
0000
0010
0000
0100
0000
0001
0000
,  // measure 13
MMMM
0000
0010
1000
0010
0000
0100
0000
0001
0000
0010
0000
0100
0000
1000
0000
,  // measure 14
0000
0000
1000
0000
0001
0000
0010
0001
1000
0000
0001
0000
0100
0000
0010
0000
,  // measure 15
MMMM
0000
0001
1000
0001
0000
0010
0000
0100
0000
1000
0000
0001
0000
0100
0000
,  // measure 16
MMMM
0000
0100
0000
0010
0000
1000
0001
0010
0100
1000
0000
0001
0000
0100
0000
,  // measure 17
0010
1000
0100
0010
0001
0100
0010
2000
,  // measure 18
0000
0000
3001
0010
0001
0100
0010
1000
0100
1000
0010
0100
0002
0003
1000
0000
,  // measure 19
0001
1000
0001
0000
0100
0000
0010
0000
0010
0000
1000
0000
0011
0000
MMMM
0000
,  // measure 20
1100
0000
0010
0000
0100
1000
0010
0000
0010
0000
0100
0000
0100
0000
MMMM
0000
,  // measure 21
0100
0001
0010
0100
1000
0001
0100
MMMM
,  // measure 22
0010
0000
1000
0000
0100
0010
0100
1000
0001
0100
0010
0000
0010
0000
MMMM
0000
,  // measure 23
0001
0100
0001
0100
0001
0000
1000
0100
1000
0100
1000
0000
0001
0010
0001
0010
,  // measure 24
0100
0000
1000
0001
1000
0010
0100
0001
1000
0001
0010
0100
0010
0000
MMMM
0000
,  // measure 25
1000
0000
1000
0001
1000
0010
0100
0000
0001
0000
0000
0000
1010
0000
MMMM
0000
,  // measure 26
1100
0000
MMMM
0000
1000
0001
1000
0000
1100
0000
0010
0000
0011
0000
0001
0000
,  // measure 27
1000
0001
1000
0000
0010
0000
0100
0000
0100
0000
0001
0000
1000
0000
MMMM
0000
,  // measure 28
1000
0000
0100
0000
0010
0001
0100
0000
0100
0000
0010
0000
0010
0000
MMMM
0000
,  // measure 29
0010
1000
0100
0010
0001
1000
0010
MMMM
,  // measure 30
0101
0000
MMMM
0000
1100
0000
0010
0001
1000
0010
0100
0000
0100
0000
MMMM
0000
,  // measure 31
1000
0010
1000
0010
1000
0000
0001
0010
0001
0010
0001
0000
1000
0100
1000
0100
,  // measure 32
0010
0000
0001
1000
0001
0100
0010
1000
0001
1000
0100
0010
0100
0000
MMMM
0000
,  // measure 33
0001
0010
0001
1000
0001
0100
0010
0000
1000
0000
0001
0000
0101
0000
MMMM
0000
,  // measure 34
0011
0000
1000
0100
0010
0001
0100
0010
1000
0100
0001
0100
0010
0001
0200
0000
,  // measure 35
0001
0001
0302
0000
0013
0100
0010
0001
,  // measure 36
1000
0001
0100
0010
1000
0100
0010
0002
,  // measure 37
1000
1000
2003
0000
3010
1000
0010
0100
,  // measure 38
0001
1000
0001
0010
0100
1000
0000
0002
,  // measure 39
0100
0100
0203
0000
0310
1000
0100
0001
,  // measure 40
0100
0010
0001
0100
1000
0100
0001
2000
,  // measure 41
0100
0100
3200
0000
0310
0001
2000
0000
,  // measure 42
3002
0203
0320
0000
1030
0001
1000
1100
,  // measure 43
1100
1000
0001
0000
0101
0101
0010
1000
,  // measure 44
0000
0000
0000
MMMM
0000
0000
1100
1100
,  // measure 45
0010
0001
0000
0011
0011
0100
1100
0000
,  // measure 46
0000
0000
0000
MMMM
0000
0000
0000
0011
,  // measure 47
0011
0001
0100
0000
1010
1010
0001
1000
,  // measure 48
0000
0000
0000
MMMM
0000
0000
0101
0101
,  // measure 49
0010
1000
0000
1100
1100
0010
0011
MMMM
,  // measure 50
1000
0000
0000
0000
0001
0000
0000
0000
0010
0000
0001
0000
0100
0000
0000
0000
1000
0000
0000
0000
0100
0000
0000
0000
0000
0000
0000
0000
0001
1000
0100
0010
,  // measure 51
0001
0000
1000
0000
0000
0000
1010
0000
0100
0000
0001
0000
0000
0000
0001
0010
0001
0010
0100
1000
0010
0000
0100
0000
0001
0000
1000
0000
0001
0000
0010
0100
,  // measure 52
1000
0001
0100
0000
0000
0000
1010
0000
0001
0000
0100
0000
0000
0000
0101
0000
0000
0000
0010
0001
0010
0000
0100
0000
1000
0000
0001
0000
0100
0000
0010
1000
,  // measure 53
0100
0010
0001
0000
0000
0000
1100
0000
0001
0000
0010
0000
0000
0000
0001
0010
0100
1000
0010
0100
0001
0000
0100
0000
1000
0000
0100
0000
0010
0000
1000
0100
,  // measure 54
1000
0100
0010
0001
0100
0010
1000
0001
1000
0100
0010
0000
1100
0000
MMMM
0000
0101
0000
0000
0000
1000
0000
0000
0000
0001
0000
0100
0000
0010
0000
1000
0000
,  // measure 55
0001
1000
0100
0010
0001
MMMM
0001
0100
,  // measure 56
0010
0000
1000
0100
0010
0001
0100
0010
1000
0000
0001
0100
0010
0100
0001
0100
,  // measure 57
0010
MMMM
1000
0100
0011
MMMM
1001
0000
,  // measure 58
0100
0001
0010
0000
0001
0000
0100
0000
0010
0000
1000
0000
0001
1000
0100
0010
,  // measure 59
0001
0000
1000
0000
0001
0000
0100
0000
0010
0000
MMMM
0000
0100
0001
0010
0100
,  // measure 60
0010
0001
1000
0000
0001
0000
0100
0000
0001
0000
1000
0000
0100
1000
0010
1000
,  // measure 61
0100
0010
0001
0000
1000
0000
0010
0000
0100
0000
MMMM
0000
0101
0000
MMMM
0000
,  // measure 62
1100
0000
0000
0000
0001
0010
0001
0000
0100
0000
1010
0000
1010
0000
1000
0000
,  // measure 63
1001
0000
MMMM
0000
1100
0000
MMMM
0000
0022
0030
0000
0000
1003
0000
0001
0000
,  // measure 64
0202
0000
0000
0000
0000
0303
MMMM
0000
0001
0000
1000
0001
1000
0000
0010
0000
,  // measure 65
0100
0000
0100
0000
0001
0000
1100
0000
MMMM
0000
0011
0000
0100
0000
0010
0001
,  // measure 66
0100
0100
0010
0010
MMMM
0010
1000
0100
,  // measure 67
0010
0000
0001
0000
1000
0000
0010
0000
MMMM
0000
0100
0000
0001
0000
0010
0100
,  // measure 68
0010
0001
1000
0010
0100
0000
0100
0000
MMMM
0000
1000
0010
1000
0010
1000
0000
,  // measure 69
0001
0010
0001
0010
0001
0000
1000
0100
1000
0100
0010
0000
0001
1000
0001
0100
,  // measure 70
0010
1000
0001
1000
0100
0010
0100
0000
MMMM
0000
0001
0000
0001
1000
0001
0100
,  // measure 71
0010
0000
1000
0000
0000
0000
0101
0000
MMMM
0000
0011
0000
MMMM
0000
0001
1000
,  // measure 72
0001
0000
0011
0000
0100
0000
1100
0000
1000
0000
0001
1000
0001
0010
0100
0000
,  // measure 73
0010
0000
0001
0000
1000
0000
0010
0000
MMMM
0000
0001
0000
0010
0000
0100
1000
,  // measure 74
0010
0010
0100
0100
MMMM
0100
0001
0010
,  // measure 75
0100
1000
0001
0100
MMMM
1010
MMMM
0011
,  // measure 76
0100
1000
0001
0100
0010
0000
0010
0000
MMMM
0000
0001
0100
0001
0100
0001
0000
,  // measure 77
1000
0100
1000
0100
1000
0000
0001
0010
0001
0010
0100
0000
1000
0001
1000
0010
,  // measure 78
0100
0001
1000
0001
0010
0100
0010
0000
MMMM
0000
1000
0100
1000
0001
1000
0010
,  // measure 79
0100
0000
0001
0000
1000
0000
1010
0000
MMMM
0000
1100
0000
0001
0010
0100
1000
,  // measure 80
0010
0000
0100
0000
0001
0000
0010
0000
1000
0000
0010
0000
0001
0000
1000
0000
0200
0000
0010
0000
0000
0000
1000
0000
0000
0000
0301
0100
0010
0001
0200
0000
,  // measure 81
0000
0000
0010
0000
0000
0000
1300
0100
0001
0000
1000
0000
0100
0000
0022
0000
0000
0000
0000
0000
0000
0000
0000
0000
0000
0000
0000
0000
0000
0000
0000
0000
,  // measure 82
0000
0000
0000
0000
,  // measure 83
0033
0000
0000
0000
;

//---------------dance-single - ----------------
#NOTES:
     dance-single:
     :
     Medium:
     8:
     0.604234,0.820567,0.214921,0.197727,0.163340,444.000000,25.000000,23.000000,0.000000,0.000000,0.000000,0.604234,0.820567,0.214921,0.197727,0.163340,444.000000,25.000000,23.000000,0.000000,0.000000,0.000000:
0000
0000
0000
0000
,
0000
0000
0000
0000
,
0000
0000
0000
0000
,
0000
0000
0000
0000
,
0000
0000
0000
0000
,
0000
0000
0000
0000
,
0000
0000
0000
0000
,
0000
0000
0000
0000
,
0000
0000
0000
0110
,
1001
0001
0010
0010
,
1000
0000
1000
0000
0100
1000
0100
0000
,
1000
1000
0010
0010
,
0001
0000
0001
0000
0100
0001
0100
0000
,
0001
0001
0100
0100
,
1000
0000
1000
0000
0010
1000
0010
0000
,
1000
0100
0001
0010
,
0100
0000
1000
0000
0001
1000
0001
0000
,
0002
0000
0000
0000
0000
0000
0000
2000
,
0003
3010
0100
0001
1000
0100
0020
0031
,
0010
0100
1000
0000
0001
0100
0010
0000
,
1000
0010
0100
0001
0100
0010
1000
0000
,
0100
0010
0001
0100
0010
1000
0010
0000
,
0100
0001
1000
0001
0010
0100
0000
1000
,
0100
0100
0001
0100
0100
0010
0100
0100
,
1000
0001
0100
0010
1000
0010
0100
0000
,
0001
0010
0001
0100
0010
0000
1010
0000
,
0101
0000
0001
1000
0100
0010
0001
1000
,
0010
0100
0001
0000
0010
0100
1000
0000
,
0001
0100
0010
1000
0010
0100
0001
0000
,
0010
0100
1000
0010
0100
0001
0101
0000
,
0011
0000
1100
0100
0010
0001
0000
0001
,
0010
0010
1000
0010
0010
0100
0010
0010
,
0001
1000
0010
0100
0001
0100
0010
0000
,
1000
0100
1000
0010
0100
0001
0101
0000
,
1010
0000
1000
0001
0010
0100
1000
0002
,
0000
0000
0000
0020
0000
0030
0000
2000
,
0000
3000
0000
0200
0000
0300
0000
2000
,
0000
0000
0000
0000
,
0000
0003
0000
0200
0000
3000
0000
0320
,
0000
0000
0000
0002
0000
0003
0000
2000
,
0000
3000
0000
0002
0000
0003
0000
0200
,
0000
0000
0000
0300
0000
0000
0032
0000
,
0203
0320
2030
0000
3000
0000
0000
0001
,
0100
0001
0100
0000
0010
1000
0100
0010
,
0000
0000
0000
0000
0000
0000
0100
1000
,
0100
1000
0000
0001
0100
0010
1000
0000
,
0000
0000
0000
0000
0000
0000
0000
0010
,
1000
0010
1000
0000
0100
0010
0001
1000
,
0000
0000
0000
0000
0000
0000
0100
0010
,
0100
0010
0000
0001
1000
0010
0100
0000
,
0000
0000
0000
0000
0010
1000
0010
0000
0100
0000
0001
0000
0000
0000
1000
0100
,
0010
0001
0000
0100
0000
0010
0000
1000
0100
0000
0010
0001
0100
0000
0010
0000
,
1000
0100
0000
0001
0000
0100
0000
1000
0000
0001
0100
0010
1000
0000
0010
0100
,
0001
1000
0000
0100
0000
0010
0000
0100
0000
1000
0001
0100
0010
0000
1000
0010
,
0100
0001
1000
0100
0010
0011
1010
1100
0101
0001
1000
0000
0100
0000
0010
0000
,
0001
0000
0100
0010
1000
0000
0100
0010
,
0001
1000
0001
0100
0010
0010
1000
0100
,
0010
0000
0001
1000
1100
0000
0010
0000
,
0001
0001
1000
0010
0100
0001
1000
0100
,
0001
0000
0100
1000
0010
0000
0100
0100
,
0001
1000
0001
0010
0100
1000
0100
0010
,
0001
0100
0010
1000
1010
0000
0100
0000
,
0002
0000
0013
0010
0100
1000
0100
1000
,
1100
0000
0101
0000
1002
0000
0103
0010
,
1000
0000
0000
0000
0000
0000
0000
0000
0100
0000
0000
0000
0000
0000
0000
0000
0010
0000
0000
0000
0000
0000
0000
0000
0002
0003
0000
0000
0000
0000
0000
0000
0010
0000
0000
0000
0000
0000
0000
0000
0100
0000
0000
0000
0000
0000
0000
0000
1000
0000
0000
0000
0000
0000
0000
0000
0001
0000
0000
0000
0000
0000
0000
0000
,
0000
0100
0010
1000
0000
0100
0010
0001
,
0010
1000
0010
0001
0000
0100
0010
1000
,
0100
0010
0001
1000
0000
0010
0000
0100
,
0001
0100
0010
1000
0001
0010
0010
1000
,
0010
0010
0001
0010
0010
1000
0010
0001
,
0100
0010
1000
0001
0000
0100
1000
0100
,
0001
0010
0000
1100
0000
0110
0000
0001
,
0100
0000
1000
0000
0100
0000
0001
0000
1000
0000
0100
1000
0100
0000
0010
0000
,
0000
0000
0001
0000
0100
0000
0010
0000
0000
0000
1000
0000
0001
0000
0010
0001
,
0010
0000
0100
0000
1000
0000
0001
0000
0000
0000
0100
0010
0100
0000
0001
0000
,
0010
0100
1000
1100
0000
0101
0000
0110
,
0010
1000
0001
0000
1000
0100
0100
0001
,
0100
0100
1000
0100
0100
0001
0100
0010
,
0001
0000
1000
0000
0010
0000
0000
0000
0100
0000
0001
0100
0001
0000
0100
0000
,
0010
1000
0001
0011
0000
1000
0010
0100
,
0001
0000
0010
0000
0100
0000
1000
0000
0001
0100
0000
0010
0000
1000
0100
0010
,
0000
0001
0000
0100
0100
0010
1000
2002
0000
0000
0000
0000
0000
0000
0000
0000
,
0000
0000
0000
0000
,
3003
0000
0000
0000
;

//---------------dance-single - ----------------
#NOTES:
     dance-single:
     :
     Easy:
     6:
     0.389313,0.535152,0.128952,0.257905,0.017194,272.000000,15.000000,30.000000,0.000000,0.000000,0.000000,0.389313,0.535152,0.128952,0.257905,0.017194,272.000000,15.000000,30.000000,0.000000,0.000000,0.000000:
0000
0000
0000
0000
,
0000
0000
0000
0000
,
0000
0000
0000
0000
,
0000
0000
0000
0000
,
0000
0000
0000
0000
,
0000
0000
0000
0000
,
0000
0000
0000
0000
,
0000
0000
0000
0000
,
0000
0000
0000
0110
,
2002
0000
0000
0000
,
0000
0000
0000
3003
,
0200
0000
0000
0000
,
0000
0000
0000
0300
,
0020
0000
0000
0000
,
0000
0000
0000
0030
,
2000
0000
0000
0000
,
0000
0000
0000
3000
,
0002
0000
0000
0000
0000
0000
0000
2000
,
0000
0000
0000
0000
0000
0000
3003
0001
,
0000
0001
0000
0010
0000
0100
0000
1000
,
0000
0001
0000
0100
0001
0100
0000
0010
,
0000
0010
0000
1000
0000
0100
0000
0010
,
0000
0001
0000
1000
0100
1000
0000
0100
,
0000
0010
0000
0001
0000
0100
0000
0010
,
0000
1000
0000
0100
1000
0100
0000
0010
,
0000
0001
0000
0100
0010
0000
0110
0000
,
1001
0000
0000
1000
0001
0100
0000
0110
,
0000
1000
0000
0001
0000
0010
0000
0100
,
0000
1000
0000
0001
0100
0001
0000
0100
,
0000
0010
0000
1000
0000
0100
0010
0000
,
1001
0000
0010
1000
0010
1000
0000
0010
,
0000
0010
0000
1000
0000
1000
0000
0001
,
0000
0001
0000
0010
0100
1000
0000
0001
,
0000
0100
0000
0010
0000
0100
0001
0000
,
0000
1000
0000
0001
0000
0010
0000
0100
,
0000
0000
0000
2000
0000
0000
0000
3002
,
0000
0000
0000
0203
0000
0000
0000
0320
,
0000
0000
0000
0000
,
0000
0000
0000
2030
0000
0000
0000
3002
,
0000
0000
0000
2003
0000
0000
0000
3002
,
0000
0000
0000
0023
0000
0000
0000
0230
,
0000
0000
0000
0000
0000
0300
1000
0000
,
0001
1000
0002
0000
0003
0000
0000
1000
,
0001
1000
0001
0000
0010
0100
0010
0100
,
0000
0000
0000
0000
0000
0000
1000
0100
,
1000
0100
0000
0010
0001
0010
0001
0000
,
0000
0000
0000
0000
0000
0000
0000
1000
,
0010
1000
0010
0000
0100
0001
0100
0001
,
0000
0000
0000
0000
0000
0000
0100
0010
,
1000
0010
0000
0100
0001
0100
0001
0000
,
0000
0000
0000
1000
0001
0100
0000
0020
,
0000
0000
0000
0000
0000
0000
0000
2030
,
0000
0000
0000
0000
0000
0000
0000
3002
,
0000
0000
0000
0000
0000
0000
0000
0023
,
0000
0000
0000
0000
0030
0100
0100
0100
0100
0000
1000
0000
0000
0000
1000
0000
,
0000
0010
1000
0100
0000
0010
0000
0001
,
0000
1000
0001
1000
0010
0100
0000
0100
,
0000
0010
1000
0100
0010
0000
0001
0000
,
1000
1000
0001
1000
0000
0010
0000
0010
,
0000
0100
0001
0010
0000
0100
0000
1000
,
0000
0001
1000
0001
0100
0010
0000
0010
,
0000
0100
0001
0010
0100
0000
1000
0000
,
0001
0001
1000
0001
0000
1000
0001
1000
,
0001
0000
1100
0000
1001
0000
0001
1000
,
0002
0000
0000
0000
0000
0000
0000
0000
0000
0000
0000
0000
0000
0000
0000
0000
0000
0000
0000
0000
0000
0000
0000
0000
2003
3000
0000
0000
0000
0000
0000
0000
0001
0000
0000
0000
0000
0000
0000
0000
0000
0000
0000
0000
0000
0000
0000
0000
0001
0000
0000
0000
0000
0000
0000
0000
0000
0000
0000
0000
0000
0000
0000
0000
,
0010
0100
1000
0001
,
0100
0001
0100
0000
0010
0000
0010
0000
,
1000
0100
0010
0001
,
1000
0100
1000
0000
0100
0000
0010
0000
,
0001
0100
0010
1000
,
0100
1000
0100
0000
0010
0000
0001
0000
,
0100
0100
0000
0110
0000
1001
0000
0010
,
1000
0001
0100
0000
0110
0000
1000
0000
,
0001
0010
0100
0000
1000
0000
0001
0000
,
0100
0001
1000
0010
0100
0000
0010
0000
,
1000
0000
0100
0010
0000
1001
0000
0010
,
1000
0010
1000
0000
0010
0000
0010
0000
,
1000
0100
1000
0000
0001
0000
0001
0000
,
0010
0100
1000
0000
0001
0000
0100
0000
,
0010
0000
0100
0001
0000
1000
0000
0001
,
0010
0000
0100
0000
1000
0000
0000
0000
2002
0000
0000
0000
0000
3003
0000
2200
,
0000
0000
0000
0000
3300
0000
0000
2002
0000
0000
0000
0000
0000
0000
0000
0000
,
0000
0000
0000
0000
,
3003
0000
0000
0000
;
